osu file format v14

[General]
AudioFilename: audio.mp3
AudioLeadIn: 0
PreviewTime: 9660
Countdown: 0
SampleSet: Soft
StackLeniency: 0.7
Mode: 0
LetterboxInBreaks: 0
WidescreenStoryboard: 1

[Editor]
DistanceSpacing: 3.2
BeatDivisor: 4
GridSize: 8
TimelineZoom: 1.192

[Metadata]
Title:Boss Of Me (TV Size)
TitleUnicode:Boss Of Me (TV Size)
Artist:They Might Be Giants
ArtistUnicode:They Might Be Giants
Creator:Cris-
Version:Tatan's Light Insane
Source:Malcolm in the Middle
Tags:TheShadowOfDark ezek Tatan Gero Hazu- wolf3211 pkhg Opening Intro English Alternative Rock TMBG
BeatmapID:2105997
BeatmapSetID:1006284

[Difficulty]
HPDrainRate:5
CircleSize:3.5
OverallDifficulty:7.5
ApproachRate:9
SliderMultiplier:1.4
SliderTickRate:1

[Events]
//Background and Video events
0,0,"Malcolm.jpg",0,0
Video,0,"Malcolm Opening.mp4"
//Break Periods
//Storyboard Layer 0 (Background)
//Storyboard Layer 1 (Fail)
//Storyboard Layer 2 (Pass)
//Storyboard Layer 3 (Foreground)
//Storyboard Layer 4 (Overlay)
//Storyboard Sound Samples

[TimingPoints]
195,596.421471172962,4,2,1,60,1,0
195,-71.4285714285714,4,2,1,60,0,0
7799,-71.4285714285714,4,2,1,5,0,0
7948,-71.4285714285714,4,2,1,60,0,0
8544,297.766749379653,4,2,1,70,1,0
9735,-83.3333333333333,4,2,1,80,0,1
26410,300,4,2,1,80,1,1
26410,-83.3333333333333,4,2,1,80,0,1
27610,-100,4,2,1,80,0,1
28810,-133.333333333333,4,2,1,70,0,0
30010,-133.333333333333,4,2,1,60,0,0
31210,-133.333333333333,4,2,1,50,0,0
32410,-133.333333333333,4,2,1,40,0,0
33610,-133.333333333333,4,2,1,30,0,0
34810,-133.333333333333,4,2,1,5,0,0

[Colours]
Combo1 : 133,152,239
Combo2 : 252,73,73
Combo3 : 94,118,234
Combo4 : 255,117,117

[HitObjects]
76,96,45,5,8,0:0:0:0:
78,118,120,1,8,0:0:0:0:
80,140,195,2,0,P|134:156|188:144,1,97.9999970092774,4|2,0:0|0:0,0:0:0:0:
249,59,791,1,8,0:0:0:0:
329,144,1089,2,0,B|351:190|329:238|329:238|305:285|329:333,1,195.999994018555,2|2,3:2|0:0,0:0:0:0:
428,282,1984,1,8,0:0:0:0:
290,234,2282,1,2,3:2:0:0:
512,205,2580,5,0,3:0:0:0:
424,136,2878,2,0,L|320:142,1,97.9999970092774,2|8,0:0|0:0,0:0:0:0:
190,228,3475,2,0,L|293:234,1,97.9999970092774,2|0,3:2|3:0,0:0:0:0:
128,149,4071,2,0,P|91:200|96:261,1,97.9999970092774,2|8,0:0|0:0,0:0:0:0:
145,352,4668,2,0,P|92:274|-3:281,2,195.999994018555,2|2|2,3:2|0:0|3:2,0:0:0:0:
49,362,6159,1,0,3:0:0:0:
152,194,6457,6,0,P|209:179|266:195,2,97.9999970092774,2|8|2,0:0|0:0|3:2,0:0:0:0:
314,268,7352,2,0,P|353:205|341:137,1,146.999995513916,0|0,3:0|0:0,0:0:0:0:
313,118,7948,1,8,0:0:0:0:
306,127,8544,5,8,0:0:0:0:
92,153,8692,1,0,3:0:0:0:
291,225,8841,5,8,0:0:0:0:
84,166,8990,1,0,3:0:0:0:
217,71,9139,5,8,0:0:0:0:
175,219,9288,1,0,3:0:0:0:
125,13,9437,1,8,0:0:0:0:
97,291,9735,6,0,P|143:320|239:300,1,125.999996154785,6|0,3:2|0:0,0:0:0:0:
244,288,10032,2,0,P|300:275|349:291,1,83.9999974365235,10|0,0:0|0:0,0:0:0:0:
420,356,10330,2,0,L|418:182,1,167.999994873047,2|10,3:2|0:0,0:0:0:0:
411,57,10777,6,0,P|348:37|309:48,1,83.9999974365235,2|0,3:2|0:0,0:0:0:0:
237,120,11074,1,2,0:0:0:0:
334,193,11223,2,0,L|430:187,1,83.9999974365235,8|0,0:0|0:0,0:0:0:0:
224,110,11521,2,0,L|128:104,1,83.9999974365235,0|0,3:2|0:0,0:0:0:0:
39,95,11819,1,8,0:0:0:0:
151,332,12117,6,0,P|180:286|160:190,1,125.999996154785,2|0,3:2|0:0,0:0:0:0:
148,185,12414,2,0,P|135:129|151:80,1,83.9999974365235,10|0,0:0|0:0,0:0:0:0:
211,31,12712,2,0,L|385:35,1,167.999994873047,2|10,3:2|0:0,0:0:0:0:
371,196,13159,6,0,P|356:157|363:116,1,83.9999974365235,2|0,3:2|0:0,0:0:0:0:
480,201,13457,1,2,0:0:0:0:
398,288,13605,2,0,L|275:282,1,83.9999974365235,8|0,0:0|0:0,0:0:0:0:
176,279,13903,1,0,3:2:0:0:
262,199,14052,1,0,0:0:0:0:
254,364,14201,1,8,0:0:0:0:
253,111,14499,6,0,P|322:93|383:109,1,125.999996154785,2|0,3:2|0:0,0:0:0:0:
403,123,14797,2,0,L|400:228,1,83.9999974365235,10|0,0:0|0:0,0:0:0:0:
391,319,15094,2,0,B|349:307|311:332|311:332|275:360|231:347,1,167.999994873047,2|10,3:2|0:0,0:0:0:0:
210,196,15541,2,0,P|249:241|253:292,1,83.9999974365235,2|0,3:2|0:0,0:0:0:0:
58,332,15839,1,2,0:0:0:0:
104,168,15988,1,8,0:0:0:0:
161,273,16136,1,0,0:0:0:0:
11,211,16285,2,0,P|2:170|10:128,1,83.9999974365235,2|0,3:2|0:0,0:0:0:0:
85,42,16583,2,0,L|191:48,1,83.9999974365235,10|0,0:0|0:0,0:0:0:0:
340,156,16881,6,0,P|258:143|353:75,1,251.999992309571,2|0,3:2|0:0,0:0:0:0:
418,181,17476,2,0,P|316:246|203:200,1,251.999992309571,2|0,3:2|0:0,0:0:0:0:
150,97,18072,2,0,B|178:156|150:217|150:217|119:278|150:340,1,251.999992309571,2|0,3:2|0:0,0:0:0:0:
346,235,18668,1,0,3:2:0:0:
242,278,18816,1,0,0:0:0:0:
429,310,18965,1,8,0:0:0:0:
449,64,19263,6,0,P|392:45|306:76,1,125.999996154785,6|0,3:2|0:0,0:0:0:0:
311,82,19561,2,0,P|257:98|195:82,1,83.9999974365235,10|0,0:0|0:0,0:0:0:0:
89,27,19859,2,0,P|138:83|129:189,1,167.999994873047,2|10,3:2|0:0,0:0:0:0:
24,260,20305,6,0,P|73:247|128:259,1,83.9999974365235,2|0,3:2|0:0,0:0:0:0:
216,312,20603,1,2,0:0:0:0:
305,230,20752,2,0,L|300:122,1,83.9999974365235,8|0,0:0|0:0,0:0:0:0:
203,221,21050,1,0,3:2:0:0:
305,351,21199,1,0,0:0:0:0:
397,253,21347,2,0,L|392:145,1,83.9999974365235,8|0,0:0|0:0,0:0:0:0:
381,41,21645,6,0,P|295:29|252:47,1,125.999996154785,2|0,3:2|0:0,0:0:0:0:
243,67,21943,2,0,P|206:87|165:92,1,83.9999974365235,10|0,0:0|0:0,0:0:0:0:
72,9,22241,2,0,L|76:185,1,167.999994873047,2|10,3:2|0:0,0:0:0:0:
18,301,22687,2,0,P|70:274|117:278,1,83.9999974365235,2|0,3:2|0:0,0:0:0:0:
217,333,22985,1,2,0:0:0:0:
90,376,23134,1,8,0:0:0:0:
168,188,23283,1,0,0:0:0:0:
316,339,23432,2,0,L|230:345,1,83.9999974365235,0|0,3:2|0:0,0:0:0:0:
389,220,23730,2,0,L|475:226,1,83.9999974365235,8|0,0:0|0:0,0:0:0:0:
289,242,24027,6,0,P|266:171|292:93,1,125.999996154785,2|0,3:2|0:0,0:0:0:0:
300,102,24325,2,0,P|315:63|313:21,1,83.9999974365235,10|0,0:0|0:0,0:0:0:0:
157,57,24623,2,0,L|163:236,1,167.999994873047,2|10,3:2|0:0,0:0:0:0:
207,342,25069,6,0,P|254:359|310:348,1,83.9999974365235,2|0,3:2|0:0,0:0:0:0:
364,224,25367,1,2,0:0:0:0:
259,256,25516,1,8,0:0:0:0:
452,298,25665,1,0,0:0:0:0:
396,122,25814,2,0,L|293:126,1,83.9999974365235,2|0,3:2|0:0,0:0:0:0:
212,23,26112,2,0,L|315:27,1,83.9999974365235,8|0,0:0|0:0,0:0:0:0:
184,128,26410,6,0,B|121:106|95:39|95:39|57:100|-7:111,1,251.999992309571,2|0,3:2|0:0,0:0:0:0:
87,169,27010,2,0,P|112:232|88:352,1,167.999994873047,2|8,3:2|0:0,0:0:0:0:
336,320,27610,6,0,L|399:315,4,35,10|8|8|8|8,0:0|0:0|0:0|0:0|0:0,0:0:0:0:
272,248,28210,2,0,L|214:244,4,35,8|8|8|8|8,0:0|0:0|0:0|0:0|0:0,0:0:0:0:
328,176,28809,1,4,0:0:0:0:
256,192,28884,12,0,34810,0:0:0:0:
