osu file format v14

[General]
AudioFilename: audio.mp3
AudioLeadIn: 0
PreviewTime: 9660
Countdown: 0
SampleSet: Soft
StackLeniency: 0.7
Mode: 0
LetterboxInBreaks: 0
WidescreenStoryboard: 1

[Editor]
DistanceSpacing: 1
BeatDivisor: 4
GridSize: 4
TimelineZoom: 2.192

[Metadata]
Title:Boss Of Me (TV Size)
TitleUnicode:Boss Of Me (TV Size)
Artist:They Might Be Giants
ArtistUnicode:They Might Be Giants
Creator:Cris-
Version:Normal
Source:Malcolm in the Middle
Tags:TheShadowOfDark ezek Tatan Gero Hazu- wolf3211 pkhg Opening Intro English Alternative Rock TMBG
BeatmapID:2130481
BeatmapSetID:1006284

[Difficulty]
HPDrainRate:3
CircleSize:3.5
OverallDifficulty:4
ApproachRate:5.5
SliderMultiplier:1.3
SliderTickRate:1

[Events]
//Background and Video events
0,0,"Malcolm.jpg",0,0
Video,0,"Malcolm Opening.mp4"
//Break Periods
//Storyboard Layer 0 (Background)
//Storyboard Layer 1 (Fail)
//Storyboard Layer 2 (Pass)
//Storyboard Layer 3 (Foreground)
//Storyboard Layer 4 (Overlay)
//Storyboard Sound Samples

[TimingPoints]
195,596.421471172962,4,2,1,60,1,0
8544,297.766749379653,4,2,1,70,1,0
8544,-125,4,2,1,70,0,0
9735,-125,4,2,1,80,0,1
11521,-125,4,2,1,80,0,1
11819,-125,4,2,1,80,0,1
12117,-125,4,2,1,80,0,1
13903,-125,4,2,1,80,0,1
14201,-125,4,2,1,80,0,1
14499,-125,4,2,1,80,0,1
18965,-125,4,2,1,80,0,0
19263,-125,4,2,1,80,0,1
21050,-125,4,2,1,80,0,1
21347,-125,4,2,1,80,0,1
21645,-125,4,2,1,80,0,1
23432,-125,4,2,1,80,0,1
23730,-125,4,2,1,80,0,1
24027,-125,4,2,1,80,0,1
26410,300,4,2,1,80,1,1
26410,-125,4,2,1,80,0,1
27310,-125,4,2,1,80,0,0
27610,-125,4,2,1,80,0,1
28810,-125,4,2,1,70,0,0
30010,-125,4,2,1,60,0,0
31210,-125,4,2,1,50,0,0
32410,-125,4,2,1,40,0,0
33610,-125,4,2,1,30,0,0
34810,-125,4,2,1,5,0,0

[Colours]
Combo1 : 133,152,239
Combo2 : 252,73,73
Combo3 : 94,118,234
Combo4 : 255,117,117

[HitObjects]
284,332,195,6,0,B|220:308|220:356|158:332,1,130,4|8,0:0|0:0,0:0:0:0:
88,264,1089,1,2,3:2:0:0:
156,192,1387,2,0,B|218:168|218:216|282:192,1,130,0|8,3:0|0:0,0:0:0:0:
352,264,2282,1,2,3:2:0:0:
420,192,2580,6,0,P|428:160|420:130,2,65,0|2|8,3:0|0:0|0:0,0:0:0:0:
352,264,3475,1,2,3:2:0:0:
282,192,3773,2,0,P|274:160|282:130,2,65,0|2|8,3:0|0:0|0:0,0:0:0:0:
352,264,4668,1,2,3:2:0:0:
284,332,4966,6,0,P|224:356|167:332,1,130,0|8,3:0|0:0,0:0:0:0:
96,264,5861,1,2,3:2:0:0:
165,192,6159,2,0,P|224:168|283:193,1,130,0|8,3:0|0:0,0:0:0:0:
344,268,7053,1,2,3:2:0:0:
408,192,7352,6,0,P|432:133|407:74,1,130,0|8,3:0|0:0,0:0:0:0:
344,0,8246,1,2,3:2:0:0:
280,76,8544,2,0,L|229:84,1,52,8|0,0:0|3:0,0:0:0:0:
188,88,8841,2,0,L|137:80,1,52,8|0,0:0|3:0,0:0:0:0:
96,76,9139,2,0,L|45:84,1,52,8|0,0:0|3:0,0:0:0:0:
4,88,9437,1,8,0:0:0:0:
20,192,9735,6,0,L|122:176,1,104,6|10,3:2|0:0,0:0:0:0:
176,172,10181,1,0,0:0:0:0:
176,172,10330,1,2,3:2:0:0:
280,172,10628,1,10,0:0:0:0:
280,172,10777,2,0,L|382:188,1,104,2|2,3:2|0:0,0:0:0:0:
436,196,11223,5,8,0:0:0:0:
509,269,11521,1,0,3:2:0:0:
436,343,11819,1,8,0:0:0:0:
360,269,12117,6,0,P|312:253|263:269,1,104,2|10,3:2|0:0,0:0:0:0:
220,300,12563,1,0,0:0:0:0:
220,300,12712,1,2,3:2:0:0:
128,348,13010,1,10,0:0:0:0:
128,348,13159,2,0,P|112:300|128:251,1,104,2|2,3:2|0:0,0:0:0:0:
152,204,13606,5,8,0:0:0:0:
79,131,13904,1,0,3:2:0:0:
152,57,14202,1,8,0:0:0:0:
228,131,14499,6,0,P|276:147|325:131,1,104,2|10,3:2|0:0,0:0:0:0:
372,108,14945,1,0,0:0:0:0:
372,108,15094,1,2,3:2:0:0:
464,56,15392,1,10,0:0:0:0:
464,56,15541,2,0,B|484:104|484:104|464:151,1,104,2|2,3:2|0:0,0:0:0:0:
440,200,15988,1,8,0:0:0:0:
372,280,16285,2,0,P|324:296|275:280,1,104,2|10,3:2|0:0,0:0:0:0:
208,200,16881,6,0,B|192:148|224:148|208:98,2,104,2|8|2,3:2|0:0|3:2,0:0:0:0:
136,280,17774,1,8,0:0:0:0:
68,200,18072,2,0,B|84:148|52:148|68:98,1,104,2|8,3:2|0:0,0:0:0:0:
136,16,18668,2,0,P|164:12|187:16,1,52,0|0,3:2|0:0,0:0:0:0:
236,32,18965,2,0,P|264:36|287:32,1,52,8|0,0:0|0:0,0:0:0:0:
336,16,19263,6,0,P|352:64|336:113,1,104,6|10,3:2|0:0,0:0:0:0:
313,160,19709,1,0,0:0:0:0:
313,160,19858,1,2,3:2:0:0:
236,232,20156,1,10,0:0:0:0:
236,232,20305,2,0,P|220:280|236:329,1,104,2|2,3:2|0:0,0:0:0:0:
260,376,20752,5,8,0:0:0:0:
333,303,21050,1,0,3:2:0:0:
407,376,21348,1,8,0:0:0:0:
484,304,21645,6,0,B|504:256|504:256|484:209,1,104,2|10,3:2|0:0,0:0:0:0:
460,160,22092,1,0,0:0:0:0:
460,160,22240,1,2,3:2:0:0:
412,68,22538,1,10,0:0:0:0:
412,68,22687,2,0,L|310:84,1,104,2|2,3:2|0:0,0:0:0:0:
256,92,23133,5,8,0:0:0:0:
183,165,23431,1,0,3:2:0:0:
109,92,23729,1,8,0:0:0:0:
32,164,24027,6,0,B|12:212|12:212|32:259,1,104,2|10,3:2|0:0,0:0:0:0:
56,308,24474,1,0,0:0:0:0:
56,308,24622,1,2,3:2:0:0:
148,260,24921,1,10,0:0:0:0:
148,260,25070,2,0,B|196:240|196:240|243:260,1,104,2|2,3:2|0:0,0:0:0:0:
292,284,25516,1,8,0:0:0:0:
384,332,25814,2,0,P|400:284|384:235,1,104,2|8,3:2|0:0,0:0:0:0:
315,154,26410,6,0,P|299:106|315:57,2,104,2|8|2,3:2|0:0|3:2,0:0:0:0:
384,235,27310,1,8,0:0:0:0:
316,316,27610,2,0,L|265:324,1,52,10|8,0:0|0:0,0:0:0:0:
224,328,27910,1,8,0:0:0:0:
120,328,28210,2,0,L|69:320,1,52,8|8,0:0|0:0,0:0:0:0:
28,316,28510,1,8,0:0:0:0:
44,212,28810,5,4,0:0:0:0:
256,192,28885,12,0,34810,0:0:0:0:
