osu file format v14

[General]
AudioFilename: audio.mp3
AudioLeadIn: 0
PreviewTime: 9660
Countdown: 0
SampleSet: Soft
StackLeniency: 0.5
Mode: 0
LetterboxInBreaks: 0
WidescreenStoryboard: 0

[Editor]
DistanceSpacing: 0.8
BeatDivisor: 4
GridSize: 4
TimelineZoom: 2.192

[Metadata]
Title:Boss Of Me (TV Size)
TitleUnicode:Boss Of Me (TV Size)
Artist:They Might Be Giants
ArtistUnicode:They Might Be Giants
Creator:Cris-
Version:Life is Unfair
Source:Malcolm in the Middle
Tags:TheShadowOfDark ezek Tatan Gero Hazu- wolf3211 pkhg Opening Intro English Alternative Rock TMBG
BeatmapID:2105996
BeatmapSetID:1006284

[Difficulty]
HPDrainRate:6
CircleSize:4.2
OverallDifficulty:8
ApproachRate:9
SliderMultiplier:1.8
SliderTickRate:1

[Events]
//Background and Video events
0,0,"Malcolm.jpg",0,0
Video,0,"Malcolm Opening.mp4"
//Break Periods
//Storyboard Layer 0 (Background)
//Storyboard Layer 1 (Fail)
//Storyboard Layer 2 (Pass)
//Storyboard Layer 3 (Foreground)
//Storyboard Layer 4 (Overlay)
//Storyboard Sound Samples

[TimingPoints]
195,596.421471172962,4,2,1,60,1,0
8544,297.766749379653,4,2,1,70,1,0
9735,-83.3333333333333,4,2,1,80,0,1
11521,-66.6666666666667,4,2,1,80,0,1
11819,-55.5555555555556,4,2,1,80,0,1
12117,-83.3333333333333,4,2,1,80,0,1
13903,-66.6666666666667,4,2,1,80,0,1
14201,-55.5555555555556,4,2,1,80,0,1
14499,-83.3333333333333,4,2,1,80,0,1
18965,-83.3333333333333,4,2,1,80,0,0
19263,-83.3333333333333,4,2,1,80,0,1
21050,-66.6666666666667,4,2,1,80,0,1
21347,-55.5555555555556,4,2,1,80,0,1
21645,-83.3333333333333,4,2,1,80,0,1
23432,-66.6666666666667,4,2,1,80,0,1
23730,-55.5555555555556,4,2,1,80,0,1
24027,-83.3333333333333,4,2,1,80,0,1
26410,300,4,2,1,80,1,1
26410,-83.3333333333333,4,2,1,80,0,1
27310,-83.3333333333333,4,2,1,80,0,0
27610,-83.3333333333333,4,2,1,80,0,1
28810,-133.333333333333,4,2,1,70,0,0
30010,-133.333333333333,4,2,1,60,0,0
31210,-133.333333333333,4,2,1,50,0,0
32410,-133.333333333333,4,2,1,40,0,0
33610,-133.333333333333,4,2,1,30,0,0
34810,-133.333333333333,4,2,1,5,0,0

[Colours]
Combo1 : 133,152,239
Combo2 : 252,73,73
Combo3 : 94,118,234
Combo4 : 255,117,117

[HitObjects]
256,232,45,5,8,0:0:0:0:
256,232,120,1,8,0:0:0:0:
256,232,195,6,0,L|256:321,1,90,4|2,0:0|0:0,0:0:0:0:
356,156,791,1,8,0:0:0:0:
160,156,1089,1,2,3:2:0:0:
256,322,1387,2,0,P|300:334|341:322,1,90,0|2,3:0|0:0,0:0:0:0:
256,156,1984,1,8,0:0:0:0:
256,322,2282,1,2,3:2:0:0:
341,158,2580,6,0,P|298:145|255:156,2,90,0|2|8,3:0|0:0|0:0,0:0:0:0:
256,322,3475,1,2,3:2:0:0:
171,157,3773,2,0,P|213:144|256:156,1,90,0|2,3:0|0:0,0:0:0:0:
172,322,4369,1,8,0:0:0:0:
87,157,4668,2,0,B|129:141|129:141|171:157,1,90,2|0,3:2|3:0,0:0:0:0:
20,200,5264,6,0,P|7:157|19:114,1,90,2|8,0:0|0:0,0:0:0:0:
172,200,5861,1,2,3:2:0:0:
22,285,6159,2,0,P|9:242|21:199,1,90,0|2,3:0|0:0,0:0:0:0:
171,285,6755,1,8,0:0:0:0:
22,285,7053,1,2,3:2:0:0:
95,154,7352,6,0,L|95:243,1,90,0|2,3:0|0:0,0:0:0:0:
256,152,7948,2,0,L|256:63,1,90,8|2,0:0|3:2,0:0:0:0:
181,302,8544,5,8,0:0:0:0:
380,153,8692,1,0,3:0:0:0:
131,153,8841,1,8,0:0:0:0:
333,299,8990,1,0,3:0:0:0:
256,62,9139,1,8,0:0:0:0:
181,302,9288,1,0,3:0:0:0:
380,153,9437,1,8,0:0:0:0:
131,153,9586,1,0,3:0:0:0:
333,299,9735,6,0,P|417:355|503:299,1,215.999993408203,6|10,3:2|0:0,0:0:0:0:
296,214,10181,1,0,0:0:0:0:
296,214,10330,2,0,P|240:298|296:384,1,215.999993408203,2|10,3:2|0:0,0:0:0:0:
380,178,10777,2,0,P|296:122|210:178,1,215.999993408203,2|2,3:2|0:0,0:0:0:0:
444,230,11223,6,0,B|464:178|464:178|444:130,1,107.999996704102,8|0,0:0|0:0,0:0:0:0:
210,56,11521,6,0,B|182:118|182:118|210:178,1,135.000005149842,0|0,3:2|0:0,0:0:0:0:
444,370,11819,6,0,B|484:300|484:300|444:230,1,161.999995056153,8|0,0:0|0:0,0:0:0:0:
171,298,12117,6,0,B|275:246|275:350|376:298,1,215.999993408203,2|10,3:2|0:0,0:0:0:0:
224,376,12563,1,0,0:0:0:0:
324,220,12712,2,0,B|344:156|344:156|304:84|304:84|324:21,1,215.999993408203,2|10,3:2|0:0,0:0:0:0:
48,20,13159,2,0,B|68:84|68:84|28:156|28:156|48:219,1,215.999993408203,2|2,3:2|0:0,0:0:0:0:
236,19,13606,6,0,P|187:0|138:20,1,107.999996704102,8|0,0:0|0:0,0:0:0:0:
128,220,13903,6,0,P|188:248|246:220,1,135.000005149842,0|0,3:2|0:0,0:0:0:0:
492,116,14201,6,0,P|422:79|353:116,1,161.999995056153,8|0,0:0|0:0,0:0:0:0:
423,365,14499,6,0,B|475:264|371:264|423:160,1,215.999993408203,2|10,3:2|0:0,0:0:0:0:
338,364,14945,1,0,0:0:0:0:
253,160,15094,2,0,B|305:261|201:261|253:365,1,215.999993408203,2|10,3:2|0:0,0:0:0:0:
423,159,15541,2,0,P|337:103|253:160,1,215.999993408203,2|2,3:2|0:0,0:0:0:0:
484,208,15988,6,0,P|503:159|483:110,1,107.999996704102,8|0,0:0|0:0,0:0:0:0:
338,196,16285,2,0,P|319:245|339:294,1,107.999996704102,2|0,3:2|0:0,0:0:0:0:
486,380,16583,2,0,P|504:330|484:281,1,107.999996704102,10|0,0:0|0:0,0:0:0:0:
392,120,16881,6,0,B|288:68|288:172|187:120,1,215.999993408203,2|8,3:2|0:0,0:0:0:0:
428,204,17328,1,0,0:0:0:0:
428,204,17477,2,0,P|484:118|427:34,1,215.999993408203,2|8,3:2|0:0,0:0:0:0:
187,120,17923,1,0,0:0:0:0:
187,120,18072,6,0,L|175:227,1,107.999996704102,2|0,3:2|0:0,0:0:0:0:
416,311,18370,2,0,L|428:204,1,107.999996704102,8|0,0:0|0:0,0:0:0:0:
336,336,18668,1,0,3:2:0:0:
487,354,18816,1,0,0:0:0:0:
510,197,18965,1,8,0:0:0:0:
354,174,19114,1,0,0:0:0:0:
336,336,19263,6,0,B|272:316|272:316|200:356|200:356|137:336,1,215.999993408203,6|10,3:2|0:0,0:0:0:0:
155,174,19710,1,0,0:0:0:0:
155,174,19859,2,0,B|219:194|219:194|291:154|291:154|354:174,1,215.999993408203,2|10,3:2|0:0,0:0:0:0:
120,260,20305,2,0,P|64:176|120:90,1,215.999993408203,2|2,3:2|0:0,0:0:0:0:
355,174,20752,6,0,L|343:281,1,107.999996704102,8|0,0:0|0:0,0:0:0:0:
184,176,21050,6,0,L|199:42,1,135.000005149842,0|0,3:2|0:0,0:0:0:0:
448,184,21347,6,0,L|430:345,1,161.999995056153,8|0,0:0|0:0,0:0:0:0:
296,104,21645,6,0,B|400:156|400:52|501:104,1,215.999993408203,2|10,3:2|0:0,0:0:0:0:
260,188,22092,1,0,0:0:0:0:
260,188,22241,2,0,P|204:102|261:18,1,215.999993408203,2|10,3:2|0:0,0:0:0:0:
344,224,22687,2,0,P|258:280|174:223,1,215.999993408203,2|2,3:2|0:0,0:0:0:0:
424,172,23134,6,0,B|444:224|444:224|424:272,1,107.999996704102,8|0,0:0|0:0,0:0:0:0:
174,346,23432,6,0,B|146:284|146:284|174:224,1,135.000005149842,0|0,3:2|0:0,0:0:0:0:
424,31,23730,6,0,B|464:101|464:101|424:171,1,161.999995056153,8|0,0:0|0:0,0:0:0:0:
156,100,24027,6,0,B|220:80|220:80|292:120|292:120|355:100,1,215.999993408203,2|10,3:2|0:0,0:0:0:0:
119,184,24474,1,0,0:0:0:0:
119,184,24623,2,0,P|63:98|120:14,1,215.999993408203,2|10,3:2|0:0,0:0:0:0:
355,100,25070,2,0,B|292:120|292:120|220:80|220:80|156:100,1,215.999993408203,2|2,3:2|0:0,0:0:0:0:
416,147,25516,6,0,P|434:98|414:49,1,107.999996704102,8|0,0:0|0:0,0:0:0:0:
368,212,25814,2,0,P|417:231|466:211,1,107.999996704102,2|0,3:2|0:0,0:0:0:0:
304,163,26112,2,0,P|285:213|305:262,1,107.999996704102,8|0,0:0|0:0,0:0:0:0:
355,100,26410,6,0,B|251:48|251:152|150:100,1,215.999993408203,2|8,3:2|0:0,0:0:0:0:
152,328,26860,1,0,0:0:0:0:
152,328,27010,6,0,B|256:276|256:380|357:328,1,215.999993408203,2|8,3:2|0:0,0:0:0:0:
252,100,27460,1,0,0:0:0:0:
152,328,27610,5,10,0:0:0:0:
119,355,27685,1,8,0:0:0:0:
77,365,27760,1,8,0:0:0:0:
35,356,27835,1,8,0:0:0:0:
2,329,27910,1,8,0:0:0:0:
2,55,28210,5,8,0:0:0:0:
35,28,28285,1,8,0:0:0:0:
77,19,28360,1,8,0:0:0:0:
119,29,28435,1,8,0:0:0:0:
152,56,28510,1,8,0:0:0:0:
152,328,28810,5,4,0:0:0:0:
256,192,28885,12,0,34810,0:0:0:0:
