osu file format v14

[General]
AudioFilename: audio.mp3
AudioLeadIn: 0
PreviewTime: 9660
Countdown: 0
SampleSet: Soft
StackLeniency: 0.3
Mode: 0
LetterboxInBreaks: 0
WidescreenStoryboard: 0

[Editor]
DistanceSpacing: 0.8
BeatDivisor: 4
GridSize: 32
TimelineZoom: 2.192

[Metadata]
Title:Boss Of Me (TV Size)
TitleUnicode:Boss Of Me (TV Size)
Artist:They Might Be Giants
ArtistUnicode:They Might Be Giants
Creator:Cris-
Version:Hazu's Insane
Source:Malcolm in the Middle
Tags:TheShadowOfDark ezek Tatan Gero Hazu- wolf3211 pkhg Opening Intro English Alternative Rock TMBG
BeatmapID:2121171
BeatmapSetID:1006284

[Difficulty]
HPDrainRate:5.5
CircleSize:4
OverallDifficulty:8
ApproachRate:9
SliderMultiplier:1.8
SliderTickRate:1

[Events]
//Background and Video events
0,0,"Malcolm.jpg",0,0
Video,0,"Malcolm Opening.mp4"
//Break Periods
//Storyboard Layer 0 (Background)
//Storyboard Layer 1 (Fail)
//Storyboard Layer 2 (Pass)
//Storyboard Layer 3 (Foreground)
//Storyboard Layer 4 (Overlay)
//Storyboard Sound Samples

[TimingPoints]
195,596.421471172962,4,2,1,60,1,0
8544,297.766749379653,4,2,1,70,1,0
9735,-100,4,2,1,80,0,1
18965,-100,4,2,1,80,0,0
19263,-100,4,2,1,80,0,1
26410,300,4,2,1,80,1,1
26410,-100,4,2,1,80,0,1
27310,-100,4,2,1,80,0,0
27610,-100,4,2,1,80,0,1
28810,-133.333333333333,4,2,1,70,0,0
30010,-133.333333333333,4,2,1,60,0,0
31210,-133.333333333333,4,2,1,50,0,0
32410,-133.333333333333,4,2,1,40,0,0
33610,-133.333333333333,4,2,1,30,0,0
34810,-133.333333333333,4,2,1,5,0,0

[Colours]
Combo1 : 133,152,239
Combo2 : 252,73,73
Combo3 : 94,118,234
Combo4 : 255,117,117

[HitObjects]
53,172,45,5,8,0:0:0:0:
53,172,120,1,8,0:0:0:0:
53,172,195,2,0,B|148:152|123:259|240:218,1,180,4|8,0:0|0:0,0:0:0:0:
356,156,1089,1,2,3:2:0:0:
217,34,1387,2,0,P|234:87|249:147,1,90,0|2,3:0|0:0,0:0:0:0:
298,326,1984,2,0,P|309:282|323:239,1,90,8|2,0:0|3:2,0:0:0:0:
385,64,2580,5,0,3:0:0:0:
243,202,2878,1,2,0:0:0:0:
468,134,3177,1,8,0:0:0:0:
223,220,3475,1,2,3:2:0:0:
348,16,3773,1,0,3:0:0:0:
469,238,4071,1,2,0:0:0:0:
205,102,4369,1,8,0:0:0:0:
482,50,4668,1,2,3:2:0:0:
307,300,4966,5,0,3:0:0:0:
205,102,5264,2,0,P|246:113|311:126,1,90,2|8,0:0|0:0,0:0:0:0:
460,160,5861,1,2,3:2:0:0:
305,339,6159,2,0,P|297:301|281:242,1,90,0|2,3:0|0:0,0:0:0:0:
346,66,6755,2,0,P|354:104|370:163,1,90,8|2,0:0|3:2,0:0:0:0:
64,211,7352,6,0,B|121:203|121:203|180:231|180:231|263:220,1,180,0|8,3:0|0:0,0:0:0:0:
364,131,8246,1,2,3:2:0:0:
195,48,8544,5,8,0:0:0:0:
251,159,8692,1,0,3:0:0:0:
325,50,8841,1,8,0:0:0:0:
130,152,8990,1,0,3:0:0:0:
344,36,9139,1,8,0:0:0:0:
343,277,9288,1,0,3:0:0:0:
211,55,9437,1,8,0:0:0:0:
211,55,9735,6,0,P|291:70|412:93,1,180,6|10,3:2|0:0,0:0:0:0:
512,116,10181,1,0,0:0:0:0:
454,321,10330,2,0,P|427:261|394:199,1,135,2|0,3:2|0:0,0:0:0:0:
372,170,10628,1,10,0:0:0:0:
120,221,10777,6,0,B|220:193|190:301|314:248,1,180,2|2,3:2|0:0,0:0:0:0:
474,117,11223,2,0,P|465:149|444:224,1,90,8|0,0:0|0:0,0:0:0:0:
394,56,11522,2,0,P|385:88|364:163,1,90,0|0,3:2|0:0,0:0:0:0:
310,0,11819,2,0,P|301:32|280:107,1,90,8|0,0:0|0:0,0:0:0:0:
154,209,12117,6,0,B|288:181|288:181|251:227,1,180,2|10,3:2|0:0,0:0:0:0:
183,293,12563,1,0,0:0:0:0:
61,146,12712,2,0,P|36:205|74:284,1,135,2|0,3:2|0:0,0:0:0:0:
90,287,13010,1,10,0:0:0:0:
179,114,13159,6,0,B|242:107|242:107|298:134|298:134|379:121,1,180,2|2,3:2|0:0,0:0:0:0:
497,27,13606,2,0,P|480:74|459:136,1,90,8|0,0:0|0:0,0:0:0:0:
480,260,13903,2,0,P|447:221|404:172,1,90,0|0,3:2|0:0,0:0:0:0:
285,127,14201,2,0,P|334:118|398:105,1,90,8|0,0:0|0:0,0:0:0:0:
158,223,14499,6,0,P|172:155|201:19,1,180,2|10,3:2|0:0,0:0:0:0:
96,99,14945,1,0,0:0:0:0:
240,268,15094,2,0,P|254:200|272:116,1,135,2|0,3:2|0:0,0:0:0:0:
281,95,15392,1,10,0:0:0:0:
512,168,15541,6,0,B|459:161|459:161|397:191|397:191|328:183,1,180,2|2,3:2|0:0,0:0:0:0:
160,275,15988,2,0,P|149:225|135:177,1,90,8|0,0:0|0:0,0:0:0:0:
56,81,16285,2,0,P|104:96|153:108,1,90,2|0,3:2|0:0,0:0:0:0:
288,91,16583,2,0,P|250:125|215:161,1,90,10|0,0:0|0:0,0:0:0:0:
61,283,16881,6,0,B|156:264|138:350|232:324,1,180,2|8,3:2|0:0,0:0:0:0:
426,258,17328,1,0,0:0:0:0:
426,258,17477,2,0,P|363:217|254:286,1,180,2|8,3:2|0:0,0:0:0:0:
113,360,17923,5,0,0:0:0:0:
113,360,18072,2,0,P|120:332|138:252,1,90,2|0,3:2|0:0,0:0:0:0:
40,161,18370,2,0,P|33:189|15:269,1,90,8|0,0:0|0:0,0:0:0:0:
242,242,18668,2,0,P|249:214|267:134,1,90,0|0,3:2|0:0,0:0:0:0:
169,43,18966,2,0,P|162:71|144:151,1,90,8|0,0:0|0:0,0:0:0:0:
0,271,19263,6,0,B|52:261|52:261|120:298|120:298|168:289,1,180,6|10,3:2|0:0,0:0:0:0:
283,264,19710,1,0,0:0:0:0:
143,57,19859,2,0,P|168:143|188:215,1,135,2|0,3:2|0:0,0:0:0:0:
206,206,20156,1,10,0:0:0:0:
438,134,20305,6,0,B|323:100|323:100|253:142,1,180,2|2,3:2|0:0,0:0:0:0:
137,262,20752,2,0,P|127:217|109:153,1,90,8|0,0:0|0:0,0:0:0:0:
246,308,21050,2,0,P|236:263|218:199,1,90,0|0,3:2|0:0,0:0:0:0:
352,342,21347,2,0,P|342:297|324:233,1,90,8|0,0:0|0:0,0:0:0:0:
437,125,21645,6,0,P|385:160|281:117,1,180,2|10,3:2|0:0,0:0:0:0:
233,26,22092,1,0,0:0:0:0:
34,119,22241,2,0,B|72:113|72:113|129:131|129:131|177:123,1,135,2|0,3:2|0:0,0:0:0:0:
195,119,22539,1,10,0:0:0:0:
375,17,22687,6,0,P|352:107|328:216,1,180,2|2,3:2|0:0,0:0:0:0:
441,319,23134,2,0,P|400:303|339:339,1,90,8|0,0:0|0:0,0:0:0:0:
189,278,23432,2,0,P|231:291|272:275,1,90,0|0,3:2|0:0,0:0:0:0:
373,128,23730,2,0,P|360:175|342:238,1,90,8|0,0:0|0:0,0:0:0:0:
144,102,24027,6,0,B|266:139|266:139|231:87,1,180,2|10,3:2|0:0,0:0:0:0:
171,18,24474,1,0,0:0:0:0:
80,171,24623,2,0,P|159:194|233:217,1,135,2|0,3:2|0:0,0:0:0:0:
242,219,24921,1,10,0:0:0:0:
9,249,25070,6,0,P|-23:177|27:84,1,180,2|2,3:2|0:0,0:0:0:0:
236,36,25516,2,0,P|205:42|127:58,1,90,8|0,0:0|0:0,0:0:0:0:
329,154,25814,2,0,P|298:148|220:132,1,90,2|0,3:2|0:0,0:0:0:0:
453,49,26112,2,0,P|422:55|344:71,1,90,8|0,0:0|0:0,0:0:0:0:
494,228,26410,6,0,P|505:167|414:191,1,180,2|8,3:2|0:0,0:0:0:0:
234,271,26860,1,0,0:0:0:0:
234,271,27010,2,0,B|282:262|282:262|359:297|359:297|422:286,1,180,2|8,3:2|0:0,0:0:0:0:
263,161,27460,1,0,0:0:0:0:
125,203,27610,5,10,0:0:0:0:
134,232,27685,1,8,0:0:0:0:
144,262,27760,1,8,0:0:0:0:
154,292,27835,1,8,0:0:0:0:
163,323,27910,1,8,0:0:0:0:
364,201,28210,5,10,0:0:0:0:
355,172,28285,1,8,0:0:0:0:
345,142,28360,1,8,0:0:0:0:
335,112,28435,1,8,0:0:0:0:
326,81,28510,1,8,0:0:0:0:
102,100,28810,5,4,0:0:0:0:
256,192,28885,12,0,34810,0:0:0:0:
