osu file format v14

[General]
AudioFilename: audio.mp3
AudioLeadIn: 0
PreviewTime: 9660
Countdown: 0
SampleSet: Soft
StackLeniency: 0.3
Mode: 0
LetterboxInBreaks: 0
WidescreenStoryboard: 1

[Editor]
Bookmarks: 195,9735,19263,28809,34810
DistanceSpacing: 1
BeatDivisor: 4
GridSize: 4
TimelineZoom: 2.192

[Metadata]
Title:Boss Of Me (TV Size)
TitleUnicode:Boss Of Me (TV Size)
Artist:They Might Be Giants
ArtistUnicode:They Might Be Giants
Creator:Cris-
Version:Gezek's Insane
Source:Malcolm in the Middle
Tags:TheShadowOfDark ezek Tatan Gero Hazu- wolf3211 pkhg Opening Intro English Alternative Rock TMBG
BeatmapID:2105995
BeatmapSetID:1006284

[Difficulty]
HPDrainRate:5.5
CircleSize:4
OverallDifficulty:7.5
ApproachRate:9
SliderMultiplier:1.9
SliderTickRate:1

[Events]
//Background and Video events
0,0,"Malcolm.jpg",0,0
Video,0,"Malcolm Opening.mp4"
//Break Periods
//Storyboard Layer 0 (Background)
//Storyboard Layer 1 (Fail)
//Storyboard Layer 2 (Pass)
//Storyboard Layer 3 (Foreground)
//Storyboard Layer 4 (Overlay)
//Storyboard Sound Samples

[TimingPoints]
195,596.421471172962,4,2,1,60,1,0
8544,297.766749379653,4,2,1,70,1,0
8544,-133.333333333333,4,2,1,70,0,0
9735,-100,4,2,1,80,0,1
11521,-100,4,2,1,80,0,1
11819,-100,4,2,1,80,0,1
12117,-100,4,2,1,80,0,1
13903,-100,4,2,1,80,0,1
14201,-100,4,2,1,80,0,1
14499,-100,4,2,1,80,0,1
18965,-100,4,2,1,80,0,0
19263,-100,4,2,1,80,0,1
21050,-100,4,2,1,80,0,1
21347,-100,4,2,1,80,0,1
21645,-100,4,2,1,80,0,1
23432,-100,4,2,1,80,0,1
23730,-100,4,2,1,80,0,1
24027,-100,4,2,1,80,0,1
26410,300,4,2,1,80,1,1
26410,-100,4,2,1,80,0,1
27310,-100,4,2,1,80,0,0
27610,-100,4,2,1,80,0,1
28810,-434.782608695652,4,2,1,70,0,0
31960,-434.782608695652,4,2,1,10,0,0
34810,-434.782608695652,4,2,1,5,0,0

[Colours]
Combo1 : 133,152,239
Combo2 : 252,73,73
Combo3 : 94,118,234
Combo4 : 255,117,117

[HitObjects]
152,240,46,5,8,0:0:0:0:
152,240,120,1,8,0:0:0:0:
152,240,195,2,0,L|124:336,1,95,4|2,0:0|0:0,0:0:0:0:
256,248,791,2,0,L|256:348,1,95,8|2,0:0|3:2,0:0:0:0:
360,240,1387,2,0,L|388:336,1,95,0|2,3:0|0:0,0:0:0:0:
312,148,1984,1,8,0:0:0:0:
200,148,2282,1,2,3:2:0:0:
336,72,2580,6,0,P|376:96|392:140,1,95,0|2,3:0|0:0,0:0:0:0:
176,72,3177,2,0,P|136:96|120:140,1,95,8|2,0:0|3:2,0:0:0:0:
256,256,3773,2,0,L|256:160,1,95,0|2,3:0|0:0,0:0:0:0:
172,316,4369,1,8,0:0:0:0:
172,316,4668,6,0,B|228:316|256:352|256:352|284:316|340:316,1,190,2|2,3:2|0:0,0:0:0:0:
344,152,5562,1,8,0:0:0:0:
256,60,5861,1,2,3:2:0:0:
168,152,6159,1,0,3:0:0:0:
256,244,6457,1,2,0:0:0:0:
344,152,6755,2,0,P|388:136|432:152,1,95,8|2,0:0|3:2,0:0:0:0:
168,152,7352,6,0,P|124:168|80:152,1,95,0|2,3:0|0:0,0:0:0:0:
256,244,7948,2,0,P|272:288|256:332,1,95,8|2,0:0|3:2,0:0:0:0:
304,88,8544,6,0,L|332:16,1,71.2500027179719,8|0,0:0|3:0,0:0:0:0:
208,88,8841,2,0,L|180:16,1,71.2500027179719,8|0,0:0|3:0,0:0:0:0:
364,152,9139,2,0,L|392:80,1,71.2500027179719,8|0,0:0|3:0,0:0:0:0:
148,152,9437,2,0,L|120:80,1,71.2500027179719,8|0,0:0|3:0,0:0:0:0:
208,240,9735,6,0,B|248:216|256:162|256:162|264:216|304:240,1,190,6|10,3:2|0:0,0:0:0:0:
256,338,10181,1,0,0:0:0:0:
208,88,10330,2,0,P|256:22|304:88,1,190,2|10,3:2|0:0,0:0:0:0:
256,184,10777,1,2,3:2:0:0:
208,88,10926,1,0,0:0:0:0:
256,261,11075,1,2,0:0:0:0:
304,88,11223,6,0,L|349:4,1,95,8|0,0:0|0:0,0:0:0:0:
162,4,11521,2,0,L|208:88,1,95,0|0,3:2|0:0,0:0:0:0:
256,261,11819,2,0,B|256:245|256:245|260:238|260:238|253:238|253:238|256:231|256:231|256:213|256:213|260:206|260:206|253:206|253:206|256:199|256:199|256:183,1,95,8|0,0:0|0:0,0:0:0:0:
174,321,12117,6,0,P|256:362|338:321,1,190,2|10,3:2|0:0,0:0:0:0:
256,261,12563,1,0,0:0:0:0:
420,381,12712,2,0,B|420:295|420:295|416:287|416:287|412:279|412:279|412:193,1,190,2|10,3:2|0:0,0:0:0:0:
456,97,13159,2,0,P|412:81|368:97,1,95,2|0,3:2|0:0,0:0:0:0:
212,166,13457,2,0,P|256:182|300:166,1,95,2|8,0:0|0:0,0:0:0:0:
144,96,13754,5,0,0:0:0:0:
256,262,13903,1,0,3:2:0:0:
369,96,14052,1,0,0:0:0:0:
212,166,14201,1,8,0:0:0:0:
256,70,14350,1,0,0:0:0:0:
299,166,14499,6,0,B|299:184|299:184|299:225|255:240|255:240|211:225|211:184|211:184|211:166,1,190,2|10,3:2|0:0,0:0:0:0:
256,70,14945,1,0,0:0:0:0:
340,277,15094,2,0,P|256:315|172:277,1,190,2|10,3:2|0:0,0:0:0:0:
172,107,15541,2,0,P|256:69|340:107,1,190,2|2,3:2|0:0,0:0:0:0:
256,228,15988,6,0,B|256:212|248:196|231:192|231:192|248:188|256:172|256:156,1,95,8|0,0:0|0:0,0:0:0:0:
340,107,16285,2,0,B|340:160|376:192|376:192|340:224|340:277,1,190,2|10,3:2|0:0,0:0:0:0:
256,326,16732,1,0,0:0:0:0:
172,277,16881,6,0,B|172:224|136:192|136:192|172:160|172:107,1,190,2|8,3:2|0:0,0:0:0:0:
256,58,17328,1,0,0:0:0:0:
340,107,17477,2,0,B|340:160|376:192|376:192|340:224|340:277,1,190,2|8,3:2|0:0,0:0:0:0:
256,326,17923,1,0,0:0:0:0:
172,277,18072,6,0,B|151:241|108:241|108:241|90:241,1,95,2|0,3:2|0:0,0:0:0:0:
340,277,18370,2,0,B|361:241|404:241|404:241|421:241,1,95,8|0,0:0|0:0,0:0:0:0:
207,191,18668,6,0,P|179:154|136:136,1,95,0|0,3:2|0:0,0:0:0:0:
304,191,18965,2,0,P|332:154|375:136,1,95,8|0,0:0|0:0,0:0:0:0:
256,326,19263,6,0,L|256:128,1,190,6|10,3:2|0:0,0:0:0:0:
256,20,19710,1,0,0:0:0:0:
172,220,19859,2,0,B|228:220|256:256|256:256|284:220|340:220,1,190,2|10,3:2|0:0,0:0:0:0:
316,108,20305,1,2,3:2:0:0:
200,108,20454,1,0,0:0:0:0:
256,280,20603,1,2,0:0:0:0:
384,160,20752,6,0,P|408:192|408:248,1,95,8|0,0:0|0:0,0:0:0:0:
256,136,21050,2,0,L|256:36,1,95,0|0,3:2|0:0,0:0:0:0:
128,160,21347,2,0,P|104:192|104:248,1,95,8|0,0:0|0:0,0:0:0:0:
300,352,21645,6,0,B|300:284|300:284|300:220|360:184,1,190,2|10,3:2|0:0,0:0:0:0:
212,352,22092,1,0,0:0:0:0:
212,352,22241,2,0,B|212:284|212:284|212:220|152:184,1,190,2|10,3:2|0:0,0:0:0:0:
124,72,22687,2,0,B|156:36|156:36|208:36,1,95,2|0,3:2|0:0,0:0:0:0:
388,72,22985,2,0,B|356:36|356:36|304:36,1,95,2|8,0:0|0:0,0:0:0:0:
152,184,23283,5,0,0:0:0:0:
256,84,23432,1,0,3:2:0:0:
360,184,23581,1,0,0:0:0:0:
256,284,23730,1,8,0:0:0:0:
152,184,23878,1,0,0:0:0:0:
328,308,24027,6,0,P|256:360|184:308,1,190,2|10,3:2|0:0,0:0:0:0:
256,148,24474,1,0,0:0:0:0:
328,232,24623,2,0,B|276:240|256:287|256:287|236:240|184:232,1,190,2|10,3:2|0:0,0:0:0:0:
184,64,25070,2,0,B|236:56|256:9|256:9|276:56|328:64,1,190,2|2,3:2|0:0,0:0:0:0:
256,235,25516,6,0,P|240:191|256:147,1,95,8|0,0:0|0:0,0:0:0:0:
340,192,25814,2,0,P|380:272|340:360,1,190,2|8,3:2|0:0,0:0:0:0:
256,312,26261,1,0,0:0:0:0:
170,358,26410,6,0,P|131:274|172:192,1,190,2|8,3:2|0:0,0:0:0:0:
256,236,26860,1,0,0:0:0:0:
340,192,27009,2,0,P|380:272|340:360,1,190,2|8,3:2|0:0,0:0:0:0:
112,164,27610,5,10,0:0:0:0:
88,124,27685,1,8,0:0:0:0:
64,84,27760,2,0,L|64:24,2,47.5,8|8|8,0:0|0:0|0:0,0:0:0:0:
400,164,28210,1,8,0:0:0:0:
424,124,28285,1,8,0:0:0:0:
448,84,28360,2,0,L|448:24,2,47.5,8|8|8,0:0|0:0|0:0,0:0:0:0:
220,278,28810,6,0,P|256:191|292:278,1,240.34999193161,4|2,0:0|0:0,0:0:0:0:
256,100,30910,2,0,L|256:24,1,76.4749974327851,2|2,0:0|0:0,0:0:0:0:
256,192,31960,12,0,34810,0:0:0:0:
