osu file format v14

[General]
AudioFilename: audio.mp3
AudioLeadIn: 0
PreviewTime: 101072
Countdown: 0
SampleSet: Normal
StackLeniency: 0.7
Mode: 0
LetterboxInBreaks: 0
WidescreenStoryboard: 0

[Editor]
Bookmarks: 99727,152395
DistanceSpacing: 1.3
BeatDivisor: 2
GridSize: 4
TimelineZoom: 2.799999

[Metadata]
Title:Beautiful
TitleUnicode:Beautiful
Artist:These Four Walls
ArtistUnicode:These Four Walls
Creator:Feezly
Version:End
Source:
Tags:single tap , traning , rock , eee rock , jump , jump traning
BeatmapID:1044395
BeatmapSetID:489916

[Difficulty]
HPDrainRate:6
CircleSize:4
OverallDifficulty:8.7
ApproachRate:9.7
SliderMultiplier:1.4
SliderTickRate:1

[Events]
//Background and Video events
0,0,"632554.jpg",0,0
//Break Periods
//Storyboard Layer 0 (Background)
//Storyboard Layer 1 (Fail)
//Storyboard Layer 2 (Pass)
//Storyboard Layer 3 (Foreground)
//Storyboard Sound Samples

[TimingPoints]
176,269.058295964126,4,1,0,50,1,0
176,-100,4,1,0,15,0,0
4480,-200,4,1,0,50,0,0
6566,-100,4,1,0,50,0,0
45243,-100,4,1,0,50,0,0
50758,-100,4,1,0,50,0,0
51297,-100,4,1,0,50,0,0
52642,-200,4,1,0,50,0,0
59234,-100,4,1,0,50,0,0
59334,-100,4,1,0,50,0,0
60714,-100,4,1,0,50,0,1
65019,-100,4,1,0,50,0,1
65153,-100,4,1,0,50,0,1
65422,-100,4,1,0,50,0,1
65557,-100,4,1,0,50,0,1
66095,-100,4,1,0,50,0,1
66229,-100,4,1,0,50,0,1
67171,-100,4,1,0,50,0,1
67306,-100,4,1,0,50,0,1
73494,-200,4,1,0,50,0,0
80489,-200,4,1,0,50,0,0
80893,-100,4,1,0,50,0,0
86409,-200,4,1,0,50,0,0
88830,-100,4,1,0,50,0,0
89368,-100,4,1,0,50,0,0
90714,-100,4,1,0,50,0,0
100534,-100,4,1,0,50,0,0
100803,-71.4285714285714,4,1,0,50,0,0
101072,-58.8235294117647,4,1,0,50,0,0
101341,-50,4,1,0,50,0,0
101476,-100,4,1,0,50,0,0
110624,-200,4,1,0,50,0,0
113987,-100,4,1,0,50,0,1
129323,-100,4,1,0,50,0,0
146543,-200,4,1,0,50,0,0
149368,-100,4,1,0,50,0,0
157575,-200,4,1,0,50,0,0
159862,-100,4,1,0,50,0,0
165915,-100,4,1,0,50,0,1
173987,-83.3333333333333,4,1,0,50,0,0
174391,-100,4,1,0,50,0,1
182866,-100,4,1,0,50,0,0
196050,-66.6666666666667,4,1,0,50,0,1
196319,-100,4,1,0,50,0,1
204525,-100,4,1,0,50,0,0
204660,-200,4,1,0,50,0,0
207216,-100,4,1,0,50,0,0

[Colours]
Combo1 : 255,128,255
Combo2 : 0,255,168
Combo3 : 244,250,37
Combo4 : 0,191,255
Combo5 : 255,255,255
Combo6 : 128,0,255

[HitObjects]
144,344,176,6,0,L|92:292,2,70
216,268,579,2,0,L|268:216,2,70
128,208,983,2,0,L|76:156,2,70
208,140,1386,2,0,L|264:88,2,70
120,84,1790,2,0,L|68:32,2,70
440,272,2193,6,0,P|428:308|380:320,1,70
304,332,2462,1,0,0:0:0:0:
204,292,2597,1,0,0:0:0:0:
292,232,2732,1,0,0:0:0:0:
204,172,2866,1,0,0:0:0:0:
300,124,3001,1,0,0:0:0:0:
208,72,3135,1,0,0:0:0:0:
116,124,3270,5,0,0:0:0:0:
204,172,3404,1,0,0:0:0:0:
116,232,3539,1,0,0:0:0:0:
204,288,3673,1,0,0:0:0:0:
292,344,3808,5,0,0:0:0:0:
300,344,3875,1,0,0:0:0:0:
308,344,3942,2,0,P|392:280|384:252,1,140
300,120,4480,6,0,B|224:200|164:388|72:240|0:144|112:92|276:80|232:276|240:180|252:221|280:224|312:264,1,525
404,212,6633,5,0,0:0:0:0:
120,88,6902,1,0,0:0:0:0:
304,64,7171,1,0,0:0:0:0:
264,288,7440,1,0,0:0:0:0:
136,192,7709,5,0,0:0:0:0:
352,124,7844,1,0,0:0:0:0:
196,240,7978,1,0,0:0:0:0:
200,80,8113,1,0,0:0:0:0:
336,232,8247,1,0,0:0:0:0:
144,296,8382,2,0,P|168:314|213:308,1,70
456,188,8651,1,0,0:0:0:0:
332,56,8785,5,0,0:0:0:0:
192,168,8919,1,0,0:0:0:0:
388,160,9054,1,0,0:0:0:0:
248,52,9189,1,0,0:0:0:0:
304,224,9323,1,0,0:0:0:0:
104,220,9458,6,0,L|56:288,1,70
196,320,9727,1,0,0:0:0:0:
336,296,9862,1,0,0:0:0:0:
424,188,9996,1,0,0:0:0:0:
332,80,10131,1,0,0:0:0:0:
192,76,10265,2,0,L|108:128,1,70
144,252,10534,1,0,0:0:0:0:
292,232,10669,1,0,0:0:0:0:
292,232,10736,1,0,0:0:0:0:
292,232,10803,1,0,0:0:0:0:
140,220,10938,5,0,0:0:0:0:
192,128,11072,2,0,P|228:100|252:88,1,70
352,60,11341,1,0,0:0:0:0:
256,168,11475,1,0,0:0:0:0:
376,40,11610,2,0,L|424:104,1,70
368,240,11880,5,0,0:0:0:0:
316,136,12014,1,0,0:0:0:0:
456,192,12149,1,0,0:0:0:0:
288,212,12283,1,0,0:0:0:0:
432,128,12418,1,0,0:0:0:0:
296,276,12552,1,0,0:0:0:0:
424,108,12687,1,0,0:0:0:0:
424,108,12754,1,0,0:0:0:0:
424,108,12821,1,0,0:0:0:0:
356,276,12956,5,0,0:0:0:0:
180,324,13090,2,0,P|132:300|116:268,1,70
88,156,13359,1,0,0:0:0:0:
268,272,13494,6,0,L|328:200,1,70
220,128,13763,1,0,0:0:0:0:
336,188,13897,2,0,L|420:156,1,70
220,148,14167,1,0,0:0:0:0:
440,144,14301,2,0,L|436:64,1,70
272,52,14570,1,0,0:0:0:0:
152,36,14705,2,0,P|116:48|72:84,1,70
72,316,14974,5,0,0:0:0:0:
72,316,15041,1,0,0:0:0:0:
72,316,15108,1,0,0:0:0:0:
180,136,15243,1,0,0:0:0:0:
218,235,15377,5,0,3:3:0:0:
309,217,15512,1,0,3:3:0:0:
285,127,15646,1,0,3:3:0:0:
256,244,15781,5,0,3:3:0:0:
357,180,15916,1,0,3:3:0:0:
288,82,16050,1,0,3:3:0:0:
296,256,16184,5,0,3:3:0:0:
358,120,16319,1,0,3:3:0:0:
220,64,16453,1,0,3:3:0:0:
328,248,16588,5,0,3:3:0:0:
330,85,16723,1,0,3:3:0:0:
168,90,16857,1,0,3:3:0:0:
160,272,16992,5,0,0:0:0:0:
188,296,17059,1,0,0:0:0:0:
224,304,17126,1,0,0:0:0:0:
404,264,17261,1,0,0:0:0:0:
368,152,17395,6,0,P|292:152|252:80,1,140
268,304,17799,1,0,0:0:0:0:
440,204,17933,2,0,P|477:258|452:320,1,140
288,232,18337,1,0,0:0:0:0:
289,50,18471,6,0,B|266:59|251:97|251:97|239:138|200:152,1,140
240,300,18875,1,0,0:0:0:0:
384,176,19010,1,0,0:0:0:0:
384,176,19077,1,0,0:0:0:0:
384,176,19144,1,0,0:0:0:0:
168,188,19279,1,0,0:0:0:0:
328,112,19413,1,0,0:0:0:0:
104,232,19548,6,0,P|200:252|240:200,1,140
356,136,19951,1,0,0:0:0:0:
356,136,20019,1,0,0:0:0:0:
356,136,20086,1,0,0:0:0:0:
221,122,20220,1,0,0:0:0:0:
116,124,20355,1,0,0:0:0:0:
116,228,20489,1,0,0:0:0:0:
220,228,20624,1,0,0:0:0:0:
320,320,20758,5,0,0:0:0:0:
444,216,20893,1,0,0:0:0:0:
320,128,21027,1,0,0:0:0:0:
208,224,21162,2,0,B|244:264|312:216|344:256,1,140
396,180,21566,5,0,0:0:0:0:
276,72,21700,2,0,P|252:136|160:148,1,140
96,164,22104,2,0,P|120:244|168:256,1,140
304,248,22507,1,0,0:0:0:0:
312,104,22642,1,0,0:0:0:0:
432,172,22776,1,0,0:0:0:0:
288,160,22911,1,0,0:0:0:0:
304,304,23045,1,0,0:0:0:0:
176,216,23180,1,0,0:0:0:0:
356,200,23315,2,0,P|300:256|220:264,1,140
116,208,23718,5,0,0:0:0:0:
180,80,23853,2,0,P|232:68|252:72,1,70
384,112,24122,1,0,0:0:0:0:
460,232,24256,2,0,P|412:248|384:236,1,70
272,176,24525,1,0,0:0:0:0:
112,168,24660,2,0,P|136:232|212:240,1,140
388,196,25063,5,0,0:0:0:0:
192,176,25198,1,0,0:0:0:0:
400,304,25332,1,0,0:0:0:0:
188,164,25467,1,0,0:0:0:0:
388,196,25602,1,0,0:0:0:0:
188,152,25736,1,0,0:0:0:0:
312,228,25871,1,0,0:0:0:0:
136,96,26005,6,0,P|220:84|264:124,1,140
188,160,26409,2,0,P|208:232|268:256,1,140
336,216,26812,2,0,P|344:288|292:332,1,140
192,332,27216,2,0,B|132:316|111:256|124:204,1,140
216,116,27619,5,0,0:0:0:0:
348,216,27754,1,0,0:0:0:0:
176,220,27889,1,0,0:0:0:0:
304,124,28023,1,0,0:0:0:0:
436,200,28158,2,0,P|424:276|340:296,1,140
88,192,28561,6,0,P|100:268|184:288,1,140
192,200,28965,2,0,P|250:234|255:301,1,140
268,104,29368,2,0,B|334:236,1,140
132,296,29772,1,0,0:0:0:0:
232,200,29906,1,0,0:0:0:0:
96,156,30041,1,0,0:0:0:0:
220,104,30176,1,0,0:0:0:0:
375,196,30310,6,0,P|313:169|296:104,1,140
301,359,30714,2,0,P|317:293|380:268,1,140
142,262,31117,2,0,P|205:286|220:351,1,140
223,103,31521,2,0,P|208:168|145:192,1,140
300,196,31924,5,0,0:0:0:0:
108,192,32059,1,0,0:0:0:0:
240,256,32193,1,0,0:0:0:0:
148,112,32328,1,0,0:0:0:0:
288,200,32462,6,0,P|368:164|364:112,1,140
220,156,32866,2,0,P|144:188|148:240,1,140
264,320,33270,2,0,P|331:319|375:266,1,140
292,164,33673,2,0,P|216:148|204:96,1,140
156,316,34077,5,0,0:0:0:0:
104,96,34211,1,0,0:0:0:0:
216,244,34346,1,0,0:0:0:0:
20,196,34480,1,0,0:0:0:0:
288,252,34615,2,0,P|372:220|388:164,1,140
284,152,35019,6,0,P|200:160|172:112,1,140
64,220,35422,2,0,B|76:272|136:272|140:272,1,70
328,288,35691,1,0,0:0:0:0:
268,120,35826,1,0,0:0:0:0:
180,256,35960,1,0,0:0:0:0:
384,164,36095,1,0,0:0:0:0:
224,56,36229,2,0,B|192:84|192:84|196:128,1,70
296,272,36498,5,0,0:0:0:0:
312,100,36633,1,0,0:0:0:0:
180,192,36767,1,0,0:0:0:0:
360,164,36901,1,0,0:0:0:0:
224,92,37036,1,0,0:0:0:0:
232,244,37170,1,0,0:0:0:0:
400,104,37306,6,0,P|352:92|312:116,1,70
212,168,37575,1,0,0:0:0:0:
156,296,37709,1,0,0:0:0:0:
288,248,37844,1,0,0:0:0:0:
152,220,37978,1,0,0:0:0:0:
256,316,38113,1,0,0:0:0:0:
348,212,38247,1,0,0:0:0:0:
208,228,38382,2,0,L|244:304,1,70
372,248,38651,1,0,0:0:0:0:
452,136,38785,1,0,0:0:0:0:
312,148,38920,6,0,B|368:208|360:268|336:284,1,140
280,328,39323,2,0,P|204:352|136:320,1,140
72,240,39727,1,0,0:0:0:0:
84,120,39862,1,0,0:0:0:0:
180,52,39996,2,0,P|256:32|324:76,1,140
216,132,40400,6,0,P|180:204|200:268,1,140
288,328,40803,1,0,0:0:0:0:
392,268,40938,1,0,0:0:0:0:
396,148,41072,2,0,P|304:136|280:184,1,140
172,120,41476,2,0,P|188:200|236:244,1,140
316,160,41880,5,0,0:0:0:0:
212,220,42014,1,0,0:0:0:0:
300,240,42149,5,0,0:0:0:0:
192,176,42283,1,0,0:0:0:0:
324,132,42418,5,0,0:0:0:0:
144,188,42552,1,0,0:0:0:0:
340,264,42687,5,0,0:0:0:0:
148,136,42821,1,0,0:0:0:0:
384,72,42956,5,0,0:0:0:0:
120,160,43090,1,0,0:0:0:0:
412,284,43225,2,0,B|388:340|336:332,1,70
244,332,43494,1,0,0:0:0:0:
204,200,43628,1,0,0:0:0:0:
164,312,43763,1,0,0:0:0:0:
268,256,43897,1,0,0:0:0:0:
296,140,44032,2,0,P|264:112|212:96,1,70
136,80,44301,6,0,B|102:89|102:89|108:196|108:196|180:152|180:152|168:216|168:216|196:228|196:228|284:216|284:216|264:120,1,490
408,104,45377,1,0,0:0:0:0:
336,264,45512,1,0,0:0:0:0:
340,156,45646,1,0,0:0:0:0:
208,284,45781,1,0,0:0:0:0:
320,88,45915,2,0,P|368:88|404:172,1,140
272,308,46454,2,0,B|144:304|172:160,1,210
288,56,46991,1,0,0:0:0:0:
80,56,47126,1,0,0:0:0:0:
224,132,47260,1,0,0:0:0:0:
36,128,47395,1,0,0:0:0:0:
236,176,47530,6,0,B|232:208|60:240|64:100|188:84|248:120,1,280
352,140,48202,1,0,0:0:0:0:
308,272,48337,1,0,0:0:0:0:
196,188,48471,1,0,0:0:0:0:
328,68,48606,2,0,P|404:88|424:156,1,140
316,240,49010,6,0,L|252:168,1,70
196,92,49279,1,0,0:0:0:0:
300,40,49413,2,0,P|348:36|380:72,1,70
396,156,49682,2,0,B|412:236|348:352|216:292,1,280
96,224,50355,5,0,0:0:0:0:
156,92,50489,2,0,L|244:68,1,70
396,40,50758,2,0,P|440:68|452:164,1,140
416,248,51162,5,0,0:0:0:0:
284,128,51297,1,0,0:0:0:0:
284,288,51431,1,0,0:0:0:0:
368,152,51566,1,0,0:0:0:0:
228,228,51700,1,0,0:0:0:0:
456,280,51835,2,0,P|495:225|467:164,1,140
316,220,52238,1,0,0:0:0:0:
180,304,52373,2,0,P|148:280|144:220,1,70
88,120,52642,6,0,L|88:44,2,70
96,216,53315,2,0,P|136:244|168:252,1,70
280,248,53718,2,0,P|304:208|328:196,2,70
432,188,54391,6,0,P|434:222|458:246,1,70
388,296,54794,2,0,L|348:324,1,35
276,336,55063,2,0,L|212:288,1,70
244,208,55467,5,0,0:0:0:0:
292,132,55602,2,0,L|316:96,1,35
388,148,55871,1,0,0:0:0:0:
340,220,56005,1,0,0:0:0:0:
280,288,56140,2,0,P|244:300|208:284,1,70
108,220,56543,1,0,0:0:0:0:
248,224,56678,1,0,0:0:0:0:
64,220,56812,1,0,0:0:0:0:
256,192,56947,12,0,59234,0:0:0:0:
56,180,59368,5,0,0:0:0:0:
56,180,59436,1,0,0:0:0:0:
56,180,59503,1,0,0:0:0:0:
192,292,59637,1,0,0:0:0:0:
336,296,59772,1,0,0:0:0:0:
208,200,59906,2,0,L|124:168,1,70
328,176,60176,1,0,0:0:0:0:
184,84,60310,1,0,0:0:0:0:
336,40,60445,1,0,0:0:0:0:
384,156,60714,6,0,L|424:96,1,70
208,152,60983,2,0,L|168:92,1,70
376,284,61252,2,0,L|432:216,1,70
216,280,61521,2,0,L|160:212,1,70
304,268,61790,5,0,0:0:0:0:
365,206,61924,1,0,0:0:0:0:
304,144,62059,1,0,0:0:0:0:
242,206,62193,1,0,0:0:0:0:
334,286,62328,5,0,3:0:0:0:
383,158,62462,1,0,3:0:0:0:
258,107,62597,1,0,3:0:0:0:
204,234,62731,1,0,3:0:0:0:
380,261,62866,5,0,0:0:0:0:
351,81,63000,1,0,0:0:0:0:
173,105,63135,1,0,0:0:0:0:
195,287,63269,5,0,0:0:0:0:
388,201,63404,1,0,0:0:0:0:
264,55,63538,1,0,0:0:0:0:
116,173,63673,1,0,0:0:0:0:
236,325,63807,5,0,0:0:0:0:
396,148,63942,1,0,0:0:0:0:
209,47,64076,1,0,0:0:0:0:
103,227,64211,1,0,0:0:0:0:
288,337,64345,5,0,0:0:0:0:
352,136,64480,1,0,0:0:0:0:
180,204,64615,1,0,0:0:0:0:
408,272,64749,2,0,B|460:239|456:203|452:147,1,140
452,56,65153,2,0,L|296:48,1,140
172,56,65557,1,0,0:0:0:0:
276,152,65691,1,0,0:0:0:0:
136,176,65826,6,0,P|196:252|252:268,1,140
288,328,66229,2,0,L|360:188,1,140
280,72,66633,2,0,L|360:120,1,70
456,164,66902,1,0,0:0:0:0:
352,304,67036,1,0,0:0:0:0:
168,172,67171,1,0,0:0:0:0:
304,340,67306,1,0,0:0:0:0:
164,316,67440,1,0,0:0:0:0:
376,200,67575,1,0,0:0:0:0:
232,276,67709,5,0,0:0:0:0:
52,208,67844,1,0,0:0:0:0:
204,328,67978,1,0,0:0:0:0:
144,96,68113,1,0,0:0:0:0:
256,316,68247,2,0,P|296:304|336:284,1,70
364,180,68516,2,0,B|336:160|336:160|324:88|324:88|300:56,1,140
276,248,68920,1,0,0:0:0:0:
116,236,69054,2,0,B|188:236|207:281|207:281|232:332|320:336,1,210
384,252,69593,5,0,0:0:0:0:
300,120,69727,1,0,0:0:0:0:
376,320,69862,1,0,0:0:0:0:
228,216,69996,1,0,0:0:0:0:
436,200,70131,2,0,L|464:116,1,70
268,164,70400,5,0,0:0:0:0:
460,68,70534,1,0,0:0:0:0:
296,44,70669,2,0,B|288:84|249:95|249:95|204:104|196:152,1,140
296,232,71072,1,0,0:0:0:0:
424,352,71207,2,0,B|364:316|379:260|379:260|396:192|328:156,1,210
472,264,71745,1,0,0:0:0:0:
264,296,71880,1,0,0:0:0:0:
244,144,72014,1,0,0:0:0:0:
416,228,72149,1,0,0:0:0:0:
308,112,72283,2,0,P|259:74|174:120,1,140
272,216,72687,5,0,0:0:0:0:
83,197,72821,2,0,P|59:172|48:140,1,70
136,312,73090,2,0,P|204:312|228:292,1,70
388,228,73359,5,0,0:0:0:0:
232,188,73494,1,0,0:0:0:0:
300,332,73628,1,0,0:0:0:0:
412,172,73763,1,0,0:0:0:0:
272,244,73897,1,0,0:0:0:0:
444,288,74032,1,0,0:0:0:0:
416,192,74167,6,0,B|352:224|295:163|295:163|256:96|160:128|160:128,1,280
372,128,75377,1,0,0:0:0:0:
160,288,75512,2,0,L|228:268,1,70
416,288,75915,2,0,P|448:248|448:224,1,70
336,208,76319,2,0,L|300:236,1,35
296,124,76588,2,0,L|324:103,1,35
296,336,76857,5,0,0:0:0:0:
460,220,76992,1,0,0:0:0:0:
240,184,77126,1,0,0:0:0:0:
452,304,77261,1,0,0:0:0:0:
344,120,77395,1,0,0:0:0:0:
232,356,77530,1,0,0:0:0:0:
424,164,77664,1,0,0:0:0:0:
340,352,77799,6,0,P|320:320|316:312,1,35
348,248,78068,2,0,L|356:200,1,35
400,144,78337,2,0,L|436:116,1,35
456,208,78606,5,0,0:0:0:0:
364,260,78741,1,0,0:0:0:0:
268,300,78875,2,0,L|232:320,1,35
180,228,79144,2,0,L|136:212,1,35
112,316,79413,2,0,L|72:340,1,35
184,352,79682,5,0,0:0:0:0:
284,316,79817,1,0,0:0:0:0:
384,280,79951,2,0,L|424:256,1,35
352,176,80220,2,0,L|320:140,1,35
264,68,80489,2,0,L|304:44,1,35
400,60,80758,5,0,0:0:0:0:
480,128,80893,2,0,P|448:172|420:176,1,70
320,176,81162,2,0,P|268:176|252:208,1,70
184,276,81431,1,0,0:0:0:0:
336,168,81566,1,0,0:0:0:0:
156,296,81700,1,0,0:0:0:0:
360,152,81835,1,0,0:0:0:0:
436,48,81969,6,0,L|364:88,1,70
280,128,82238,1,0,0:0:0:0:
216,124,82373,1,0,0:0:0:0:
160,152,82507,1,0,0:0:0:0:
160,216,82642,5,0,0:0:0:0:
200,264,82776,1,0,0:0:0:0:
240,216,82911,1,0,0:0:0:0:
212,272,83045,5,0,0:0:0:0:
260,312,83180,1,0,0:0:0:0:
324,304,83315,1,0,0:0:0:0:
340,244,83449,5,0,0:0:0:0:
312,188,83584,1,0,0:0:0:0:
360,232,83718,1,0,0:0:0:0:
416,204,83853,1,0,0:0:0:0:
420,140,83987,1,0,0:0:0:0:
246,122,84122,2,0,P|236:155|248:188,1,70
336,36,84391,5,0,0:0:0:0:
180,112,84525,1,0,0:0:0:0:
344,164,84659,1,0,0:0:0:0:
168,168,84794,1,0,0:0:0:0:
240,316,84929,1,0,0:0:0:0:
232,136,85063,5,0,0:0:0:0:
308,296,85198,1,0,0:0:0:0:
344,124,85332,1,0,0:0:0:0:
240,268,85467,1,0,0:0:0:0:
408,224,85602,1,0,0:0:0:0:
412,96,85736,2,0,P|388:64|352:52,1,70
220,64,86005,1,0,0:0:0:0:
252,200,86140,1,0,0:0:0:0:
380,144,86274,1,0,0:0:0:0:
256,192,86409,12,0,88830,0:0:0:0:
44,176,88965,5,0,0:0:0:0:
216,280,89099,1,0,0:0:0:0:
144,88,89234,1,0,0:0:0:0:
84,304,89368,1,0,0:0:0:0:
240,184,89503,2,0,B|272:108|356:132,3,140
200,108,90445,5,0,0:0:0:0:
92,220,90579,1,0,0:0:0:0:
220,272,90714,2,0,P|276:284|360:236,1,140
404,176,91117,2,0,P|352:140|340:64,1,140
196,68,91521,5,0,0:0:0:0:
144,172,91655,2,0,P|164:224|88:288,1,140
352,240,92059,2,0,P|328:176|368:100,1,140
248,52,92462,1,0,0:0:0:0:
144,180,92597,5,0,0:0:0:0:
404,176,92732,2,0,P|428:224|392:320,1,140
272,336,93135,1,0,0:0:0:0:
148,272,93270,1,0,0:0:0:0:
276,232,93404,1,0,0:0:0:0:
416,244,93539,1,0,0:0:0:0:
256,208,93673,1,0,0:0:0:0:
408,148,93808,1,0,0:0:0:0:
240,116,93942,1,0,0:0:0:0:
404,112,94077,1,0,0:0:0:0:
224,44,94211,5,0,0:0:0:0:
384,124,94346,1,0,0:0:0:0:
216,220,94480,1,0,0:0:0:0:
260,88,94615,2,0,P|300:112|344:112,1,70
324,300,94884,5,0,0:0:0:0:
164,112,95019,1,0,0:0:0:0:
248,340,95153,1,0,0:0:0:0:
244,96,95288,1,0,0:0:0:0:
160,324,95422,1,0,0:0:0:0:
312,128,95557,1,0,0:0:0:0:
108,264,95691,1,0,0:0:0:0:
344,192,95826,1,0,0:0:0:0:
100,196,95960,5,0,0:0:0:0:
344,220,96095,1,0,0:0:0:0:
108,160,96229,1,0,0:0:0:0:
340,240,96364,1,0,0:0:0:0:
120,136,96498,1,0,0:0:0:0:
336,252,96633,1,0,0:0:0:0:
128,124,96767,1,0,0:0:0:0:
332,260,96902,1,0,0:0:0:0:
376,60,97036,6,0,P|432:100|432:180,1,140
312,176,97440,1,0,0:0:0:0:
404,312,97575,2,0,P|320:312|308:308,1,70
136,184,97844,2,0,P|220:168|228:160,1,70
372,132,98113,2,0,P|388:196|268:236,1,210
200,172,98651,5,0,0:0:0:0:
104,68,98786,1,0,0:0:0:0:
120,240,98920,1,0,0:0:0:0:
220,96,99054,1,0,0:0:0:0:
56,164,99189,1,0,0:0:0:0:
212,240,99323,1,0,0:0:0:0:
336,116,99458,5,0,0:0:0:0:
484,208,99593,1,0,0:0:0:0:
336,132,99727,1,0,0:0:0:0:
172,208,99862,1,0,0:0:0:0:
268,64,99996,1,0,0:0:0:0:
232,240,100131,1,0,0:0:0:0:
328,88,100265,2,0,P|376:112|388:152,1,70
232,164,100534,6,0,L|140:232,1,70
288,224,100803,2,0,L|388:152,1,97.9999970092774
216,136,101072,2,0,P|172:200|76:156,1,119.000002269745
312,288,101341,1,0,0:0:0:0:
364,152,101476,1,0,0:0:0:0:
148,136,101610,1,0,0:0:0:0:
292,120,101745,1,0,0:0:0:0:
396,216,101880,6,0,P|332:216|296:132,1,140
192,276,102283,1,0,0:0:0:0:
48,160,102418,1,0,0:0:0:0:
200,192,102552,1,0,0:0:0:0:
248,60,102687,1,0,0:0:0:0:
376,100,102821,6,0,P|408:132|384:220,1,140
180,152,103225,1,0,0:0:0:0:
344,160,103359,1,0,0:0:0:0:
135,208,103494,2,0,P|109:146|148:92,1,140
344,156,103897,5,0,0:0:0:0:
188,88,104032,1,0,0:0:0:0:
376,280,104167,1,0,0:0:0:0:
200,216,104301,1,0,0:0:0:0:
400,352,104436,1,0,0:0:0:0:
212,308,104570,2,0,P|140:292|112:212,1,140
136,80,104974,5,0,0:0:0:0:
216,176,105108,1,0,0:0:0:0:
276,72,105243,1,0,0:0:0:0:
204,40,105377,5,0,0:0:0:0:
164,220,105512,1,0,0:0:0:0:
296,152,105646,2,0,L|364:188,1,70
232,296,105915,1,0,0:0:0:0:
104,168,106050,1,0,0:0:0:0:
240,116,106184,5,0,0:0:0:0:
376,196,106319,1,0,0:0:0:0:
224,288,106454,1,0,0:0:0:0:
184,116,106588,1,0,0:0:0:0:
372,84,106723,2,0,P|400:96|428:136,1,70
256,232,106992,2,0,L|180:244,1,70
170,48,107261,6,0,P|142:69|126:100,1,70
288,144,107530,2,0,L|342:187,1,70
172,312,107799,6,0,L|105:288,1,70
172,152,108068,2,0,P|199:172|239:179,1,70
260,64,108337,6,0,L|315:21,1,70
452,128,108606,2,0,L|382:117,1,70
412,248,108875,2,0,L|475:277,1,70
240,256,109144,5,0,0:0:0:0:
276,72,109279,1,0,0:0:0:0:
276,72,109346,1,0,0:0:0:0:
276,72,109413,1,0,0:0:0:0:
384,136,109548,6,0,B|416:172|416:172|416:216,1,70
280,308,109817,1,0,0:0:0:0:
156,184,109951,1,0,0:0:0:0:
304,308,110086,2,0,B|340:284|340:284|332:240,1,70
260,140,110355,2,0,B|224:136|224:136|192:160,1,70
256,192,110624,12,0,113987,0:0:0:0:
256,192,114122,5,0,0:0:0:0:
132,132,114256,2,0,B|136:96|136:96|184:76,1,70
308,52,114525,1,0,0:0:0:0:
428,124,114660,1,0,0:0:0:0:
452,260,114794,2,0,L|356:256,1,70
116,168,115063,5,0,0:0:0:0:
160,280,115198,1,0,0:0:0:0:
276,168,115332,1,0,0:0:0:0:
240,280,115467,1,0,0:0:0:0:
92,156,115602,1,0,0:0:0:0:
146,294,115737,1,0,0:0:0:0:
290,156,115871,1,0,0:0:0:0:
256,296,116006,1,0,0:0:0:0:
72,144,116140,5,0,0:0:0:0:
137,307,116275,1,0,0:0:0:0:
307,144,116409,1,0,0:0:0:0:
264,308,116544,1,0,0:0:0:0:
48,120,116678,1,0,0:0:0:0:
252,232,116812,1,0,0:0:0:0:
132,56,116947,1,0,0:0:0:0:
96,272,117081,1,0,0:0:0:0:
328,216,117216,5,0,0:0:0:0:
100,156,117350,1,0,0:0:0:0:
308,320,117485,1,0,0:0:0:0:
200,108,117619,1,0,0:0:0:0:
160,320,117754,1,0,0:0:0:0:
340,144,117889,1,0,0:0:0:0:
80,244,118023,1,0,0:0:0:0:
372,284,118158,5,0,0:0:0:0:
128,104,118292,2,0,P|156:68|208:56,1,70
232,248,118561,1,0,0:0:0:0:
416,164,118696,1,0,0:0:0:0:
196,128,118830,1,0,0:0:0:0:
176,296,118965,2,0,B|212:336|256:316,1,70
264,148,119234,2,0,P|268:108|310:82,1,70
472,204,119503,2,0,P|448:232|392:228,1,70
112,164,119772,2,0,B|116:185|116:185|152:217,1,70
332,140,120041,5,0,0:0:0:0:
276,288,120176,2,0,P|241:269|220:244,1,70
416,168,120445,1,0,0:0:0:0:
184,128,120579,5,0,0:0:0:0:
428,232,120714,1,0,0:0:0:0:
208,64,120848,2,0,P|156:64|136:76,1,70
256,184,121117,2,0,B|284:220|284:220|328:232,1,70
348,36,121386,1,0,0:0:0:0:
216,116,121521,1,0,0:0:0:0:
416,152,121655,5,0,0:0:0:0:
160,72,121790,2,0,P|144:108|196:184,1,140
372,96,122193,1,0,0:0:0:0:
216,268,122328,1,0,0:0:0:0:
420,168,122462,1,0,0:0:0:0:
220,168,122597,5,0,0:0:0:0:
400,288,122732,1,0,0:0:0:0:
272,32,122866,2,0,P|281:65|384:108,1,140
172,240,123270,1,0,0:0:0:0:
192,72,123404,1,0,0:0:0:0:
336,200,123539,1,0,0:0:0:0:
156,240,123673,1,0,0:0:0:0:
348,40,123808,1,0,0:0:0:0:
80,224,123942,2,0,B|88:180|128:168|128:168|168:152|176:112,1,140
320,76,124346,5,0,0:0:0:0:
460,212,124480,1,0,0:0:0:0:
276,248,124615,1,0,0:0:0:0:
376,120,124749,1,0,0:0:0:0:
472,264,124884,1,0,0:0:0:0:
304,344,125019,2,0,P|313:310|416:268,1,140
248,240,125422,5,0,0:0:0:0:
48,104,125557,1,0,0:0:0:0:
200,292,125691,1,0,0:0:0:0:
200,48,125826,1,0,0:0:0:0:
88,244,125960,1,0,0:0:0:0:
168,60,126095,2,0,B|128:76|118:115|118:115|108:160|68:172,1,140
256,224,126498,5,0,0:0:0:0:
132,328,126633,1,0,0:0:0:0:
328,324,126767,1,0,0:0:0:0:
184,224,126902,2,0,P|193:190|240:160,1,70
368,264,127171,5,0,0:0:0:0:
120,176,127306,1,0,0:0:0:0:
256,328,127440,1,0,0:0:0:0:
280,128,127575,1,0,0:0:0:0:
336,320,127709,1,0,0:0:0:0:
184,216,127844,6,0,P|193:182|236:152,2,70
360,196,128247,1,0,0:0:0:0:
212,288,128382,1,0,0:0:0:0:
340,128,128516,1,0,0:0:0:0:
268,288,128651,1,0,0:0:0:0:
96,260,128785,1,0,0:0:0:0:
232,204,128920,5,0,0:0:0:0:
104,116,129054,1,0,0:0:0:0:
136,304,129189,1,0,0:0:0:0:
332,240,129323,2,0,P|336:308|256:340,1,140
104,336,129727,2,0,L|175:203,1,140
324,300,130131,1,0,0:0:0:0:
256,140,130265,1,0,0:0:0:0:
412,56,130400,5,0,0:0:0:0:
236,52,130534,1,0,0:0:0:0:
388,140,130669,1,0,0:0:0:0:
228,208,130803,1,0,0:0:0:0:
312,56,130938,1,0,0:0:0:0:
388,212,131072,1,0,0:0:0:0:
292,64,131207,1,0,0:0:0:0:
280,240,131341,1,0,0:0:0:0:
412,356,131476,6,0,P|464:312|472:228,1,140
456,104,131880,1,0,0:0:0:0:
400,228,132014,2,0,B|391:262|391:262|368:272|283:266,1,140
380,164,132418,1,0,0:0:0:0:
244,188,132552,2,0,B|289:191|289:191|308:168|336:80,1,140
376,220,132956,5,0,0:0:0:0:
244,236,133090,1,0,0:0:0:0:
324,292,133225,1,0,0:0:0:0:
400,220,133359,1,0,0:0:0:0:
216,236,133493,1,0,0:0:0:0:
328,304,133628,1,0,0:0:0:0:
364,196,133763,6,0,P|342:169|310:156,1,70
264,284,134032,1,0,0:0:0:0:
256,112,134167,2,0,B|224:122|224:122|209:156,1,70
300,224,134436,1,0,0:0:0:0:
384,112,134570,5,0,0:0:0:0:
488,188,134705,2,0,P|472:244|380:264,1,140
264,244,135108,1,0,0:0:0:0:
388,184,135242,1,0,0:0:0:0:
292,288,135377,1,0,0:0:0:0:
164,168,135511,5,0,0:0:0:0:
256,316,135646,1,0,0:0:0:0:
88,184,135781,2,0,P|96:128|128:100,2,70
252,88,136184,6,0,P|312:88|324:80,2,70
272,224,136588,6,0,P|232:260|220:284,2,70
424,276,136991,6,0,P|392:216|392:184,2,70
248,88,137395,6,0,P|236:120|200:160,2,70
392,56,137799,1,0,0:0:0:0:
432,116,137933,1,0,0:0:0:0:
420,184,138068,1,0,0:0:0:0:
360,220,138202,1,0,0:0:0:0:
292,200,138337,1,0,0:0:0:0:
284,132,138471,1,0,0:0:0:0:
232,84,138606,1,0,0:0:0:0:
164,104,138741,5,0,0:0:0:0:
144,172,138875,1,0,0:0:0:0:
192,224,139010,1,0,0:0:0:0:
260,216,139144,1,0,0:0:0:0:
216,156,139279,1,0,0:0:0:0:
196,296,139413,1,0,0:0:0:0:
324,240,139548,1,0,0:0:0:0:
460,200,139682,5,0,0:0:0:0:
328,148,139817,1,0,0:0:0:0:
444,228,139951,1,0,0:0:0:0:
380,292,140086,6,0,P|324:316|260:276,1,140
300,144,140489,1,0,0:0:0:0:
172,228,140624,1,0,0:0:0:0:
288,152,140758,1,0,0:0:0:0:
168,224,140893,1,0,0:0:0:0:
284,144,141028,1,0,0:0:0:0:
104,268,141162,6,0,P|163:303|228:281,1,140
416,224,141566,1,0,0:0:0:0:
312,84,141700,1,0,0:0:0:0:
400,244,141835,1,0,0:0:0:0:
292,92,141970,1,0,0:0:0:0:
396,240,142104,1,0,0:0:0:0:
240,140,142238,6,0,P|304:164|364:116,1,140
136,112,142642,1,0,0:0:0:0:
132,244,142776,1,0,0:0:0:0:
136,96,142911,1,0,0:0:0:0:
132,256,143045,1,0,0:0:0:0:
136,80,143180,1,0,0:0:0:0:
84,204,143315,2,0,B|56:236|64:272|64:272|76:324|36:356,1,140
212,164,143718,2,0,B|190:152|202:100|202:100|210:64|182:32,1,140
256,192,144122,12,0,146409,0:0:0:0:
128,136,146543,6,0,P|92:132|64:108,1,70
288,80,146947,2,0,P|304:60|348:48,1,70
460,168,147350,1,0,0:0:0:0:
344,260,147485,1,0,0:0:0:0:
152,252,147619,6,0,P|124:232|76:236,1,70
244,160,148023,2,0,P|288:168|320:152,1,70
432,112,148427,1,0,0:0:0:0:
360,264,148561,1,0,0:0:0:0:
176,288,148696,6,0,P|100:208|104:140,1,175
244,84,149503,2,0,P|292:80|320:112,1,70
360,192,149772,2,0,P|340:224|296:232,1,70
186,218,150041,2,0,P|163:193|168:159,1,70
352,88,150310,5,0,0:0:0:0:
216,252,150445,1,0,0:0:0:0:
205,100,150579,1,0,0:0:0:0:
352,236,150714,1,0,0:0:0:0:
88,248,150848,5,0,0:0:0:0:
272,180,150983,1,0,0:0:0:0:
168,296,151117,1,0,0:0:0:0:
148,120,151252,1,0,0:0:0:0:
336,224,151386,6,0,P|309:246|276:256,1,70
84,88,151655,2,0,P|107:62|140:51,1,70
300,76,151924,2,0,B|328:76|328:76|244:160,1,140
87,228,152328,2,0,B|156:228|156:228|184:204,1,105
284,248,152732,5,0,0:0:0:0:
408,300,152866,1,0,0:0:0:0:
396,176,153001,1,0,0:0:0:0:
256,124,153135,5,0,0:0:0:0:
136,216,153270,1,0,0:0:0:0:
116,96,153404,1,0,0:0:0:0:
256,232,153539,5,0,0:0:0:0:
380,288,153673,1,0,0:0:0:0:
392,160,153808,1,0,0:0:0:0:
288,320,153942,5,0,0:0:0:0:
96,328,154077,1,0,0:0:0:0:
184,208,154211,2,0,L|216:136,2,70
96,328,154615,5,0,0:0:0:0:
288,320,154750,1,0,0:0:0:0:
392,160,154884,5,0,0:0:0:0:
380,288,155019,1,0,0:0:0:0:
256,232,155153,1,0,0:0:0:0:
116,96,155288,5,0,0:0:0:0:
136,216,155422,1,0,0:0:0:0:
256,124,155557,1,0,0:0:0:0:
396,176,155691,5,0,0:0:0:0:
408,300,155826,1,0,0:0:0:0:
284,248,155960,1,0,0:0:0:0:
176,168,156095,2,0,P|140:112|172:44,1,140
312,44,156498,5,0,0:0:0:0:
436,144,156633,1,0,0:0:0:0:
292,200,156767,1,0,0:0:0:0:
420,288,156902,1,0,0:0:0:0:
276,348,157036,1,0,0:0:0:0:
128,284,157171,1,0,0:0:0:0:
200,140,157306,2,0,P|256:168|276:192,1,70
256,192,157575,12,0,159862,0:0:0:0:
208,80,159996,5,0,0:0:0:0:
144,76,160131,1,0,0:0:0:0:
88,104,160265,1,0,0:0:0:0:
88,168,160400,5,0,0:0:0:0:
128,216,160534,1,0,0:0:0:0:
168,168,160669,1,0,0:0:0:0:
140,224,160803,5,0,0:0:0:0:
188,264,160938,1,0,0:0:0:0:
252,256,161073,1,0,0:0:0:0:
268,196,161207,5,0,0:0:0:0:
240,140,161342,1,0,0:0:0:0:
288,184,161476,1,0,0:0:0:0:
348,216,161610,2,0,P|412:224|452:168,1,140
404,32,162014,6,0,B|376:60|376:60|385:97|385:97|400:160|360:192,1,140
292,176,162418,1,0,0:0:0:0:
164,264,162552,1,0,0:0:0:0:
316,204,162687,1,0,0:0:0:0:
168,292,162821,2,0,B|148:332|148:332|108:324|52:340,1,140
271,332,163225,6,0,B|316:344|348:323|348:323|380:304|412:316,1,140
284,228,163628,1,0,0:0:0:0:
380,124,163763,1,0,0:0:0:0:
244,164,163897,2,0,B|220:132|182:126|182:126|136:120|124:88,1,140
108,240,164301,2,0,B|136:272|136:272|192:264|244:308,1,140
344,216,164705,5,0,0:0:0:0:
280,92,164839,1,0,0:0:0:0:
212,216,164974,1,0,0:0:0:0:
396,116,165108,1,0,0:0:0:0:
220,232,165243,5,0,0:0:0:0:
352,68,165377,1,0,0:0:0:0:
452,256,165512,1,0,0:0:0:0:
272,152,165646,1,0,0:0:0:0:
484,140,165781,1,0,0:0:0:0:
272,268,165915,6,0,P|248:312|204:324,1,70
148,168,166184,1,0,0:0:0:0:
340,224,166319,6,0,B|388:235|416:215,1,70
280,68,166588,1,0,0:0:0:0:
264,220,166723,6,0,P|232:260|188:272,1,70
176,72,166992,1,0,0:0:0:0:
192,200,167126,1,0,0:0:0:0:
308,120,167260,1,0,0:0:0:0:
164,216,167395,5,0,0:0:0:0:
384,116,167530,2,0,P|370:76|344:56,1,70
212,192,167799,5,0,0:0:0:0:
368,292,167933,2,0,L|424:236,1,70
240,112,168202,5,0,0:0:0:0:
160,320,168337,2,0,L|92:276,1,70
76,136,168606,5,0,0:0:0:0:
232,252,168741,2,0,L|296:296,1,70
160,112,169010,5,0,0:0:0:0:
320,224,169144,2,0,B|384:160,1,70
208,68,169413,5,0,0:0:0:0:
472,80,169548,2,0,L|412:136,1,70
472,304,169817,5,0,0:0:0:0:
272,264,169951,2,0,L|200:336,1,70
96,96,170220,5,0,0:0:0:0:
340,224,170355,1,0,0:0:0:0:
152,224,170489,1,0,0:0:0:0:
320,136,170624,1,0,0:0:0:0:
100,184,170758,2,0,P|136:160|176:160,1,70
208,320,171028,5,0,0:0:0:0:
352,292,171162,2,0,P|392:273|404:244,1,70
216,144,171431,5,0,0:0:0:0:
428,188,171566,2,0,L|412:112,1,70
268,212,171835,5,0,0:0:0:0:
172,332,171969,2,0,B|96:296,1,70
232,164,172238,1,0,0:0:0:0:
308,292,172373,1,0,0:0:0:0:
216,152,172507,6,0,P|180:132|148:136,1,70
208,256,172776,2,0,P|236:284|276:288,1,70
316,196,173045,5,0,0:0:0:0:
280,100,173180,2,0,L|212:60,1,70
152,212,173449,5,0,0:0:0:0:
352,136,173584,2,0,L|428:180,1,70
280,248,173853,5,0,0:0:0:0:
412,60,173987,2,0,B|320:60|320:60|303:79|280:100|280:100|176:100,1,251.999992309571
224,280,174525,5,0,0:0:0:0:
184,68,174660,1,0,0:0:0:0:
360,208,174794,1,0,0:0:0:0:
144,152,174929,1,0,0:0:0:0:
336,292,175063,1,0,0:0:0:0:
312,104,175198,1,0,0:0:0:0:
148,224,175332,1,0,0:0:0:0:
416,236,175467,1,0,0:0:0:0:
384,92,175602,2,0,P|368:60|332:36,1,70
316,216,175870,5,0,2:3:0:0:
160,104,176005,1,0,2:3:0:0:
392,160,176140,1,0,2:3:0:0:
120,184,176274,1,0,2:3:0:0:
300,72,176409,1,0,2:3:0:0:
392,292,176543,1,0,2:3:0:0:
212,92,176678,5,0,2:3:0:0:
344,228,176813,2,0,L|428:216,1,70
364,48,177081,1,0,2:3:0:0:
160,172,177216,1,0,0:0:0:0:
208,284,177350,1,0,0:0:0:0:
280,80,177485,1,0,0:0:0:0:
344,312,177619,1,0,0:0:0:0:
120,184,177754,5,0,0:0:0:0:
324,248,177889,1,0,0:0:0:0:
192,84,178023,1,0,0:0:0:0:
184,296,178158,1,0,0:0:0:0:
276,96,178292,6,0,B|348:136,1,70
188,256,178561,2,0,L|96:208,1,70
288,344,178830,5,0,0:0:0:0:
384,200,178965,1,0,0:0:0:0:
184,296,179099,1,0,0:0:0:0:
400,300,179234,1,0,0:0:0:0:
376,144,179368,5,0,0:0:0:0:
368,152,179503,2,0,L|308:204,1,70
176,100,179772,5,0,0:0:0:0:
164,96,179906,2,0,P|136:84|100:48,1,70
96,212,180176,5,0,0:0:0:0:
104,220,180310,2,0,L|153:269,1,70
276,160,180579,5,0,0:0:0:0:
286,161,180714,2,0,P|320:165|355:163,1,70
288,304,180983,5,0,0:0:0:0:
276,303,181117,2,0,P|241:305|207:315,1,70
172,184,181386,5,0,0:0:0:0:
164,180,181521,2,0,P|132:165|97:161,1,70
256,76,181790,5,0,0:0:0:0:
264,68,181924,2,0,P|308:56|360:60,1,70
264,176,182193,5,0,0:0:0:0:
268,184,182328,2,0,P|280:224|268:264,1,70
472,144,182597,6,0,B|400:200|400:200|336:164,1,140
192,128,183001,1,0,0:0:0:0:
84,288,183135,2,0,B|132:316|132:316|204:260,1,140
312,152,183539,1,0,0:0:0:0:
464,264,183673,6,0,B|432:292|432:292|384:260|312:284,1,140
296,136,184077,1,0,0:0:0:0:
124,108,184211,2,0,B|200:124|232:84|232:84|264:48|336:60,1,210
132,192,184749,1,0,0:0:0:0:
292,132,184884,1,0,0:0:0:0:
272,288,185019,1,0,0:0:0:0:
96,260,185288,6,0,B|148:280|188:240|188:240|224:268,1,140
336,280,185691,1,0,0:0:0:0:
436,192,185826,2,0,B|404:156|404:156|240:220,1,210
88,288,186364,6,0,B|56:188|56:188|180:140,1,210
260,120,186902,1,0,0:0:0:0:
298,108,186969,1,0,0:0:0:0:
328,96,187036,2,0,P|347:33|330:17,2,70
292,204,187440,5,0,0:0:0:0:
160,148,187575,2,0,L|104:76,1,70
252,52,187844,1,0,0:0:0:0:
388,80,187978,2,0,L|356:144,1,70
276,256,188247,5,0,0:0:0:0:
128,288,188382,1,0,0:0:0:0:
276,256,188516,1,0,0:0:0:0:
72,212,188651,1,0,0:0:0:0:
276,264,188785,1,0,0:0:0:0:
52,112,188920,1,0,0:0:0:0:
276,264,189054,1,0,0:0:0:0:
64,32,189189,1,0,0:0:0:0:
276,264,189323,1,0,0:0:0:0:
68,84,189458,5,0,0:0:0:0:
308,288,189593,2,0,P|364:300|380:288,1,70
296,88,189862,1,0,0:0:0:0:
168,304,189996,2,0,B|101:326,1,70
188,128,190265,1,0,0:0:0:0:
303,325,190400,2,0,L|344:268,1,70
196,224,190669,1,0,0:0:0:0:
68,288,190803,5,0,0:0:0:0:
64,96,190938,1,0,0:0:0:0:
128,312,191072,1,0,0:0:0:0:
232,160,191207,5,0,0:0:0:0:
40,176,191341,1,0,0:0:0:0:
224,272,191476,1,0,0:0:0:0:
384,192,191610,5,0,0:0:0:0:
192,96,191745,2,0,L|160:160,1,70
192,320,192014,1,0,0:0:0:0:
320,256,192149,5,0,0:0:0:0:
196,188,192283,1,0,0:0:0:0:
320,120,192418,1,0,0:0:0:0:
176,72,192552,1,0,0:0:0:0:
316,232,192687,1,0,0:0:0:0:
168,168,192821,2,0,B|104:200|112:288|52:272,1,140
328,336,193225,5,0,0:0:0:0:
172,152,193359,1,0,0:0:0:0:
260,296,193494,1,0,0:0:0:0:
100,220,193628,1,0,0:0:0:0:
368,304,193763,1,0,0:0:0:0:
192,256,193897,2,0,B|215:206|313:226|313:226|411:240|443:178,1,280
244,152,194570,5,0,0:0:0:0:
416,232,194705,1,0,0:0:0:0:
184,160,194839,1,0,0:0:0:0:
288,328,194974,2,0,B|388:316|388:316|280:220|424:120,1,280
368,40,195646,5,0,0:0:0:0:
156,80,195781,1,0,0:0:0:0:
352,220,195915,1,0,0:0:0:0:
104,292,196050,2,0,P|232:320|312:256,1,210.000008010865
416,168,196454,5,0,0:0:0:0:
248,236,196588,1,0,0:0:0:0:
312,92,196723,1,0,0:0:0:0:
168,204,196857,1,0,0:0:0:0:
168,32,196992,1,0,0:0:0:0:
88,172,197126,2,0,P|124:272|160:284,1,140
268,316,197530,5,0,0:0:0:0:
160,184,197664,1,0,0:0:0:0:
344,332,197799,1,0,0:0:0:0:
232,196,197933,1,0,0:0:0:0:
424,344,198068,1,0,0:0:0:0:
308,208,198202,2,0,P|368:236|444:232,1,140
384,120,198606,5,0,0:0:0:0:
316,296,198741,1,0,0:0:0:0:
256,92,198875,1,0,0:0:0:0:
184,256,199010,1,0,0:0:0:0:
144,64,199144,1,0,0:0:0:0:
40,204,199279,2,0,P|72:288|144:312,1,140
312,308,199682,5,0,0:0:0:0:
176,144,199817,1,0,0:0:0:0:
208,316,199951,1,0,0:0:0:0:
296,144,200086,1,0,0:0:0:0:
136,244,200220,1,0,0:0:0:0:
384,248,200355,2,0,P|408:220|396:176,1,70
324,40,200624,6,0,L|240:64,1,70
52,108,200893,1,0,0:0:0:0:
228,276,201028,2,0,B|256:300|256:300|292:276,1,70
356,104,201297,1,0,0:0:0:0:
284,252,201431,6,0,B|256:270|256:270|228:246,1,70
156,104,201700,1,0,0:0:0:0:
228,220,201835,2,0,B|256:244|256:244|292:220,1,70
376,68,202104,1,0,0:0:0:0:
160,208,202238,6,0,P|173:176|203:158,1,70
288,308,202507,1,0,0:0:0:0:
402,212,202642,2,0,L|472:212,1,70
304,96,202911,1,0,0:0:0:0:
400,320,203045,6,0,B|444:316|460:276,1,70
300,208,203314,1,0,0:0:0:0:
328,32,203449,2,0,P|291:29|260:44,1,70
344,204,203718,1,0,0:0:0:0:
196,112,203853,6,0,L|127:115,1,70
244,264,204122,1,0,0:0:0:0:
348,48,204256,1,0,0:0:0:0:
324,192,204391,2,0,L|393:195,1,70
256,192,204660,12,0,207216,0:0:0:0:
88,296,207350,6,0,P|124:320|220:312,1,140
444,200,207754,1,0,0:0:0:0:
208,192,207889,1,0,0:0:0:0:
416,80,208023,1,0,0:0:0:0:
348,304,208158,1,0,0:0:0:0:
256,84,208292,2,0,P|164:71|124:116,1,140
72,228,208696,5,0,0:0:0:0:
192,328,208830,1,0,0:0:0:0:
356,292,208965,2,0,P|436:240|452:196,1,140
428,128,209368,1,0,0:0:0:0:
376,72,209503,1,0,0:0:0:0:
300,64,209637,1,0,0:0:0:0:
224,88,209772,1,0,0:0:0:0:
168,140,209906,1,0,0:0:0:0:
180,216,210041,5,0,0:0:0:0:
252,240,210176,1,0,0:0:0:0:
176,236,210310,1,0,0:0:0:0:
144,308,210445,1,0,0:0:0:0:
204,356,210579,1,0,0:0:0:0:
280,340,210714,1,0,0:0:0:0:
316,272,210848,1,0,0:0:0:0:
304,196,210983,1,0,0:0:0:0:
364,148,211117,5,0,0:0:0:0:
432,184,211252,1,0,0:0:0:0:
424,108,211386,1,0,0:0:0:0:
356,72,211521,2,0,P|300:56|280:32,1,70
200,44,211790,1,0,0:0:0:0:
128,100,211924,1,0,0:0:0:0:
172,180,212059,1,0,0:0:0:0:
264,172,212193,1,0,0:0:0:0:
212,248,212328,6,0,L|212:336,1,70
312,228,212597,2,0,L|356:156,1,70
236,64,212866,2,0,L|236:134,1,70
143,204,213135,2,0,L|180:264,1,70
300,108,213404,1,0,0:0:0:0:
432,272,213539,2,0,P|404:300|352:304,1,70
308,192,213808,2,0,P|270:183|244:160,1,70
360,84,214077,2,0,P|392:71|420:51,1,70
396,272,214346,6,0,P|361:266|335:244,1,70
288,92,214615,2,0,P|248:92|212:116,1,70
92,140,214884,2,0,L|140:212,1,70
280,348,215153,2,0,B|312:320|312:320|292:280,1,70
200,216,215422,5,0,0:0:0:0:
78,119,215557,1,0,0:0:0:0:
280,84,215691,1,0,0:0:0:0:
108,256,215826,1,0,0:0:0:0:
139,64,215960,1,0,0:0:0:0:
316,200,216095,1,0,0:0:0:0:
169,165,216229,1,0,0:0:0:0:
341,59,216364,1,0,0:0:0:0:
248,216,216498,5,0,0:0:0:0:
410,196,216633,1,0,0:0:0:0:
311,53,216767,1,0,0:0:0:0:
149,211,216902,1,0,0:0:0:0:
336,156,217036,1,0,0:0:0:0:
164,78,217171,1,0,0:0:0:0:
129,211,217306,1,0,0:0:0:0:
292,132,217440,1,0,0:0:0:0:
44,100,217575,5,0,0:0:0:0:
268,100,217709,1,0,0:0:0:0:
173,229,217844,1,0,0:0:0:0:
88,55,217978,1,0,0:0:0:0:
328,80,218113,1,0,0:0:0:0:
178,199,218247,1,0,0:0:0:0:
183,75,218382,1,0,0:0:0:0:
353,204,218516,1,0,0:0:0:0:
252,72,218651,5,0,0:0:0:0:
368,200,218785,1,0,0:0:0:0:
193,276,218920,1,0,0:0:0:0:
310,130,219054,1,0,0:0:0:0:
129,171,219189,1,0,0:0:0:0:
327,293,219323,1,0,0:0:0:0:
188,140,219458,5,0,0:0:0:0:
308,220,219593,1,0,0:0:0:0:
200,250,219727,2,0,L|136:224,1,70
284,272,219996,1,0,0:0:0:0:
228,116,220131,6,0,P|304:100|360:64,1,140
324,212,220534,2,0,P|293:229|259:234,1,70
96,300,220803,2,0,P|156:344|236:336,1,140
376,280,221207,5,0,0:0:0:0:
168,204,221341,1,0,0:0:0:0:
288,324,221476,1,0,0:0:0:0:
252,136,221610,1,0,0:0:0:0:
180,304,221745,1,0,0:0:0:0:
288,208,221880,2,0,P|324:164|304:84,1,140
200,100,222283,5,0,0:0:0:0:
248,276,222418,2,0,P|340:268|376:212,1,140
396,52,222821,1,0,0:0:0:0:
216,128,222956,1,0,0:0:0:0:
392,148,223090,1,0,0:0:0:0:
176,212,223225,2,0,P|124:140|144:84,1,140
292,192,223628,5,0,0:0:0:0:
404,324,223763,1,0,0:0:0:0:
244,340,223897,1,0,0:0:0:0:
188,120,224032,2,0,P|134:161|140:228,1,140
348,108,224436,1,0,0:0:0:0:
252,316,224570,2,0,P|201:270|194:202,1,140
388,224,224974,1,0,0:0:0:0:
272,48,225108,6,0,P|244:116|168:124,1,140
376,104,225512,1,0,0:0:0:0:
280,216,225646,2,0,P|248:260|280:336,1,140
400,256,226050,1,0,0:0:0:0:
280,128,226184,1,0,0:0:0:0:
288,288,226319,2,0,P|296:228|360:172,1,140
460,132,226723,1,0,0:0:0:0:
440,264,226857,1,0,0:0:0:0:
352,312,226992,6,0,P|308:328|224:268,1,140
172,128,227395,1,0,0:0:0:0:
80,288,227530,1,0,0:0:0:0:
304,252,227664,1,0,0:0:0:0:
356,128,227799,2,0,P|340:92|244:68,1,140
244,192,228202,5,0,0:0:0:0:
392,196,228337,2,0,P|428:164|412:76,1,140
312,216,228741,2,0,P|260:264|180:228,1,140
96,128,229144,1,0,0:0:0:0:
244,192,229279,1,0,0:0:0:0:
324,316,229413,2,0,P|424:292|432:240,1,140
312,160,229817,1,0,0:0:0:0:
240,304,229951,1,0,0:0:0:0:
395,336,230086,6,0,P|446:290|444:222,1,140
320,124,230489,1,0,0:0:0:0:
172,188,230624,1,0,0:0:0:0:
256,324,230758,1,0,0:0:0:0:
284,188,230893,2,0,P|244:132|340:56,1,210
352,228,231431,5,0,0:0:0:0:
184,176,231566,1,0,0:0:0:0:
388,136,231700,1,0,0:0:0:0:
240,284,231835,1,0,0:0:0:0:
316,88,231969,1,0,0:0:0:0:
320,300,232104,5,0,0:0:0:0:
228,112,232238,1,0,0:0:0:0:
388,248,232373,1,0,0:0:0:0:
188,192,232507,1,0,0:0:0:0:
388,92,232642,2,0,P|344:160|276:144,1,140
148,120,233045,5,0,0:0:0:0:
196,80,233180,1,0,0:0:0:0:
260,92,233315,1,0,0:0:0:0:
296,144,233449,1,0,0:0:0:0:
256,192,233584,1,0,0:0:0:0:
192,200,233718,2,0,P|112:196|56:152,1,140
288,128,234122,2,0,P|380:116|428:76,1,140
320,32,234525,5,0,0:0:0:0:
224,128,234660,1,0,0:0:0:0:
384,192,234794,2,0,P|400:268|352:288,1,140
192,288,235198,5,0,0:0:0:0:
288,96,235332,1,0,0:0:0:0:
392,184,235467,1,0,0:0:0:0:
196,160,235602,1,0,0:0:0:0:
412,184,235736,1,0,0:0:0:0:
160,224,235871,2,0,P|128:192|160:96,1,140
396,184,236274,5,0,0:0:0:0:
196,160,236409,1,0,0:0:0:0:
216,288,236543,1,0,0:0:0:0:
364,108,236678,1,0,0:0:0:0:
200,308,236812,1,0,0:0:0:0:
324,196,236947,2,0,P|424:248|456:220,1,140
192,52,237350,5,0,0:0:0:0:
188,56,237418,1,0,0:0:0:0:
184,60,237485,2,0,L|128:140,1,70
124,284,237754,5,0,0:0:0:0:
288,256,237889,1,0,0:0:0:0:
208,152,238023,2,0,P|316:100|424:132,1,210
220,228,238561,5,0,0:0:0:0:
336,52,238696,1,0,0:0:0:0:
340,296,238830,1,0,0:0:0:0:
288,92,238965,1,0,0:0:0:0:
264,320,239099,2,0,P|288:244|408:248,1,210
289,104,239637,5,0,0:0:0:0:
192,222,239772,2,0,L|145:274,1,70
364,264,240041,5,0,0:0:0:0:
160,108,240176,2,0,L|100:52,1,70
256,296,240445,5,0,0:0:0:0:
364,124,240579,2,0,L|428:81,1,70
128,200,240848,5,0,0:0:0:0:
372,248,240983,2,0,L|436:296,1,70
256,68,241252,5,0,0:0:0:0:
256,280,241386,2,0,L|256:368,1,70
152,68,241655,6,0,P|128:88|112:128,1,70
360,172,241924,1,0,0:0:0:0:
120,308,242059,6,0,P|92:288|72:244,1,70
296,132,242328,1,0,0:0:0:0:
268,336,242462,6,0,P|304:328|344:296,1,70
164,176,242731,1,0,0:0:0:0:
376,152,242866,6,0,P|372:112|352:80,1,70
372,280,243135,1,0,0:0:0:0:
220,140,243269,6,0,P|192:116|164:100,1,70
200,304,243538,1,0,0:0:0:0:
60,116,243673,6,0,B|44:96|48:40,1,70
316,48,243942,1,0,0:0:0:0:
472,272,244076,6,0,L|408:328,1,70
244,100,244345,1,0,0:0:0:0:
112,352,244480,6,0,P|84:332|76:284,1,70
408,188,244749,1,0,0:0:0:0:
118,41,244884,6,0,B|88:48|64:84,1,70
268,336,245153,1,0,0:0:0:0:
412,40,245287,6,0,L|476:84,1,70
108,260,245556,1,0,0:0:0:0:
456,232,245691,5,0,0:0:0:0:
76,172,245826,2,0,L|172:132,1,70
432,312,246095,1,0,0:0:0:0:
208,100,246229,2,0,L|160:40,1,70
80,336,246498,1,0,0:0:0:0:
360,84,246633,2,0,P|387:62|421:60,1,70
436,344,246902,5,0,0:0:0:0:
112,64,247036,2,0,P|76:48|48:32,1,70
256,344,247306,1,0,0:0:0:0:
408,80,247440,2,0,L|480:16,1,70
