osu file format v14

[General]
AudioFilename: audio.mp3
AudioLeadIn: 0
PreviewTime: -1
Countdown: 0
SampleSet: Normal
StackLeniency: 0.7
Mode: 0
LetterboxInBreaks: 0
WidescreenStoryboard: 0

[Editor]
DistanceSpacing: 1.2
BeatDivisor: 8
GridSize: 4
TimelineZoom: 1

[Metadata]
Title:Uragiri No Yuuyake
TitleUnicode:Uragiri No Yuuyake
Artist:Theatre Brook
ArtistUnicode:Theatre Brook
Creator:Im Yuuki
Version:Explosion
Source:
Tags:Jumps
BeatmapID:1478428
BeatmapSetID:698013

[Difficulty]
HPDrainRate:8
CircleSize:4
OverallDifficulty:6
ApproachRate:9
SliderMultiplier:1.99
SliderTickRate:1

[Events]
//Background and Video events
0,0,"3e8cffb78e3d921f903eafbd9afa55f5.jpg",0,0
//Break Periods
//Storyboard Layer 0 (Background)
//Storyboard Layer 1 (Fail)
//Storyboard Layer 2 (Pass)
//Storyboard Layer 3 (Foreground)
//Storyboard Sound Samples

[TimingPoints]
550,397.350993377483,4,1,0,100,1,0

[HitObjects]
80,80,550,5,0,0:0:0:0:
80,80,748,1,0,0:0:0:0:
80,80,947,1,0,0:0:0:0:
80,80,1146,1,0,0:0:0:0:
432,256,1344,5,0,0:0:0:0:
432,256,1543,1,0,0:0:0:0:
432,256,1742,1,0,0:0:0:0:
432,256,1940,1,0,0:0:0:0:
256,64,2139,5,0,0:0:0:0:
256,64,2338,1,0,0:0:0:0:
256,64,2536,1,0,0:0:0:0:
256,64,2735,1,0,0:0:0:0:
160,288,2934,5,0,0:0:0:0:
160,288,3132,1,0,0:0:0:0:
160,288,3331,1,0,0:0:0:0:
160,288,3530,2,0,P|219:291|272:272,1,99.5
480,208,3927,1,0,0:0:0:0:
400,96,4126,2,0,P|336:64|304:64,1,99.5
192,64,4523,2,0,P|128:96|107:130,1,99.5
80,192,4920,5,0,0:0:0:0:
144,320,5119,1,0,0:0:0:0:
192,208,5318,1,0,0:0:0:0:
32,304,5516,1,0,0:0:0:0:
400,336,5715,2,0,P|432:304|452:251,1,99.5
448,256,6112,5,0,0:0:0:0:
400,144,6311,1,0,0:0:0:0:
288,208,6510,1,0,0:0:0:0:
320,304,6708,2,0,P|270:313|223:298,1,99.5
160,256,7106,5,0,0:0:0:0:
160,144,7304,1,0,0:0:0:0:
240,208,7503,1,0,0:0:0:0:
80,192,7702,1,0,0:0:0:0:
208,64,7900,2,0,P|272:64|299:83,1,99.5
400,160,8298,5,0,0:0:0:0:
272,224,8496,1,0,0:0:0:0:
224,80,8695,1,0,0:0:0:0:
400,256,8894,1,0,0:0:0:0:
320,320,9092,2,0,P|224:288|140:236,1,199
80,160,9688,5,0,0:0:0:0:
224,144,9887,1,0,0:0:0:0:
224,272,10086,1,0,0:0:0:0:
112,272,10284,2,0,P|144:224|181:209,1,99.5
272,208,10682,5,0,0:0:0:0:
400,256,10880,1,0,0:0:0:0:
400,112,11079,1,0,0:0:0:0:
192,96,11278,1,0,0:0:0:0:
256,208,11476,2,0,P|224:240|172:240,1,99.5
64,224,11874,5,0,0:0:0:0:
94,58,12072,1,0,0:0:0:0:
148,163,12271,2,0,P|260:131|323:76,1,199
417,47,12867,5,0,0:0:0:0:
384,160,13066,1,0,0:0:0:0:
272,256,13264,1,0,0:0:0:0:
272,144,13463,1,0,0:0:0:0:
416,272,13662,1,0,0:0:0:0:
444,165,13860,2,0,P|426:109|392:95,1,99.5
288,80,14258,5,0,0:0:0:0:
160,176,14456,1,0,0:0:0:0:
176,64,14655,1,0,0:0:0:0:
288,192,14854,1,0,0:0:0:0:
400,96,15052,2,0,P|352:64|304:64,1,99.5
144,80,15450,2,0,P|96:160|165:229,1,199
288,256,16046,5,0,0:0:0:0:
288,256,16146,1,0,0:0:0:0:
288,256,16245,1,0,0:0:0:0:
416,272,16444,2,0,P|448:224|440:182,1,99.5
432,96,16841,5,0,0:0:0:0:
272,64,17040,1,0,0:0:0:0:
320,192,17238,1,0,0:0:0:0:
368,48,17437,1,0,0:0:0:0:
448,160,17636,2,0,P|432:224|402:236,1,99.5
304,240,18033,5,0,0:0:0:0:
112,160,18232,1,0,0:0:0:0:
240,112,18430,1,0,0:0:0:0:
192,288,18629,1,0,0:0:0:0:
304,288,18828,2,0,P|365:268|391:240,1,99.5
416,128,19225,5,0,0:0:0:0:
192,160,19424,1,0,0:0:0:0:
336,240,19622,1,0,0:0:0:0:
272,64,19821,1,0,0:0:0:0:
454,135,20020,2,0,P|457:186|435:235,1,99.5
384,304,20417,5,0,0:0:0:0:
208,176,20616,1,0,0:0:0:0:
384,176,20814,1,0,0:0:0:0:
240,336,21013,1,0,0:0:0:0:
64,256,21212,2,0,P|64:192|89:166,1,99.5
176,64,21609,5,0,0:0:0:0:
288,144,21808,1,0,0:0:0:0:
144,192,22006,1,0,0:0:0:0:
304,48,22205,1,0,0:0:0:0:
400,96,22404,5,0,0:0:0:0:
400,96,22503,1,0,0:0:0:0:
400,96,22602,1,0,0:0:0:0:
416,224,22801,2,0,P|384:256|318:263,1,99.5
192,256,23199,5,0,0:0:0:0:
64,160,23397,1,0,0:0:0:0:
192,128,23596,1,0,0:0:0:0:
64,272,23795,1,0,0:0:0:0:
160,320,23993,2,0,P|217:327|257:316,1,99.5
336,288,24391,5,0,0:0:0:0:
368,128,24589,1,0,0:0:0:0:
448,224,24788,1,0,0:0:0:0:
240,192,24987,1,0,0:0:0:0:
128,288,25185,2,0,P|80:256|84:216,1,99.5
112,112,25583,5,0,0:0:0:0:
272,128,25781,1,0,0:0:0:0:
176,208,25980,1,0,0:0:0:0:
208,48,26179,1,0,0:0:0:0:
392,59,26377,2,0,P|419:107|396:138,1,99.5
329,184,26775,5,0,0:0:0:0:
226,110,26973,1,0,0:0:0:0:
128,224,27172,1,0,0:0:0:0:
256,336,27371,1,0,0:0:0:0:
416,192,27569,1,0,0:0:0:0:
256,32,27768,1,0,0:0:0:0:
96,192,27967,1,0,0:0:0:0:
256,352,28165,1,0,0:0:0:0:
373,271,28563,2,0,P|421:126|311:60,1,298.5
144,64,29357,5,0,0:0:0:0:
128,320,29556,1,0,0:0:0:0:
224,64,29755,1,0,0:0:0:0:
224,320,29953,1,0,0:0:0:0:
304,64,30152,1,0,0:0:0:0:
304,320,30351,1,0,0:0:0:0:
384,320,30550,2,0,P|385:220|303:209,1,199
96,320,31146,5,0,0:0:0:0:
448,288,31344,1,0,0:0:0:0:
96,208,31543,1,0,0:0:0:0:
448,160,31742,1,0,0:0:0:0:
96,96,31940,5,0,0:0:0:0:
96,96,32040,1,0,0:0:0:0:
96,96,32139,1,0,0:0:0:0:
224,80,32338,2,0,P|288:80|336:96,1,99.5
432,192,32735,5,0,0:0:0:0:
160,320,32934,1,0,0:0:0:0:
224,64,33132,1,0,0:0:0:0:
368,272,33331,1,0,0:0:0:0:
160,192,33530,2,0,P|176:128|205:117,1,99.5
432,112,33927,5,0,0:0:0:0:
80,320,34126,1,0,0:0:0:0:
416,224,34324,1,0,0:0:0:0:
80,96,34523,1,0,0:0:0:0:
400,96,34722,2,0,P|336:80|295:96,1,99.5
160,144,35119,5,0,0:0:0:0:
80,336,35318,1,0,0:0:0:0:
368,304,35516,1,0,0:0:0:0:
256,80,35715,1,0,0:0:0:0:
96,128,35914,2,0,P|96:192|117:221,1,99.5
192,304,36311,5,0,0:0:0:0:
384,144,36510,1,0,0:0:0:0:
112,112,36708,1,0,0:0:0:0:
383,292,36907,2,0,P|383:228|347:200,1,99.5
208,144,37304,5,0,0:0:0:0:
112,288,37503,1,0,0:0:0:0:
126,57,37702,2,0,P|211:51|316:97,1,199
400,176,38298,5,0,0:0:0:0:
144,304,38497,5,0,0:0:0:0:
368,48,38695,1,0,0:0:0:0:
96,96,38894,1,0,0:0:0:0:
368,288,39093,1,0,0:0:0:0:
432,80,39291,5,0,0:0:0:0:
80,240,39490,1,0,0:0:0:0:
432,320,39689,1,0,0:0:0:0:
64,64,39887,1,0,0:0:0:0:
320,336,40086,5,0,0:0:0:0:
256,48,40285,1,0,0:0:0:0:
96,336,40483,1,0,0:0:0:0:
416,192,40682,1,0,0:0:0:0:
224,64,40881,2,0,P|80:112|236:325,1,497.5
352,320,42073,5,0,0:0:0:0:
432,80,42271,1,0,0:0:0:0:
80,208,42470,1,0,0:0:0:0:
368,192,42669,1,0,0:0:0:0:
176,64,42867,1,0,0:0:0:0:
144,304,43066,1,0,0:0:0:0:
320,303,43265,2,0,P|367:273|376:232,1,99.5
363,61,43662,5,0,0:0:0:0:
108,238,43861,1,0,0:0:0:0:
386,265,44059,1,0,0:0:0:0:
119,58,44258,1,0,0:0:0:0:
309,99,44457,2,0,P|356:126|385:165,1,99.5
438,287,44854,5,0,0:0:0:0:
113,135,45053,1,0,0:0:0:0:
400,192,45251,1,0,0:0:0:0:
88,316,45450,1,0,0:0:0:0:
112,80,45649,5,0,0:0:0:0:
336,320,45848,1,0,0:0:0:0:
384,48,46046,1,0,0:0:0:0:
158,266,46245,1,0,0:0:0:0:
448,320,46444,2,0,P|448:192|312:113,1,298.5
123,110,47238,5,0,0:0:0:0:
263,286,47437,1,0,0:0:0:0:
400,112,47636,1,0,0:0:0:0:
140,223,47834,1,0,0:0:0:0:
368,320,48033,5,0,0:0:0:0:
234,80,48232,1,0,0:0:0:0:
224,320,48430,1,0,0:0:0:0:
392,108,48629,1,0,0:0:0:0:
112,112,48828,2,0,P|128:160|250:230,1,199
413,217,49424,1,0,0:0:0:0:
185,41,49622,1,0,0:0:0:0:
360,41,49821,1,0,0:0:0:0:
104,249,50020,5,0,0:0:0:0:
245,135,50218,1,0,0:0:0:0:
352,316,50417,2,0,P|408:239|338:170,1,199
272,146,51013,5,0,0:0:0:0:
208,176,51212,1,0,0:0:0:0:
277,178,51410,5,0,0:0:0:0:
169,142,51609,1,0,0:0:0:0:
313,209,51808,5,0,0:0:0:0:
148,91,52006,1,0,0:0:0:0:
339,243,52205,5,0,0:0:0:0:
162,52,52404,1,0,0:0:0:0:
346,288,52602,5,0,0:0:0:0:
186,23,52801,1,0,0:0:0:0:
342,324,53000,1,0,0:0:0:0:
220,11,53199,5,0,0:0:0:0:
337,349,53397,1,0,0:0:0:0:
107,188,53596,2,0,P|250:23|399:199,1,497.5
464,336,54987,5,0,0:0:0:0:
48,336,55384,1,0,0:0:0:0:
48,48,55781,1,0,0:0:0:0:
464,48,56179,1,0,0:0:0:0:
464,336,56576,1,0,0:0:0:0:
80,192,56973,5,0,0:0:0:0:
256,16,57371,1,0,0:0:0:0:
432,192,57768,1,0,0:0:0:0:
256,368,58165,1,0,0:0:0:0:
128,96,58563,5,0,0:0:0:0:
384,96,58960,1,0,0:0:0:0:
384,288,59357,1,0,0:0:0:0:
128,288,59755,1,0,0:0:0:0:
256,112,60152,5,0,0:0:0:0:
336,192,60549,1,0,0:0:0:0:
256,272,60946,1,0,0:0:0:0:
176,192,61344,1,0,0:0:0:0:
384,80,61742,5,0,0:0:0:0:
96,288,62139,1,0,0:0:0:0:
384,288,62536,1,0,0:0:0:0:
112,80,62934,1,0,0:0:0:0:
400,192,63331,5,0,0:0:0:0:
128,192,63728,1,0,0:0:0:0:
368,64,64126,5,0,0:0:0:0:
288,336,64324,1,0,0:0:0:0:
96,96,64523,1,0,0:0:0:0:
400,240,64722,1,0,0:0:0:0:
112,272,64920,5,0,0:0:0:0:
272,48,65119,1,0,0:0:0:0:
368,320,65318,1,0,0:0:0:0:
144,128,65516,1,0,0:0:0:0:
336,240,65715,2,0,P|360:197|370:144,1,99.5
368,32,66112,5,0,0:0:0:0:
64,64,66311,1,0,0:0:0:0:
96,288,66510,5,0,0:0:0:0:
128,272,66609,1,0,0:0:0:0:
160,256,66708,1,0,0:0:0:0:
192,240,66808,1,0,0:0:0:0:
224,224,66907,1,0,0:0:0:0:
368,80,67106,5,0,0:0:0:0:
368,80,67304,1,0,0:0:0:0:
384,320,67702,5,0,0:0:0:0:
256,32,67900,1,0,0:0:0:0:
144,320,68099,1,0,0:0:0:0:
416,144,68298,1,0,0:0:0:0:
96,144,68497,1,0,0:0:0:0:
272,256,68695,2,0,P|323:169|256:113,1,199
32,96,69291,5,0,0:0:0:0:
336,320,69490,1,0,0:0:0:0:
384,48,69688,1,0,0:0:0:0:
96,304,69887,2,0,P|128:320|191:303,1,99.5
416,176,70285,5,0,0:0:0:0:
192,64,70483,1,0,0:0:0:0:
112,288,70682,1,0,0:0:0:0:
384,80,70881,1,0,0:0:0:0:
272,304,71079,5,0,0:0:0:0:
128,96,71278,1,0,0:0:0:0:
448,176,71477,1,0,0:0:0:0:
256,48,71675,1,0,0:0:0:0:
96,96,71874,2,0,P|96:144|124:188,1,99.5
240,320,72271,5,0,0:0:0:0:
368,112,72470,1,0,0:0:0:0:
112,80,72669,1,0,0:0:0:0:
368,256,72867,1,0,0:0:0:0:
272,48,73066,1,0,0:0:0:0:
160,272,73265,1,0,0:0:0:0:
365,106,73463,2,0,P|252:69|178:111,1,199
96,192,74059,5,0,0:0:0:0:
352,256,74258,1,0,0:0:0:0:
208,48,74457,1,0,0:0:0:0:
144,336,74655,1,0,0:0:0:0:
272,160,74854,1,0,0:0:0:0:
80,64,75053,2,0,P|112:64|161:108,1,99.5
272,304,75450,5,0,0:0:0:0:
432,80,75649,1,0,0:0:0:0:
80,64,75848,2,0,P|122:202|170:218,1,199
380,304,76444,1,0,0:0:0:0:
207,47,76642,5,0,0:0:0:0:
112,272,76841,1,0,0:0:0:0:
400,224,77040,1,0,0:0:0:0:
272,80,77238,1,0,0:0:0:0:
188,296,77437,5,0,0:0:0:0:
383,122,77636,1,0,0:0:0:0:
114,123,77834,1,0,0:0:0:0:
331,305,78033,1,0,0:0:0:0:
192,64,78232,5,0,0:0:0:0:
144,272,78430,1,0,0:0:0:0:
400,128,78629,1,0,0:0:0:0:
96,208,78828,1,0,0:0:0:0:
368,240,79026,1,0,0:0:0:0:
236,101,79225,2,0,P|113:114|218:277,1,398
334,259,80218,5,0,0:0:0:0:
128,112,80417,1,0,0:0:0:0:
351,97,80616,1,0,0:0:0:0:
144,272,80814,1,0,0:0:0:0:
272,48,81013,5,0,0:0:0:0:
288,288,81212,1,0,0:0:0:0:
112,144,81410,1,0,0:0:0:0:
384,160,81609,1,0,0:0:0:0:
128,208,81808,5,0,0:0:0:0:
352,64,82006,1,0,0:0:0:0:
304,320,82205,1,0,0:0:0:0:
144,96,82404,1,0,0:0:0:0:
390,232,82602,5,0,0:0:0:0:
192,80,82801,1,0,0:0:0:0:
160,304,83000,1,0,0:0:0:0:
368,96,83199,1,0,0:0:0:0:
96,112,83397,5,0,0:0:0:0:
323,318,83596,1,0,0:0:0:0:
398,56,83795,1,0,0:0:0:0:
111,273,83993,1,0,0:0:0:0:
416,176,84192,5,0,0:0:0:0:
128,48,84391,1,0,0:0:0:0:
240,288,84589,1,0,0:0:0:0:
352,48,84788,1,0,0:0:0:0:
128,192,84987,5,0,0:0:0:0:
429,237,85185,1,0,0:0:0:0:
224,32,85384,1,0,0:0:0:0:
288,320,85583,1,0,0:0:0:0:
360,70,85781,5,0,0:0:0:0:
136,224,85980,1,0,0:0:0:0:
416,272,86179,1,0,0:0:0:0:
256,192,86377,12,0,89682,0:0:0:0:
