osu file format v14

[General]
AudioFilename: audio.mp3
AudioLeadIn: 0
PreviewTime: 181406
Countdown: 0
SampleSet: None
StackLeniency: 0.7
Mode: 3
LetterboxInBreaks: 0
SpecialStyle: 0
WidescreenStoryboard: 0

[Editor]
DistanceSpacing: 1
BeatDivisor: 4
GridSize: 4
TimelineZoom: 2.000001

[Metadata]
Title:Penger
TitleUnicode:Penger
Artist:TheSuperMarioBros2
ArtistUnicode:TheSuperMarioBros2
Creator:Vapor-
Version:When Worlds Collide
Source:
Tags:
BeatmapID:1839906
BeatmapSetID:879830

[Difficulty]
HPDrainRate:8.3
CircleSize:4
OverallDifficulty:7
ApproachRate:5
SliderMultiplier:1.4
SliderTickRate:1

[Events]
//Background and Video events
0,0,"Penger.png",0,0
//Break Periods
//Storyboard Layer 0 (Background)
//Storyboard Layer 1 (Fail)
//Storyboard Layer 2 (Pass)
//Storyboard Layer 3 (Foreground)
//Storyboard Sound Samples

[TimingPoints]
1500,750,4,2,0,5,1,0
1500,-50,4,2,0,5,0,0
13500,-50,4,2,0,5,0,1
49500,-50,4,2,0,5,0,0
61500,375,4,2,0,5,1,0
73500,-100,4,2,0,5,0,1
109500,-100,4,2,0,5,0,0
181500,-100,4,2,0,5,0,1
217500,-100,4,2,0,5,0,0
264750,750,4,2,0,5,1,0
264750,-50,4,2,0,5,0,0

[HitObjects]
64,192,1500,5,0,0:0:0:0:
192,192,1593,1,0,0:0:0:0:
192,192,1687,1,0,0:0:0:0:
192,192,1781,1,0,0:0:0:0:
320,192,1875,1,0,0:0:0:0:
448,192,1968,1,0,0:0:0:0:
64,192,2062,1,0,0:0:0:0:
192,192,2156,1,0,0:0:0:0:
192,192,2250,1,0,0:0:0:0:
192,192,2343,1,0,0:0:0:0:
320,192,2437,1,0,0:0:0:0:
448,192,2531,1,0,0:0:0:0:
64,192,2625,1,0,0:0:0:0:
192,192,2718,1,0,0:0:0:0:
192,192,2812,1,0,0:0:0:0:
320,192,2906,1,0,0:0:0:0:
64,192,3000,5,0,0:0:0:0:
192,192,3093,1,0,0:0:0:0:
192,192,3187,1,0,0:0:0:0:
192,192,3281,1,0,0:0:0:0:
320,192,3375,1,0,0:0:0:0:
448,192,3468,1,0,0:0:0:0:
64,192,3562,1,0,0:0:0:0:
192,192,3656,1,0,0:0:0:0:
192,192,3750,1,0,0:0:0:0:
192,192,3843,1,0,0:0:0:0:
320,192,3937,1,0,0:0:0:0:
448,192,4031,1,0,0:0:0:0:
64,192,4125,1,0,0:0:0:0:
192,192,4218,1,0,0:0:0:0:
192,192,4312,1,0,0:0:0:0:
320,192,4406,1,0,0:0:0:0:
448,192,4500,5,0,0:0:0:0:
320,192,4593,1,0,0:0:0:0:
320,192,4687,1,0,0:0:0:0:
320,192,4781,1,0,0:0:0:0:
192,192,4875,1,0,0:0:0:0:
64,192,4968,1,0,0:0:0:0:
448,192,5062,1,0,0:0:0:0:
320,192,5156,1,0,0:0:0:0:
320,192,5250,1,0,0:0:0:0:
320,192,5343,1,0,0:0:0:0:
192,192,5437,1,0,0:0:0:0:
64,192,5531,1,0,0:0:0:0:
448,192,5625,1,0,0:0:0:0:
320,192,5718,1,0,0:0:0:0:
320,192,5812,1,0,0:0:0:0:
192,192,5906,1,0,0:0:0:0:
448,192,6000,5,0,0:0:0:0:
320,192,6093,1,0,0:0:0:0:
320,192,6187,1,0,0:0:0:0:
320,192,6281,1,0,0:0:0:0:
192,192,6375,1,0,0:0:0:0:
64,192,6468,1,0,0:0:0:0:
448,192,6562,1,0,0:0:0:0:
320,192,6656,1,0,0:0:0:0:
320,192,6750,1,0,0:0:0:0:
320,192,6843,1,0,0:0:0:0:
192,192,6937,1,0,0:0:0:0:
64,192,7031,1,0,0:0:0:0:
448,192,7125,1,0,0:0:0:0:
320,192,7218,1,0,0:0:0:0:
320,192,7312,1,0,0:0:0:0:
192,192,7406,1,0,0:0:0:0:
448,192,8250,1,0,0:0:0:0:
192,192,8250,1,0,0:0:0:0:
192,192,9000,1,0,0:0:0:0:
320,192,9000,1,0,0:0:0:0:
192,192,9750,1,0,0:0:0:0:
64,192,9750,1,0,0:0:0:0:
64,192,10500,1,0,0:0:0:0:
448,192,10500,1,0,0:0:0:0:
320,192,13500,1,0,0:0:0:0:
448,192,13593,128,0,14437:0:0:0:0:
320,192,14437,128,0,14812:0:0:0:0:
192,192,14812,128,0,15000:0:0:0:0:
64,192,15000,128,0,15562:0:0:0:0:
192,192,15562,1,0,0:0:0:0:
320,192,15625,128,0,15937:0:0:0:0:
64,192,15937,1,0,0:0:0:0:
64,192,16125,1,0,0:0:0:0:
192,192,16312,1,0,0:0:0:0:
192,192,16500,1,0,0:0:0:0:
320,192,16593,128,0,17250:0:0:0:0:
448,192,17250,1,0,0:0:0:0:
192,192,17312,128,0,19125:0:0:0:0:
64,192,19125,128,0,19500:0:0:0:0:
192,192,19500,1,0,0:0:0:0:
320,192,19500,128,0,20437:0:0:0:0:
192,192,20437,1,0,0:0:0:0:
64,192,20625,1,0,0:0:0:0:
192,192,20812,1,0,0:0:0:0:
192,192,21000,1,0,0:0:0:0:
320,192,21093,128,0,21562:0:0:0:0:
448,192,21562,1,0,0:0:0:0:
192,192,21625,128,0,22125:0:0:0:0:
64,192,22125,128,0,22500:0:0:0:0:
192,192,22500,1,0,0:0:0:0:
320,192,22562,1,0,0:0:0:0:
448,192,22625,128,0,23437:0:0:0:0:
320,192,23437,128,0,23812:0:0:0:0:
192,192,23812,1,0,0:0:0:0:
64,192,24000,1,0,0:0:0:0:
192,192,24125,1,0,0:0:0:0:
320,192,24250,128,0,25125:0:0:0:0:
448,192,25125,128,0,25406:0:0:0:0:
448,192,25500,1,0,0:0:0:0:
320,192,26062,1,0,0:0:0:0:
192,192,26625,1,0,0:0:0:0:
64,192,27937,1,0,0:0:0:0:
320,192,28500,1,0,0:0:0:0:
448,192,28687,1,0,0:0:0:0:
320,192,29062,1,0,0:0:0:0:
192,192,29437,1,0,0:0:0:0:
320,192,29531,1,0,0:0:0:0:
64,192,29625,1,0,0:0:0:0:
192,192,31500,128,0,31687:0:0:0:0:
448,192,31500,128,0,31687:0:0:0:0:
320,192,32062,128,0,32250:0:0:0:0:
192,192,32062,128,0,32250:0:0:0:0:
320,192,32625,128,0,32812:0:0:0:0:
64,192,32625,128,0,32812:0:0:0:0:
64,192,33937,128,0,34125:0:0:0:0:
192,192,33937,128,0,34125:0:0:0:0:
192,192,34500,1,0,0:0:0:0:
448,192,34500,1,0,0:0:0:0:
320,192,34687,128,0,34875:0:0:0:0:
448,192,34687,128,0,34875:0:0:0:0:
320,192,35062,128,0,35250:0:0:0:0:
192,192,35062,128,0,35250:0:0:0:0:
192,192,35625,128,0,35812:0:0:0:0:
64,192,35625,128,0,35812:0:0:0:0:
192,192,36750,1,0,0:0:0:0:
320,192,36843,1,0,0:0:0:0:
448,192,36937,1,0,0:0:0:0:
448,192,37031,1,0,0:0:0:0:
64,192,37125,1,0,0:0:0:0:
192,192,37218,1,0,0:0:0:0:
320,192,37312,1,0,0:0:0:0:
448,192,37406,1,0,0:0:0:0:
448,192,37500,1,0,0:0:0:0:
320,192,38062,1,0,0:0:0:0:
192,192,38437,1,0,0:0:0:0:
64,192,38812,1,0,0:0:0:0:
448,192,39187,1,0,0:0:0:0:
320,192,39375,1,0,0:0:0:0:
192,192,39562,1,0,0:0:0:0:
64,192,40125,1,0,0:0:0:0:
64,192,40500,1,0,0:0:0:0:
192,192,40687,1,0,0:0:0:0:
320,192,41062,1,0,0:0:0:0:
192,192,41437,1,0,0:0:0:0:
320,192,41625,1,0,0:0:0:0:
64,192,42000,1,0,0:0:0:0:
192,192,42187,1,0,0:0:0:0:
320,192,42375,1,0,0:0:0:0:
448,192,42562,1,0,0:0:0:0:
64,192,43125,1,0,0:0:0:0:
192,192,43218,1,0,0:0:0:0:
320,192,43312,1,0,0:0:0:0:
448,192,43406,1,0,0:0:0:0:
448,192,43500,1,0,0:0:0:0:
192,192,44062,1,0,0:0:0:0:
448,192,44625,1,0,0:0:0:0:
320,192,45000,1,0,0:0:0:0:
192,192,45562,1,0,0:0:0:0:
320,192,46312,1,0,0:0:0:0:
192,192,46500,1,0,0:0:0:0:
320,192,46687,1,0,0:0:0:0:
192,192,46875,1,0,0:0:0:0:
64,192,47062,1,0,0:0:0:0:
320,192,47812,1,0,0:0:0:0:
192,192,48000,1,0,0:0:0:0:
320,192,48187,1,0,0:0:0:0:
192,192,48375,5,0,0:0:0:0:
64,192,48562,5,0,0:0:0:0:
320,192,49500,5,0,0:0:0:0:
192,192,49500,1,0,0:0:0:0:
64,192,49562,1,0,0:0:0:0:
448,192,49593,1,0,0:0:0:0:
320,192,49593,1,0,0:0:0:0:
192,192,49625,1,0,0:0:0:0:
64,192,49687,1,0,0:0:0:0:
320,192,49750,1,0,0:0:0:0:
192,192,49812,1,0,0:0:0:0:
64,192,49875,1,0,0:0:0:0:
192,192,49937,1,0,0:0:0:0:
320,192,50000,1,0,0:0:0:0:
192,192,50062,1,0,0:0:0:0:
448,192,50062,1,0,0:0:0:0:
64,192,50125,1,0,0:0:0:0:
448,192,50156,1,0,0:0:0:0:
320,192,50156,1,0,0:0:0:0:
192,192,50187,1,0,0:0:0:0:
320,192,50250,1,0,0:0:0:0:
448,192,50312,1,0,0:0:0:0:
192,192,50375,1,0,0:0:0:0:
64,192,50437,1,0,0:0:0:0:
192,192,50500,1,0,0:0:0:0:
64,192,50562,1,0,0:0:0:0:
320,192,50625,1,0,0:0:0:0:
448,192,50625,1,0,0:0:0:0:
64,192,50687,1,0,0:0:0:0:
448,192,50718,1,0,0:0:0:0:
192,192,50718,1,0,0:0:0:0:
320,192,50750,1,0,0:0:0:0:
64,192,50812,1,0,0:0:0:0:
192,192,50875,1,0,0:0:0:0:
64,192,50937,1,0,0:0:0:0:
320,192,51000,5,0,0:0:0:0:
448,192,51000,1,0,0:0:0:0:
64,192,51062,1,0,0:0:0:0:
448,192,51093,1,0,0:0:0:0:
192,192,51093,1,0,0:0:0:0:
320,192,51125,1,0,0:0:0:0:
448,192,51187,1,0,0:0:0:0:
64,192,51250,1,0,0:0:0:0:
192,192,51312,1,0,0:0:0:0:
320,192,51375,1,0,0:0:0:0:
64,192,51437,1,0,0:0:0:0:
448,192,51500,1,0,0:0:0:0:
320,192,51562,1,0,0:0:0:0:
192,192,51562,1,0,0:0:0:0:
64,192,51625,1,0,0:0:0:0:
448,192,51656,1,0,0:0:0:0:
320,192,51656,1,0,0:0:0:0:
192,192,51687,1,0,0:0:0:0:
320,192,51750,1,0,0:0:0:0:
192,192,51812,1,0,0:0:0:0:
320,192,51875,1,0,0:0:0:0:
448,192,51937,1,0,0:0:0:0:
192,192,52000,1,0,0:0:0:0:
64,192,52062,1,0,0:0:0:0:
320,192,52125,1,0,0:0:0:0:
448,192,52125,1,0,0:0:0:0:
64,192,52187,1,0,0:0:0:0:
448,192,52218,1,0,0:0:0:0:
192,192,52218,1,0,0:0:0:0:
320,192,52250,1,0,0:0:0:0:
64,192,52312,1,0,0:0:0:0:
448,192,52375,1,0,0:0:0:0:
64,192,52437,1,0,0:0:0:0:
320,192,52500,5,0,0:0:0:0:
192,192,52500,1,0,0:0:0:0:
64,192,52562,1,0,0:0:0:0:
448,192,52593,1,0,0:0:0:0:
192,192,52593,1,0,0:0:0:0:
320,192,52625,1,0,0:0:0:0:
64,192,52687,1,0,0:0:0:0:
448,192,52750,1,0,0:0:0:0:
320,192,52812,1,0,0:0:0:0:
192,192,52875,1,0,0:0:0:0:
64,192,52937,1,0,0:0:0:0:
192,192,53000,1,0,0:0:0:0:
320,192,53062,1,0,0:0:0:0:
448,192,53062,1,0,0:0:0:0:
64,192,53125,1,0,0:0:0:0:
448,192,53156,1,0,0:0:0:0:
192,192,53156,1,0,0:0:0:0:
320,192,53187,1,0,0:0:0:0:
192,192,53250,1,0,0:0:0:0:
64,192,53312,1,0,0:0:0:0:
320,192,53375,1,0,0:0:0:0:
448,192,53437,1,0,0:0:0:0:
192,192,53500,1,0,0:0:0:0:
64,192,53562,1,0,0:0:0:0:
192,192,53625,1,0,0:0:0:0:
448,192,53625,1,0,0:0:0:0:
64,192,53687,1,0,0:0:0:0:
448,192,53718,1,0,0:0:0:0:
320,192,53718,1,0,0:0:0:0:
192,192,53750,1,0,0:0:0:0:
320,192,53812,1,0,0:0:0:0:
448,192,53875,1,0,0:0:0:0:
64,192,53937,1,0,0:0:0:0:
320,192,54000,5,0,0:0:0:0:
192,192,54000,1,0,0:0:0:0:
64,192,54062,1,0,0:0:0:0:
448,192,54093,1,0,0:0:0:0:
320,192,54093,1,0,0:0:0:0:
192,192,54125,1,0,0:0:0:0:
320,192,54187,1,0,0:0:0:0:
192,192,54250,1,0,0:0:0:0:
64,192,54312,1,0,0:0:0:0:
320,192,54375,1,0,0:0:0:0:
192,192,54437,1,0,0:0:0:0:
64,192,54500,1,0,0:0:0:0:
320,192,54562,1,0,0:0:0:0:
192,192,54562,1,0,0:0:0:0:
448,192,54625,1,0,0:0:0:0:
320,192,54656,1,0,0:0:0:0:
64,192,54656,1,0,0:0:0:0:
192,192,54687,1,0,0:0:0:0:
448,192,54750,1,0,0:0:0:0:
320,192,54750,1,0,0:0:0:0:
64,192,54812,1,0,0:0:0:0:
320,192,54875,1,0,0:0:0:0:
192,192,54937,1,0,0:0:0:0:
64,192,54937,1,0,0:0:0:0:
448,192,55000,1,0,0:0:0:0:
64,192,55062,1,0,0:0:0:0:
192,192,55125,1,0,0:0:0:0:
320,192,55125,1,0,0:0:0:0:
64,192,55187,1,0,0:0:0:0:
320,192,55250,1,0,0:0:0:0:
192,192,55312,1,0,0:0:0:0:
64,192,55312,1,0,0:0:0:0:
320,192,55375,1,0,0:0:0:0:
192,192,55437,1,0,0:0:0:0:
64,192,55500,1,0,0:0:0:0:
448,192,55500,1,0,0:0:0:0:
192,192,55562,1,0,0:0:0:0:
320,192,55593,1,0,0:0:0:0:
448,192,55593,1,0,0:0:0:0:
64,192,55625,1,0,0:0:0:0:
192,192,55687,1,0,0:0:0:0:
320,192,55750,1,0,0:0:0:0:
448,192,55812,1,0,0:0:0:0:
320,192,55875,1,0,0:0:0:0:
192,192,55937,1,0,0:0:0:0:
64,192,56000,1,0,0:0:0:0:
192,192,56062,1,0,0:0:0:0:
448,192,56062,1,0,0:0:0:0:
64,192,56125,1,0,0:0:0:0:
192,192,56156,1,0,0:0:0:0:
320,192,56156,1,0,0:0:0:0:
448,192,56187,1,0,0:0:0:0:
64,192,56250,1,0,0:0:0:0:
320,192,56312,1,0,0:0:0:0:
192,192,56375,1,0,0:0:0:0:
64,192,56437,1,0,0:0:0:0:
320,192,56500,1,0,0:0:0:0:
64,192,56562,1,0,0:0:0:0:
192,192,56625,1,0,0:0:0:0:
320,192,56625,1,0,0:0:0:0:
64,192,56687,1,0,0:0:0:0:
320,192,56718,1,0,0:0:0:0:
448,192,56718,1,0,0:0:0:0:
192,192,56750,1,0,0:0:0:0:
320,192,56812,1,0,0:0:0:0:
192,192,56875,1,0,0:0:0:0:
64,192,56937,1,0,0:0:0:0:
448,192,57000,1,0,0:0:0:0:
192,192,57000,1,0,0:0:0:0:
64,192,57062,1,0,0:0:0:0:
192,192,57093,1,0,0:0:0:0:
320,192,57093,1,0,0:0:0:0:
448,192,57125,1,0,0:0:0:0:
320,192,57187,1,0,0:0:0:0:
192,192,57250,1,0,0:0:0:0:
320,192,57312,1,0,0:0:0:0:
192,192,57375,1,0,0:0:0:0:
64,192,57437,1,0,0:0:0:0:
448,192,57500,1,0,0:0:0:0:
192,192,57562,1,0,0:0:0:0:
320,192,57562,1,0,0:0:0:0:
64,192,57625,1,0,0:0:0:0:
448,192,57656,1,0,0:0:0:0:
320,192,57656,1,0,0:0:0:0:
192,192,57687,1,0,0:0:0:0:
64,192,57750,1,0,0:0:0:0:
320,192,57812,1,0,0:0:0:0:
192,192,57875,1,0,0:0:0:0:
320,192,57937,1,0,0:0:0:0:
448,192,58000,1,0,0:0:0:0:
320,192,58062,1,0,0:0:0:0:
192,192,58125,1,0,0:0:0:0:
448,192,58125,1,0,0:0:0:0:
64,192,58187,1,0,0:0:0:0:
320,192,58218,1,0,0:0:0:0:
192,192,58218,1,0,0:0:0:0:
448,192,58250,1,0,0:0:0:0:
64,192,58312,1,0,0:0:0:0:
192,192,58375,1,0,0:0:0:0:
64,192,58437,1,0,0:0:0:0:
448,192,58500,1,0,0:0:0:0:
320,192,58500,1,0,0:0:0:0:
192,192,58500,1,0,0:0:0:0:
64,192,58562,1,0,0:0:0:0:
320,192,58593,1,0,0:0:0:0:
448,192,58593,1,0,0:0:0:0:
192,192,58625,1,0,0:0:0:0:
320,192,58687,1,0,0:0:0:0:
448,192,58750,1,0,0:0:0:0:
320,192,58812,1,0,0:0:0:0:
192,192,58875,1,0,0:0:0:0:
64,192,58937,1,0,0:0:0:0:
320,192,59000,1,0,0:0:0:0:
448,192,59062,1,0,0:0:0:0:
64,192,59062,1,0,0:0:0:0:
192,192,59062,1,0,0:0:0:0:
320,192,59125,1,0,0:0:0:0:
192,192,59156,1,0,0:0:0:0:
448,192,59156,1,0,0:0:0:0:
64,192,59187,1,0,0:0:0:0:
320,192,59250,1,0,0:0:0:0:
192,192,59312,1,0,0:0:0:0:
64,192,59375,1,0,0:0:0:0:
192,192,59437,1,0,0:0:0:0:
320,192,59500,1,0,0:0:0:0:
448,192,59562,1,0,0:0:0:0:
320,192,59625,1,0,0:0:0:0:
192,192,59625,1,0,0:0:0:0:
64,192,59625,1,0,0:0:0:0:
448,192,59687,1,0,0:0:0:0:
64,192,59718,1,0,0:0:0:0:
192,192,59718,1,0,0:0:0:0:
320,192,59750,1,0,0:0:0:0:
192,192,59812,1,0,0:0:0:0:
64,192,59875,1,0,0:0:0:0:
448,192,59937,1,0,0:0:0:0:
320,192,60000,1,0,0:0:0:0:
192,192,60000,1,0,0:0:0:0:
64,192,60062,1,0,0:0:0:0:
320,192,60093,1,0,0:0:0:0:
448,192,60093,1,0,0:0:0:0:
192,192,60125,1,0,0:0:0:0:
64,192,60187,1,0,0:0:0:0:
448,192,60250,1,0,0:0:0:0:
192,192,60281,1,0,0:0:0:0:
320,192,60281,1,0,0:0:0:0:
320,192,60375,1,0,0:0:0:0:
448,192,60375,1,0,0:0:0:0:
448,192,60468,1,0,0:0:0:0:
192,192,60468,1,0,0:0:0:0:
192,192,60562,1,0,0:0:0:0:
64,192,60562,1,0,0:0:0:0:
64,192,60656,1,0,0:0:0:0:
320,192,60656,1,0,0:0:0:0:
192,192,60750,1,0,0:0:0:0:
448,192,60750,1,0,0:0:0:0:
192,192,60843,1,0,0:0:0:0:
64,192,60843,1,0,0:0:0:0:
192,192,60937,1,0,0:0:0:0:
320,192,60937,1,0,0:0:0:0:
64,192,61000,1,0,0:0:0:0:
192,192,61062,1,0,0:0:0:0:
448,192,61125,1,0,0:0:0:0:
320,192,61125,1,0,0:0:0:0:
64,192,61218,1,0,0:0:0:0:
320,192,61218,1,0,0:0:0:0:
192,192,61312,1,0,0:0:0:0:
320,192,61312,1,0,0:0:0:0:
192,192,61406,1,0,0:0:0:0:
64,192,61406,1,0,0:0:0:0:
192,192,61500,1,0,0:0:0:0:
320,192,61500,1,0,0:0:0:0:
64,192,61562,1,0,0:0:0:0:
320,192,61625,1,0,0:0:0:0:
448,192,61625,1,0,0:0:0:0:
192,192,61687,1,0,0:0:0:0:
64,192,61750,1,0,0:0:0:0:
192,192,61812,1,0,0:0:0:0:
64,192,61875,1,0,0:0:0:0:
448,192,61937,1,0,0:0:0:0:
192,192,62000,1,0,0:0:0:0:
320,192,62062,1,0,0:0:0:0:
64,192,62062,1,0,0:0:0:0:
448,192,62125,1,0,0:0:0:0:
320,192,62187,1,0,0:0:0:0:
192,192,62187,1,0,0:0:0:0:
64,192,62250,1,0,0:0:0:0:
192,192,62312,1,0,0:0:0:0:
320,192,62375,1,0,0:0:0:0:
448,192,62437,1,0,0:0:0:0:
320,192,62500,1,0,0:0:0:0:
192,192,62562,1,0,0:0:0:0:
320,192,62625,1,0,0:0:0:0:
448,192,62625,1,0,0:0:0:0:
64,192,62687,1,0,0:0:0:0:
192,192,62750,1,0,0:0:0:0:
448,192,62750,1,0,0:0:0:0:
64,192,62812,1,0,0:0:0:0:
192,192,62875,1,0,0:0:0:0:
64,192,62937,1,0,0:0:0:0:
192,192,63000,1,0,0:0:0:0:
320,192,63000,1,0,0:0:0:0:
64,192,63062,1,0,0:0:0:0:
448,192,63125,1,0,0:0:0:0:
192,192,63125,1,0,0:0:0:0:
320,192,63187,1,0,0:0:0:0:
192,192,63250,1,0,0:0:0:0:
320,192,63312,1,0,0:0:0:0:
448,192,63375,1,0,0:0:0:0:
320,192,63437,1,0,0:0:0:0:
192,192,63500,1,0,0:0:0:0:
64,192,63562,1,0,0:0:0:0:
320,192,63562,1,0,0:0:0:0:
192,192,63625,1,0,0:0:0:0:
320,192,63687,1,0,0:0:0:0:
448,192,63687,1,0,0:0:0:0:
192,192,63750,1,0,0:0:0:0:
64,192,63812,1,0,0:0:0:0:
192,192,63875,1,0,0:0:0:0:
320,192,63937,1,0,0:0:0:0:
192,192,64000,1,0,0:0:0:0:
64,192,64062,1,0,0:0:0:0:
192,192,64125,1,0,0:0:0:0:
320,192,64125,1,0,0:0:0:0:
64,192,64187,1,0,0:0:0:0:
320,192,64250,1,0,0:0:0:0:
448,192,64250,1,0,0:0:0:0:
192,192,64312,1,0,0:0:0:0:
320,192,64375,1,0,0:0:0:0:
192,192,64437,1,0,0:0:0:0:
64,192,64500,1,0,0:0:0:0:
320,192,64500,1,0,0:0:0:0:
192,192,64562,1,0,0:0:0:0:
320,192,64625,1,0,0:0:0:0:
448,192,64625,1,0,0:0:0:0:
192,192,64687,1,0,0:0:0:0:
64,192,64750,1,0,0:0:0:0:
320,192,64812,1,0,0:0:0:0:
192,192,64875,1,0,0:0:0:0:
64,192,64937,1,0,0:0:0:0:
192,192,65000,1,0,0:0:0:0:
320,192,65062,1,0,0:0:0:0:
64,192,65062,1,0,0:0:0:0:
192,192,65125,1,0,0:0:0:0:
320,192,65187,1,0,0:0:0:0:
448,192,65187,1,0,0:0:0:0:
192,192,65250,1,0,0:0:0:0:
320,192,65312,1,0,0:0:0:0:
448,192,65375,1,0,0:0:0:0:
320,192,65437,1,0,0:0:0:0:
192,192,65500,1,0,0:0:0:0:
64,192,65562,1,0,0:0:0:0:
448,192,65625,1,0,0:0:0:0:
192,192,65625,1,0,0:0:0:0:
64,192,65687,1,0,0:0:0:0:
192,192,65750,1,0,0:0:0:0:
320,192,65750,1,0,0:0:0:0:
64,192,65812,1,0,0:0:0:0:
448,192,65875,1,0,0:0:0:0:
192,192,65937,1,0,0:0:0:0:
448,192,66000,1,0,0:0:0:0:
64,192,66000,1,0,0:0:0:0:
192,192,66062,1,0,0:0:0:0:
320,192,66125,1,0,0:0:0:0:
64,192,66187,1,0,0:0:0:0:
192,192,66187,1,0,0:0:0:0:
320,192,66250,1,0,0:0:0:0:
64,192,66312,1,0,0:0:0:0:
192,192,66375,1,0,0:0:0:0:
320,192,66375,1,0,0:0:0:0:
448,192,66437,1,0,0:0:0:0:
320,192,66500,1,0,0:0:0:0:
448,192,66562,1,0,0:0:0:0:
192,192,66562,1,0,0:0:0:0:
64,192,66625,1,0,0:0:0:0:
192,192,66687,1,0,0:0:0:0:
320,192,66750,1,0,0:0:0:0:
448,192,66750,1,0,0:0:0:0:
64,192,66750,1,0,0:0:0:0:
192,192,66812,1,0,0:0:0:0:
320,192,66875,1,0,0:0:0:0:
448,192,66937,1,0,0:0:0:0:
64,192,66937,1,0,0:0:0:0:
192,192,67000,1,0,0:0:0:0:
320,192,67062,1,0,0:0:0:0:
192,192,67125,1,0,0:0:0:0:
448,192,67125,1,0,0:0:0:0:
320,192,67187,1,0,0:0:0:0:
192,192,67250,1,0,0:0:0:0:
320,192,67312,1,0,0:0:0:0:
448,192,67312,1,0,0:0:0:0:
64,192,67375,1,0,0:0:0:0:
192,192,67437,1,0,0:0:0:0:
448,192,67500,1,0,0:0:0:0:
320,192,67531,1,0,0:0:0:0:
192,192,67562,1,0,0:0:0:0:
64,192,67593,1,0,0:0:0:0:
448,192,67625,1,0,0:0:0:0:
320,192,67656,1,0,0:0:0:0:
192,192,67687,1,0,0:0:0:0:
64,192,67710,1,0,0:0:0:0:
448,192,67781,1,0,0:0:0:0:
192,192,67804,1,0,0:0:0:0:
320,192,67875,1,0,0:0:0:0:
192,192,67898,1,0,0:0:0:0:
320,192,67968,1,0,0:0:0:0:
64,192,67992,1,0,0:0:0:0:
448,192,68062,1,0,0:0:0:0:
64,192,68093,1,0,0:0:0:0:
192,192,68125,1,0,0:0:0:0:
320,192,68156,1,0,0:0:0:0:
448,192,68187,1,0,0:0:0:0:
192,192,68218,1,0,0:0:0:0:
320,192,68250,1,0,0:0:0:0:
64,192,68273,1,0,0:0:0:0:
448,192,68343,1,0,0:0:0:0:
64,192,68367,1,0,0:0:0:0:
448,192,68437,1,0,0:0:0:0:
320,192,68460,1,0,0:0:0:0:
320,192,68531,1,0,0:0:0:0:
192,192,68554,1,0,0:0:0:0:
448,192,68625,1,0,0:0:0:0:
64,192,68656,1,0,0:0:0:0:
192,192,68687,1,0,0:0:0:0:
320,192,68718,1,0,0:0:0:0:
448,192,68750,1,0,0:0:0:0:
64,192,68781,1,0,0:0:0:0:
320,192,68812,1,0,0:0:0:0:
192,192,68835,1,0,0:0:0:0:
448,192,68906,1,0,0:0:0:0:
320,192,68929,1,0,0:0:0:0:
448,192,69000,1,0,0:0:0:0:
320,192,69031,1,0,0:0:0:0:
192,192,69062,1,0,0:0:0:0:
64,192,69093,1,0,0:0:0:0:
320,192,69125,1,0,0:0:0:0:
192,192,69156,1,0,0:0:0:0:
64,192,69187,1,0,0:0:0:0:
448,192,69210,1,0,0:0:0:0:
192,192,69281,1,0,0:0:0:0:
320,192,69304,1,0,0:0:0:0:
64,192,69375,1,0,0:0:0:0:
192,192,69398,1,0,0:0:0:0:
320,192,69468,1,0,0:0:0:0:
448,192,69492,1,0,0:0:0:0:
448,192,69562,1,0,0:0:0:0:
320,192,69593,1,0,0:0:0:0:
192,192,69625,1,0,0:0:0:0:
64,192,69656,1,0,0:0:0:0:
448,192,69687,1,0,0:0:0:0:
320,192,69718,1,0,0:0:0:0:
192,192,69750,1,0,0:0:0:0:
64,192,69773,1,0,0:0:0:0:
192,192,69843,1,0,0:0:0:0:
448,192,69867,1,0,0:0:0:0:
320,192,69937,1,0,0:0:0:0:
448,192,69960,1,0,0:0:0:0:
192,192,70031,1,0,0:0:0:0:
320,192,70054,1,0,0:0:0:0:
64,192,70125,1,0,0:0:0:0:
192,192,70156,1,0,0:0:0:0:
320,192,70187,1,0,0:0:0:0:
64,192,70218,1,0,0:0:0:0:
192,192,70250,1,0,0:0:0:0:
320,192,70281,1,0,0:0:0:0:
448,192,70312,1,0,0:0:0:0:
192,192,70335,1,0,0:0:0:0:
320,192,70406,1,0,0:0:0:0:
64,192,70429,1,0,0:0:0:0:
448,192,70500,1,0,0:0:0:0:
192,192,70531,1,0,0:0:0:0:
320,192,70562,1,0,0:0:0:0:
448,192,70593,1,0,0:0:0:0:
64,192,70625,1,0,0:0:0:0:
192,192,70656,1,0,0:0:0:0:
320,192,70687,1,0,0:0:0:0:
448,192,70710,1,0,0:0:0:0:
192,192,70781,1,0,0:0:0:0:
448,192,70804,1,0,0:0:0:0:
192,192,70875,1,0,0:0:0:0:
64,192,70898,1,0,0:0:0:0:
320,192,70968,1,0,0:0:0:0:
64,192,70992,1,0,0:0:0:0:
448,192,71062,1,0,0:0:0:0:
320,192,71093,1,0,0:0:0:0:
192,192,71125,1,0,0:0:0:0:
448,192,71156,1,0,0:0:0:0:
320,192,71187,1,0,0:0:0:0:
64,192,71218,1,0,0:0:0:0:
192,192,71250,1,0,0:0:0:0:
448,192,71273,1,0,0:0:0:0:
64,192,71343,1,0,0:0:0:0:
448,192,71367,1,0,0:0:0:0:
64,192,71437,1,0,0:0:0:0:
320,192,71460,1,0,0:0:0:0:
192,192,71531,1,0,0:0:0:0:
320,192,71554,1,0,0:0:0:0:
448,192,71625,1,0,0:0:0:0:
64,192,71625,1,0,0:0:0:0:
192,192,71687,1,0,0:0:0:0:
320,192,71750,1,0,0:0:0:0:
64,192,71812,1,0,0:0:0:0:
192,192,71812,1,0,0:0:0:0:
320,192,71875,1,0,0:0:0:0:
448,192,71937,1,0,0:0:0:0:
320,192,72000,1,0,0:0:0:0:
64,192,72000,1,0,0:0:0:0:
192,192,72062,1,0,0:0:0:0:
64,192,72125,1,0,0:0:0:0:
192,192,72187,1,0,0:0:0:0:
320,192,72187,1,0,0:0:0:0:
448,192,72250,1,0,0:0:0:0:
192,192,72312,1,0,0:0:0:0:
320,192,72375,1,0,0:0:0:0:
448,192,72375,1,0,0:0:0:0:
192,192,72437,1,0,0:0:0:0:
64,192,72500,1,0,0:0:0:0:
320,192,72562,1,0,0:0:0:0:
192,192,72562,1,0,0:0:0:0:
448,192,72625,1,0,0:0:0:0:
320,192,72687,1,0,0:0:0:0:
192,192,72750,1,0,0:0:0:0:
448,192,72750,1,0,0:0:0:0:
320,192,72812,1,0,0:0:0:0:
192,192,72875,1,0,0:0:0:0:
64,192,72937,1,0,0:0:0:0:
320,192,72937,1,0,0:0:0:0:
192,192,73000,1,0,0:0:0:0:
320,192,73062,1,0,0:0:0:0:
448,192,73125,1,0,0:0:0:0:
64,192,73125,1,0,0:0:0:0:
192,192,73187,1,0,0:0:0:0:
64,192,73250,1,0,0:0:0:0:
320,192,73312,1,0,0:0:0:0:
448,192,73312,1,0,0:0:0:0:
192,192,73375,1,0,0:0:0:0:
448,192,73437,1,0,0:0:0:0:
192,192,73500,1,0,0:0:0:0:
320,192,73687,1,0,0:0:0:0:
64,192,73875,1,0,0:0:0:0:
448,192,74062,128,0,74343:0:0:0:0:
448,192,74437,1,0,0:0:0:0:
320,192,74484,1,0,0:0:0:0:
192,192,74531,1,0,0:0:0:0:
64,192,74578,1,0,0:0:0:0:
192,192,74625,1,0,0:0:0:0:
320,192,74812,1,0,0:0:0:0:
64,192,75000,1,0,0:0:0:0:
320,192,75187,128,0,75562:0:0:0:0:
448,192,75562,1,0,0:0:0:0:
320,192,75609,1,0,0:0:0:0:
192,192,75656,1,0,0:0:0:0:
320,192,75703,1,0,0:0:0:0:
448,192,75750,1,0,0:0:0:0:
320,192,75937,1,0,0:0:0:0:
192,192,76125,1,0,0:0:0:0:
64,192,76312,1,0,0:0:0:0:
64,192,76500,1,0,0:0:0:0:
320,192,76687,1,0,0:0:0:0:
64,192,76875,1,0,0:0:0:0:
448,192,77062,128,0,77343:0:0:0:0:
448,192,77437,1,0,0:0:0:0:
320,192,77484,1,0,0:0:0:0:
192,192,77531,1,0,0:0:0:0:
64,192,77578,1,0,0:0:0:0:
192,192,77625,1,0,0:0:0:0:
320,192,77812,1,0,0:0:0:0:
64,192,78000,1,0,0:0:0:0:
448,192,78187,128,0,78562:0:0:0:0:
320,192,78562,1,0,0:0:0:0:
192,192,78609,1,0,0:0:0:0:
64,192,78656,1,0,0:0:0:0:
192,192,78703,1,0,0:0:0:0:
320,192,78750,1,0,0:0:0:0:
448,192,78750,1,0,0:0:0:0:
448,192,78843,1,0,0:0:0:0:
192,192,78843,1,0,0:0:0:0:
192,192,78937,1,0,0:0:0:0:
320,192,78937,1,0,0:0:0:0:
320,192,79031,1,0,0:0:0:0:
64,192,79031,1,0,0:0:0:0:
192,192,79125,1,0,0:0:0:0:
64,192,79125,1,0,0:0:0:0:
192,192,79218,1,0,0:0:0:0:
448,192,79218,1,0,0:0:0:0:
448,192,79312,1,0,0:0:0:0:
64,192,79312,1,0,0:0:0:0:
192,192,79406,1,0,0:0:0:0:
448,192,79406,1,0,0:0:0:0:
320,192,79500,1,0,0:0:0:0:
192,192,79687,1,0,0:0:0:0:
64,192,79875,1,0,0:0:0:0:
192,192,80062,128,0,80437:0:0:0:0:
320,192,80437,1,0,0:0:0:0:
192,192,80500,1,0,0:0:0:0:
64,192,80562,1,0,0:0:0:0:
320,192,80625,1,0,0:0:0:0:
448,192,80812,1,0,0:0:0:0:
64,192,81000,1,0,0:0:0:0:
320,192,81187,128,0,81562:0:0:0:0:
448,192,81562,1,0,0:0:0:0:
320,192,81625,1,0,0:0:0:0:
192,192,81687,1,0,0:0:0:0:
320,192,81750,1,0,0:0:0:0:
448,192,81937,1,0,0:0:0:0:
320,192,82125,1,0,0:0:0:0:
64,192,82125,1,0,0:0:0:0:
192,192,82218,1,0,0:0:0:0:
64,192,82218,1,0,0:0:0:0:
192,192,82312,1,0,0:0:0:0:
320,192,82312,1,0,0:0:0:0:
192,192,82406,1,0,0:0:0:0:
64,192,82406,1,0,0:0:0:0:
320,192,82500,1,0,0:0:0:0:
192,192,82687,1,0,0:0:0:0:
64,192,82875,1,0,0:0:0:0:
320,192,83062,128,0,83437:0:0:0:0:
448,192,83437,1,0,0:0:0:0:
320,192,83500,1,0,0:0:0:0:
192,192,83562,1,0,0:0:0:0:
448,192,83625,1,0,0:0:0:0:
320,192,83812,1,0,0:0:0:0:
64,192,84000,1,0,0:0:0:0:
320,192,84187,128,0,84562:0:0:0:0:
192,192,84562,1,0,0:0:0:0:
64,192,84625,1,0,0:0:0:0:
192,192,84687,1,0,0:0:0:0:
448,192,84750,1,0,0:0:0:0:
192,192,84937,1,0,0:0:0:0:
320,192,85125,1,0,0:0:0:0:
448,192,85125,1,0,0:0:0:0:
320,192,85218,1,0,0:0:0:0:
192,192,85218,1,0,0:0:0:0:
192,192,85312,1,0,0:0:0:0:
64,192,85312,1,0,0:0:0:0:
64,192,85406,1,0,0:0:0:0:
320,192,85406,1,0,0:0:0:0:
320,192,85500,1,0,0:0:0:0:
448,192,85593,128,0,86062:0:0:0:0:
320,192,86062,128,0,86625:0:0:0:0:
64,192,86625,128,0,88500:0:0:0:0:
320,192,88500,1,0,0:0:0:0:
448,192,88593,128,0,89062:0:0:0:0:
320,192,89062,128,0,89625:0:0:0:0:
192,192,89625,128,0,91500:0:0:0:0:
320,192,91500,1,0,0:0:0:0:
448,192,91593,128,0,92062:0:0:0:0:
320,192,92062,128,0,92625:0:0:0:0:
448,192,92625,1,0,0:0:0:0:
192,192,92718,128,0,93937:0:0:0:0:
64,192,93937,128,0,94500:0:0:0:0:
320,192,94500,1,0,0:0:0:0:
448,192,94687,128,0,95062:0:0:0:0:
192,192,95062,1,0,0:0:0:0:
320,192,95187,128,0,95625:0:0:0:0:
448,192,95625,1,0,0:0:0:0:
64,192,95687,128,0,97500:0:0:0:0:
192,192,97500,1,0,0:0:0:0:
64,192,97546,1,0,0:0:0:0:
320,192,97593,1,0,0:0:0:0:
64,192,97640,1,0,0:0:0:0:
320,192,97687,1,0,0:0:0:0:
192,192,97734,1,0,0:0:0:0:
448,192,97781,1,0,0:0:0:0:
320,192,97828,1,0,0:0:0:0:
192,192,97875,1,0,0:0:0:0:
64,192,97921,1,0,0:0:0:0:
448,192,97968,1,0,0:0:0:0:
192,192,98015,1,0,0:0:0:0:
320,192,98062,1,0,0:0:0:0:
448,192,98109,1,0,0:0:0:0:
192,192,98156,1,0,0:0:0:0:
448,192,98203,1,0,0:0:0:0:
192,192,98250,1,0,0:0:0:0:
320,192,98296,1,0,0:0:0:0:
64,192,98343,1,0,0:0:0:0:
192,192,98390,1,0,0:0:0:0:
320,192,98437,1,0,0:0:0:0:
448,192,98484,1,0,0:0:0:0:
64,192,98531,1,0,0:0:0:0:
320,192,98578,1,0,0:0:0:0:
192,192,98625,1,0,0:0:0:0:
64,192,98671,1,0,0:0:0:0:
320,192,98718,1,0,0:0:0:0:
64,192,98765,1,0,0:0:0:0:
320,192,98812,1,0,0:0:0:0:
192,192,98859,1,0,0:0:0:0:
448,192,98906,1,0,0:0:0:0:
320,192,98953,1,0,0:0:0:0:
192,192,99000,1,0,0:0:0:0:
64,192,99046,1,0,0:0:0:0:
448,192,99093,1,0,0:0:0:0:
192,192,99140,1,0,0:0:0:0:
320,192,99187,1,0,0:0:0:0:
448,192,99234,1,0,0:0:0:0:
192,192,99281,1,0,0:0:0:0:
448,192,99328,1,0,0:0:0:0:
192,192,99375,1,0,0:0:0:0:
320,192,99421,1,0,0:0:0:0:
64,192,99468,1,0,0:0:0:0:
192,192,99515,1,0,0:0:0:0:
320,192,99562,1,0,0:0:0:0:
448,192,99609,1,0,0:0:0:0:
64,192,99656,1,0,0:0:0:0:
320,192,99703,1,0,0:0:0:0:
192,192,99750,1,0,0:0:0:0:
64,192,99796,1,0,0:0:0:0:
320,192,99843,1,0,0:0:0:0:
64,192,99890,1,0,0:0:0:0:
320,192,99937,1,0,0:0:0:0:
192,192,99984,1,0,0:0:0:0:
448,192,100031,1,0,0:0:0:0:
320,192,100078,1,0,0:0:0:0:
192,192,100125,1,0,0:0:0:0:
64,192,100171,1,0,0:0:0:0:
448,192,100218,1,0,0:0:0:0:
192,192,100265,1,0,0:0:0:0:
320,192,100312,1,0,0:0:0:0:
448,192,100359,1,0,0:0:0:0:
320,192,100406,1,0,0:0:0:0:
64,192,100453,1,0,0:0:0:0:
448,192,100500,1,0,0:0:0:0:
320,192,100546,1,0,0:0:0:0:
192,192,100593,1,0,0:0:0:0:
64,192,100640,1,0,0:0:0:0:
320,192,100687,1,0,0:0:0:0:
192,192,100734,1,0,0:0:0:0:
64,192,100781,1,0,0:0:0:0:
192,192,100828,1,0,0:0:0:0:
320,192,100875,1,0,0:0:0:0:
192,192,100921,1,0,0:0:0:0:
320,192,100968,1,0,0:0:0:0:
448,192,101015,1,0,0:0:0:0:
320,192,101062,1,0,0:0:0:0:
192,192,101109,1,0,0:0:0:0:
320,192,101156,1,0,0:0:0:0:
192,192,101203,1,0,0:0:0:0:
64,192,101250,1,0,0:0:0:0:
448,192,101250,1,0,0:0:0:0:
320,192,101296,1,0,0:0:0:0:
192,192,101343,1,0,0:0:0:0:
64,192,101390,1,0,0:0:0:0:
320,192,101437,1,0,0:0:0:0:
192,192,101484,1,0,0:0:0:0:
64,192,101531,1,0,0:0:0:0:
192,192,101578,1,0,0:0:0:0:
320,192,101625,1,0,0:0:0:0:
192,192,101671,1,0,0:0:0:0:
320,192,101718,1,0,0:0:0:0:
448,192,101765,1,0,0:0:0:0:
320,192,101812,1,0,0:0:0:0:
192,192,101859,1,0,0:0:0:0:
320,192,101906,1,0,0:0:0:0:
192,192,101953,1,0,0:0:0:0:
448,192,102000,1,0,0:0:0:0:
320,192,102031,1,0,0:0:0:0:
192,192,102062,1,0,0:0:0:0:
448,192,102093,1,0,0:0:0:0:
320,192,102125,1,0,0:0:0:0:
192,192,102156,1,0,0:0:0:0:
448,192,102187,1,0,0:0:0:0:
320,192,102218,1,0,0:0:0:0:
64,192,102250,1,0,0:0:0:0:
192,192,102281,1,0,0:0:0:0:
320,192,102312,1,0,0:0:0:0:
448,192,102343,1,0,0:0:0:0:
192,192,102375,1,0,0:0:0:0:
320,192,102406,1,0,0:0:0:0:
448,192,102437,1,0,0:0:0:0:
64,192,102468,1,0,0:0:0:0:
192,192,102500,1,0,0:0:0:0:
320,192,102531,1,0,0:0:0:0:
64,192,102562,1,0,0:0:0:0:
192,192,102593,1,0,0:0:0:0:
320,192,102625,1,0,0:0:0:0:
64,192,102656,1,0,0:0:0:0:
192,192,102687,1,0,0:0:0:0:
448,192,102718,1,0,0:0:0:0:
320,192,102750,1,0,0:0:0:0:
192,192,102781,1,0,0:0:0:0:
64,192,102812,1,0,0:0:0:0:
320,192,102843,1,0,0:0:0:0:
192,192,102875,1,0,0:0:0:0:
64,192,102906,1,0,0:0:0:0:
448,192,102937,1,0,0:0:0:0:
320,192,102984,1,0,0:0:0:0:
192,192,103031,1,0,0:0:0:0:
64,192,103078,1,0,0:0:0:0:
320,192,103125,1,0,0:0:0:0:
192,192,103171,1,0,0:0:0:0:
64,192,103218,1,0,0:0:0:0:
192,192,103265,1,0,0:0:0:0:
320,192,103312,1,0,0:0:0:0:
192,192,103359,1,0,0:0:0:0:
320,192,103406,1,0,0:0:0:0:
448,192,103453,1,0,0:0:0:0:
192,192,103500,1,0,0:0:0:0:
64,192,103546,1,0,0:0:0:0:
320,192,103593,1,0,0:0:0:0:
64,192,103640,1,0,0:0:0:0:
320,192,103687,1,0,0:0:0:0:
192,192,103734,1,0,0:0:0:0:
448,192,103781,1,0,0:0:0:0:
320,192,103828,1,0,0:0:0:0:
192,192,103875,1,0,0:0:0:0:
64,192,103921,1,0,0:0:0:0:
448,192,103968,1,0,0:0:0:0:
192,192,104015,1,0,0:0:0:0:
320,192,104062,1,0,0:0:0:0:
448,192,104109,1,0,0:0:0:0:
192,192,104156,1,0,0:0:0:0:
448,192,104203,1,0,0:0:0:0:
192,192,104250,1,0,0:0:0:0:
320,192,104296,1,0,0:0:0:0:
64,192,104343,1,0,0:0:0:0:
192,192,104390,1,0,0:0:0:0:
320,192,104437,1,0,0:0:0:0:
448,192,104484,1,0,0:0:0:0:
64,192,104531,1,0,0:0:0:0:
320,192,104578,1,0,0:0:0:0:
192,192,104625,1,0,0:0:0:0:
64,192,104671,1,0,0:0:0:0:
320,192,104718,1,0,0:0:0:0:
64,192,104765,1,0,0:0:0:0:
320,192,104812,1,0,0:0:0:0:
192,192,104859,1,0,0:0:0:0:
448,192,104906,1,0,0:0:0:0:
320,192,104953,1,0,0:0:0:0:
192,192,105000,1,0,0:0:0:0:
64,192,105046,1,0,0:0:0:0:
448,192,105093,1,0,0:0:0:0:
192,192,105140,1,0,0:0:0:0:
320,192,105187,1,0,0:0:0:0:
448,192,105234,1,0,0:0:0:0:
192,192,105281,1,0,0:0:0:0:
448,192,105328,1,0,0:0:0:0:
192,192,105375,1,0,0:0:0:0:
320,192,105421,1,0,0:0:0:0:
64,192,105468,1,0,0:0:0:0:
192,192,105515,1,0,0:0:0:0:
320,192,105562,1,0,0:0:0:0:
448,192,105609,1,0,0:0:0:0:
64,192,105656,1,0,0:0:0:0:
320,192,105703,1,0,0:0:0:0:
192,192,105750,1,0,0:0:0:0:
64,192,105796,1,0,0:0:0:0:
320,192,105843,1,0,0:0:0:0:
64,192,105890,1,0,0:0:0:0:
320,192,105937,1,0,0:0:0:0:
192,192,105984,1,0,0:0:0:0:
448,192,106031,1,0,0:0:0:0:
320,192,106078,1,0,0:0:0:0:
192,192,106125,1,0,0:0:0:0:
64,192,106171,1,0,0:0:0:0:
448,192,106218,1,0,0:0:0:0:
192,192,106265,1,0,0:0:0:0:
320,192,106312,1,0,0:0:0:0:
448,192,106359,1,0,0:0:0:0:
320,192,106406,1,0,0:0:0:0:
64,192,106453,1,0,0:0:0:0:
448,192,106500,1,0,0:0:0:0:
320,192,106546,1,0,0:0:0:0:
192,192,106593,1,0,0:0:0:0:
64,192,106640,1,0,0:0:0:0:
320,192,106687,1,0,0:0:0:0:
192,192,106734,1,0,0:0:0:0:
64,192,106781,1,0,0:0:0:0:
192,192,106828,1,0,0:0:0:0:
320,192,106875,1,0,0:0:0:0:
192,192,106921,1,0,0:0:0:0:
320,192,106968,1,0,0:0:0:0:
448,192,107015,1,0,0:0:0:0:
320,192,107062,1,0,0:0:0:0:
192,192,107109,1,0,0:0:0:0:
320,192,107156,1,0,0:0:0:0:
192,192,107203,1,0,0:0:0:0:
448,192,107250,1,0,0:0:0:0:
64,192,107250,1,0,0:0:0:0:
320,192,107296,1,0,0:0:0:0:
192,192,107343,1,0,0:0:0:0:
64,192,107390,1,0,0:0:0:0:
320,192,107437,1,0,0:0:0:0:
192,192,107484,1,0,0:0:0:0:
64,192,107531,1,0,0:0:0:0:
192,192,107578,1,0,0:0:0:0:
320,192,107625,1,0,0:0:0:0:
192,192,107671,1,0,0:0:0:0:
320,192,107718,1,0,0:0:0:0:
448,192,107765,1,0,0:0:0:0:
320,192,107812,1,0,0:0:0:0:
192,192,107859,1,0,0:0:0:0:
320,192,107906,1,0,0:0:0:0:
192,192,107953,1,0,0:0:0:0:
448,192,108000,1,0,0:0:0:0:
320,192,108031,1,0,0:0:0:0:
192,192,108062,1,0,0:0:0:0:
448,192,108093,1,0,0:0:0:0:
320,192,108125,1,0,0:0:0:0:
192,192,108156,1,0,0:0:0:0:
448,192,108187,1,0,0:0:0:0:
320,192,108218,1,0,0:0:0:0:
64,192,108250,1,0,0:0:0:0:
192,192,108281,1,0,0:0:0:0:
320,192,108312,1,0,0:0:0:0:
448,192,108343,1,0,0:0:0:0:
192,192,108375,1,0,0:0:0:0:
320,192,108406,1,0,0:0:0:0:
448,192,108437,1,0,0:0:0:0:
64,192,108468,1,0,0:0:0:0:
192,192,108500,1,0,0:0:0:0:
320,192,108531,1,0,0:0:0:0:
64,192,108562,1,0,0:0:0:0:
192,192,108593,1,0,0:0:0:0:
320,192,108625,1,0,0:0:0:0:
64,192,108656,1,0,0:0:0:0:
192,192,108687,1,0,0:0:0:0:
448,192,108718,1,0,0:0:0:0:
320,192,108750,1,0,0:0:0:0:
192,192,108781,1,0,0:0:0:0:
64,192,108812,1,0,0:0:0:0:
320,192,108843,1,0,0:0:0:0:
192,192,108875,1,0,0:0:0:0:
64,192,108906,1,0,0:0:0:0:
448,192,108937,1,0,0:0:0:0:
320,192,108984,1,0,0:0:0:0:
192,192,109031,1,0,0:0:0:0:
64,192,109078,1,0,0:0:0:0:
320,192,109125,1,0,0:0:0:0:
192,192,109171,1,0,0:0:0:0:
64,192,109218,1,0,0:0:0:0:
192,192,109265,1,0,0:0:0:0:
320,192,109312,1,0,0:0:0:0:
192,192,109359,1,0,0:0:0:0:
320,192,109406,1,0,0:0:0:0:
448,192,109453,1,0,0:0:0:0:
64,192,109500,1,0,0:0:0:0:
192,192,109531,1,0,0:0:0:0:
320,192,109562,1,0,0:0:0:0:
448,192,109593,1,0,0:0:0:0:
64,192,109625,1,0,0:0:0:0:
192,192,109656,1,0,0:0:0:0:
320,192,109687,1,0,0:0:0:0:
64,192,109718,1,0,0:0:0:0:
192,192,109750,1,0,0:0:0:0:
448,192,109781,1,0,0:0:0:0:
320,192,109812,1,0,0:0:0:0:
192,192,109843,1,0,0:0:0:0:
448,192,109875,1,0,0:0:0:0:
320,192,109906,1,0,0:0:0:0:
192,192,109937,1,0,0:0:0:0:
64,192,109968,1,0,0:0:0:0:
320,192,110000,1,0,0:0:0:0:
192,192,110031,1,0,0:0:0:0:
64,192,110062,1,0,0:0:0:0:
448,192,110093,1,0,0:0:0:0:
320,192,110125,1,0,0:0:0:0:
192,192,110156,1,0,0:0:0:0:
448,192,110187,1,0,0:0:0:0:
320,192,110218,1,0,0:0:0:0:
64,192,110250,1,0,0:0:0:0:
192,192,110281,1,0,0:0:0:0:
320,192,110312,1,0,0:0:0:0:
448,192,110343,1,0,0:0:0:0:
192,192,110375,1,0,0:0:0:0:
320,192,110406,1,0,0:0:0:0:
64,192,110437,1,0,0:0:0:0:
192,192,110468,1,0,0:0:0:0:
320,192,110500,1,0,0:0:0:0:
64,192,110531,1,0,0:0:0:0:
192,192,110562,1,0,0:0:0:0:
448,192,110593,1,0,0:0:0:0:
320,192,110625,1,0,0:0:0:0:
192,192,110656,1,0,0:0:0:0:
448,192,110687,1,0,0:0:0:0:
320,192,110718,1,0,0:0:0:0:
192,192,110750,1,0,0:0:0:0:
64,192,110781,1,0,0:0:0:0:
448,192,110812,1,0,0:0:0:0:
320,192,110843,1,0,0:0:0:0:
192,192,110875,1,0,0:0:0:0:
448,192,110906,1,0,0:0:0:0:
320,192,110937,1,0,0:0:0:0:
192,192,110968,1,0,0:0:0:0:
64,192,111000,1,0,0:0:0:0:
320,192,111031,1,0,0:0:0:0:
192,192,111062,1,0,0:0:0:0:
64,192,111093,1,0,0:0:0:0:
448,192,111125,1,0,0:0:0:0:
320,192,111156,1,0,0:0:0:0:
192,192,111187,1,0,0:0:0:0:
448,192,111218,1,0,0:0:0:0:
320,192,111250,1,0,0:0:0:0:
64,192,111281,1,0,0:0:0:0:
192,192,111312,1,0,0:0:0:0:
320,192,111343,1,0,0:0:0:0:
64,192,111375,1,0,0:0:0:0:
192,192,111406,1,0,0:0:0:0:
320,192,111437,1,0,0:0:0:0:
448,192,111468,1,0,0:0:0:0:
192,192,111500,1,0,0:0:0:0:
320,192,111531,1,0,0:0:0:0:
448,192,111562,1,0,0:0:0:0:
64,192,111593,1,0,0:0:0:0:
192,192,111625,1,0,0:0:0:0:
320,192,111656,1,0,0:0:0:0:
64,192,111687,1,0,0:0:0:0:
192,192,111718,1,0,0:0:0:0:
448,192,111750,1,0,0:0:0:0:
320,192,111781,1,0,0:0:0:0:
192,192,111812,1,0,0:0:0:0:
64,192,111843,1,0,0:0:0:0:
320,192,111875,1,0,0:0:0:0:
192,192,111906,1,0,0:0:0:0:
448,192,111937,1,0,0:0:0:0:
320,192,111968,1,0,0:0:0:0:
192,192,112000,1,0,0:0:0:0:
448,192,112031,1,0,0:0:0:0:
320,192,112062,1,0,0:0:0:0:
64,192,112093,1,0,0:0:0:0:
192,192,112125,1,0,0:0:0:0:
320,192,112156,1,0,0:0:0:0:
64,192,112187,1,0,0:0:0:0:
192,192,112218,1,0,0:0:0:0:
320,192,112250,1,0,0:0:0:0:
448,192,112281,1,0,0:0:0:0:
64,192,112312,1,0,0:0:0:0:
192,192,112343,1,0,0:0:0:0:
320,192,112375,1,0,0:0:0:0:
64,192,112406,1,0,0:0:0:0:
192,192,112437,1,0,0:0:0:0:
320,192,112468,1,0,0:0:0:0:
448,192,112500,1,0,0:0:0:0:
320,192,112593,1,0,0:0:0:0:
192,192,112687,1,0,0:0:0:0:
64,192,112781,1,0,0:0:0:0:
192,192,112875,1,0,0:0:0:0:
320,192,112968,1,0,0:0:0:0:
448,192,113062,1,0,0:0:0:0:
320,192,113156,1,0,0:0:0:0:
192,192,113250,1,0,0:0:0:0:
64,192,113343,1,0,0:0:0:0:
192,192,113437,1,0,0:0:0:0:
320,192,113531,1,0,0:0:0:0:
448,192,113625,1,0,0:0:0:0:
320,192,113718,1,0,0:0:0:0:
192,192,113812,1,0,0:0:0:0:
64,192,113906,1,0,0:0:0:0:
448,192,114000,1,0,0:0:0:0:
320,192,114093,1,0,0:0:0:0:
192,192,114164,1,0,0:0:0:0:
64,192,114234,1,0,0:0:0:0:
64,192,114304,1,0,0:0:0:0:
448,192,114375,1,0,0:0:0:0:
320,192,114468,1,0,0:0:0:0:
192,192,114539,1,0,0:0:0:0:
64,192,114609,1,0,0:0:0:0:
64,192,114679,1,0,0:0:0:0:
448,192,114750,1,0,0:0:0:0:
320,192,114843,1,0,0:0:0:0:
192,192,114914,1,0,0:0:0:0:
64,192,114984,1,0,0:0:0:0:
64,192,115054,1,0,0:0:0:0:
192,192,115125,1,0,0:0:0:0:
320,192,115218,1,0,0:0:0:0:
448,192,115312,1,0,0:0:0:0:
64,192,115406,1,0,0:0:0:0:
448,192,115500,1,0,0:0:0:0:
320,192,115531,1,0,0:0:0:0:
192,192,115562,1,0,0:0:0:0:
64,192,115593,1,0,0:0:0:0:
448,192,115625,1,0,0:0:0:0:
320,192,115656,1,0,0:0:0:0:
192,192,115687,1,0,0:0:0:0:
448,192,115718,1,0,0:0:0:0:
320,192,115750,1,0,0:0:0:0:
64,192,115781,1,0,0:0:0:0:
192,192,115812,1,0,0:0:0:0:
320,192,115843,1,0,0:0:0:0:
64,192,115875,1,0,0:0:0:0:
192,192,115906,1,0,0:0:0:0:
320,192,115937,1,0,0:0:0:0:
448,192,115968,1,0,0:0:0:0:
192,192,116000,1,0,0:0:0:0:
320,192,116031,1,0,0:0:0:0:
448,192,116062,1,0,0:0:0:0:
64,192,116093,1,0,0:0:0:0:
192,192,116125,1,0,0:0:0:0:
320,192,116156,1,0,0:0:0:0:
64,192,116187,1,0,0:0:0:0:
192,192,116218,1,0,0:0:0:0:
448,192,116250,1,0,0:0:0:0:
320,192,116281,1,0,0:0:0:0:
192,192,116312,1,0,0:0:0:0:
64,192,116343,1,0,0:0:0:0:
320,192,116375,1,0,0:0:0:0:
192,192,116406,1,0,0:0:0:0:
448,192,116437,1,0,0:0:0:0:
320,192,116468,1,0,0:0:0:0:
192,192,116500,1,0,0:0:0:0:
448,192,116531,1,0,0:0:0:0:
320,192,116562,1,0,0:0:0:0:
64,192,116593,1,0,0:0:0:0:
192,192,116625,1,0,0:0:0:0:
320,192,116656,1,0,0:0:0:0:
64,192,116687,1,0,0:0:0:0:
192,192,116718,1,0,0:0:0:0:
320,192,116750,1,0,0:0:0:0:
448,192,116781,1,0,0:0:0:0:
64,192,116812,1,0,0:0:0:0:
192,192,116843,1,0,0:0:0:0:
320,192,116875,1,0,0:0:0:0:
64,192,116906,1,0,0:0:0:0:
192,192,116937,1,0,0:0:0:0:
320,192,116968,1,0,0:0:0:0:
448,192,117000,1,0,0:0:0:0:
192,192,117031,1,0,0:0:0:0:
320,192,117062,1,0,0:0:0:0:
448,192,117093,1,0,0:0:0:0:
64,192,117125,1,0,0:0:0:0:
192,192,117156,1,0,0:0:0:0:
320,192,117187,1,0,0:0:0:0:
64,192,117218,1,0,0:0:0:0:
192,192,117250,1,0,0:0:0:0:
448,192,117281,1,0,0:0:0:0:
320,192,117312,1,0,0:0:0:0:
192,192,117343,1,0,0:0:0:0:
448,192,117375,1,0,0:0:0:0:
320,192,117406,1,0,0:0:0:0:
192,192,117437,1,0,0:0:0:0:
64,192,117468,1,0,0:0:0:0:
320,192,117500,1,0,0:0:0:0:
192,192,117531,1,0,0:0:0:0:
64,192,117562,1,0,0:0:0:0:
448,192,117593,1,0,0:0:0:0:
320,192,117625,1,0,0:0:0:0:
192,192,117656,1,0,0:0:0:0:
448,192,117687,1,0,0:0:0:0:
320,192,117718,1,0,0:0:0:0:
64,192,117750,1,0,0:0:0:0:
192,192,117781,1,0,0:0:0:0:
320,192,117812,1,0,0:0:0:0:
448,192,117843,1,0,0:0:0:0:
192,192,117875,1,0,0:0:0:0:
320,192,117906,1,0,0:0:0:0:
64,192,117937,1,0,0:0:0:0:
192,192,117968,1,0,0:0:0:0:
320,192,118000,1,0,0:0:0:0:
64,192,118031,1,0,0:0:0:0:
192,192,118062,1,0,0:0:0:0:
448,192,118093,1,0,0:0:0:0:
320,192,118125,1,0,0:0:0:0:
192,192,118156,1,0,0:0:0:0:
448,192,118187,1,0,0:0:0:0:
320,192,118218,1,0,0:0:0:0:
192,192,118250,1,0,0:0:0:0:
64,192,118281,1,0,0:0:0:0:
448,192,118312,1,0,0:0:0:0:
320,192,118343,1,0,0:0:0:0:
192,192,118375,1,0,0:0:0:0:
448,192,118406,1,0,0:0:0:0:
320,192,118437,1,0,0:0:0:0:
192,192,118468,1,0,0:0:0:0:
64,192,118500,1,0,0:0:0:0:
192,192,118593,1,0,0:0:0:0:
320,192,118687,1,0,0:0:0:0:
448,192,118781,1,0,0:0:0:0:
320,192,118875,1,0,0:0:0:0:
192,192,118968,1,0,0:0:0:0:
64,192,119062,1,0,0:0:0:0:
192,192,119156,1,0,0:0:0:0:
320,192,119250,1,0,0:0:0:0:
448,192,119343,1,0,0:0:0:0:
320,192,119437,1,0,0:0:0:0:
192,192,119531,1,0,0:0:0:0:
64,192,119625,1,0,0:0:0:0:
192,192,119718,1,0,0:0:0:0:
320,192,119812,1,0,0:0:0:0:
448,192,119906,1,0,0:0:0:0:
64,192,120000,1,0,0:0:0:0:
192,192,120093,1,0,0:0:0:0:
320,192,120164,1,0,0:0:0:0:
448,192,120234,1,0,0:0:0:0:
448,192,120304,1,0,0:0:0:0:
64,192,120375,1,0,0:0:0:0:
192,192,120468,1,0,0:0:0:0:
320,192,120539,1,0,0:0:0:0:
448,192,120609,1,0,0:0:0:0:
448,192,120679,1,0,0:0:0:0:
64,192,120750,1,0,0:0:0:0:
192,192,120750,1,0,0:0:0:0:
320,192,120843,1,0,0:0:0:0:
64,192,120843,1,0,0:0:0:0:
192,192,120937,1,0,0:0:0:0:
320,192,120937,1,0,0:0:0:0:
192,192,121031,1,0,0:0:0:0:
64,192,121031,1,0,0:0:0:0:
192,192,121125,1,0,0:0:0:0:
448,192,121125,1,0,0:0:0:0:
320,192,121218,1,0,0:0:0:0:
448,192,121218,1,0,0:0:0:0:
320,192,121312,1,0,0:0:0:0:
64,192,121312,1,0,0:0:0:0:
64,192,121406,1,0,0:0:0:0:
448,192,121406,1,0,0:0:0:0:
64,192,122062,1,0,0:0:0:0:
320,192,122250,1,0,0:0:0:0:
448,192,122343,128,0,122812:0:0:0:0:
320,192,122812,128,0,123375:0:0:0:0:
448,192,123375,1,0,0:0:0:0:
192,192,123468,128,0,123937:0:0:0:0:
64,192,123937,128,0,124312:0:0:0:0:
192,192,124312,1,0,0:0:0:0:
320,192,124500,1,0,0:0:0:0:
448,192,124687,128,0,125062:0:0:0:0:
192,192,125062,1,0,0:0:0:0:
320,192,125250,128,0,125531:0:0:0:0:
320,192,125625,1,0,0:0:0:0:
320,192,125812,1,0,0:0:0:0:
448,192,125906,128,0,126093:0:0:0:0:
448,192,126187,1,0,0:0:0:0:
320,192,126375,1,0,0:0:0:0:
192,192,126562,128,0,127500:0:0:0:0:
64,192,128062,1,0,0:0:0:0:
192,192,128250,1,0,0:0:0:0:
320,192,128343,128,0,128812:0:0:0:0:
192,192,128812,128,0,129375:0:0:0:0:
320,192,129375,1,0,0:0:0:0:
448,192,129468,128,0,129937:0:0:0:0:
320,192,129937,128,0,130312:0:0:0:0:
192,192,130312,1,0,0:0:0:0:
320,192,130500,1,0,0:0:0:0:
448,192,130687,1,0,0:0:0:0:
64,192,130875,1,0,0:0:0:0:
192,192,131062,1,0,0:0:0:0:
320,192,131250,128,0,131625:0:0:0:0:
448,192,131625,128,0,133500:0:0:0:0:
64,192,133500,1,0,0:0:0:0:
320,192,133500,1,0,0:0:0:0:
192,192,133562,1,0,0:0:0:0:
320,192,133625,1,0,0:0:0:0:
192,192,133687,1,0,0:0:0:0:
64,192,133687,1,0,0:0:0:0:
320,192,133750,1,0,0:0:0:0:
448,192,133812,1,0,0:0:0:0:
192,192,133875,1,0,0:0:0:0:
64,192,133875,1,0,0:0:0:0:
320,192,133937,1,0,0:0:0:0:
448,192,134000,1,0,0:0:0:0:
320,192,134062,1,0,0:0:0:0:
64,192,134062,1,0,0:0:0:0:
192,192,134125,1,0,0:0:0:0:
64,192,134187,1,0,0:0:0:0:
192,192,134250,1,0,0:0:0:0:
448,192,134250,1,0,0:0:0:0:
320,192,134312,1,0,0:0:0:0:
192,192,134375,1,0,0:0:0:0:
320,192,134437,1,0,0:0:0:0:
64,192,134437,1,0,0:0:0:0:
448,192,134500,1,0,0:0:0:0:
192,192,134562,1,0,0:0:0:0:
448,192,134625,1,0,0:0:0:0:
320,192,134648,1,0,0:0:0:0:
192,192,134671,1,0,0:0:0:0:
64,192,134695,1,0,0:0:0:0:
448,192,134718,1,0,0:0:0:0:
320,192,134742,1,0,0:0:0:0:
64,192,134765,1,0,0:0:0:0:
192,192,134789,1,0,0:0:0:0:
320,192,134812,1,0,0:0:0:0:
448,192,134835,1,0,0:0:0:0:
64,192,134859,1,0,0:0:0:0:
192,192,134882,1,0,0:0:0:0:
448,192,134906,1,0,0:0:0:0:
320,192,134929,1,0,0:0:0:0:
192,192,134953,1,0,0:0:0:0:
64,192,134976,1,0,0:0:0:0:
448,192,135000,1,0,0:0:0:0:
320,192,135062,1,0,0:0:0:0:
192,192,135125,1,0,0:0:0:0:
320,192,135187,1,0,0:0:0:0:
448,192,135187,1,0,0:0:0:0:
192,192,135250,1,0,0:0:0:0:
64,192,135312,1,0,0:0:0:0:
320,192,135375,1,0,0:0:0:0:
448,192,135375,1,0,0:0:0:0:
192,192,135437,1,0,0:0:0:0:
64,192,135500,1,0,0:0:0:0:
192,192,135562,1,0,0:0:0:0:
448,192,135562,1,0,0:0:0:0:
320,192,135625,1,0,0:0:0:0:
448,192,135687,1,0,0:0:0:0:
320,192,135750,1,0,0:0:0:0:
64,192,135750,1,0,0:0:0:0:
192,192,135812,1,0,0:0:0:0:
320,192,135875,1,0,0:0:0:0:
192,192,135937,1,0,0:0:0:0:
448,192,135937,1,0,0:0:0:0:
64,192,136000,1,0,0:0:0:0:
320,192,136062,1,0,0:0:0:0:
64,192,136125,1,0,0:0:0:0:
192,192,136148,1,0,0:0:0:0:
320,192,136171,1,0,0:0:0:0:
448,192,136195,1,0,0:0:0:0:
64,192,136218,1,0,0:0:0:0:
192,192,136242,1,0,0:0:0:0:
448,192,136265,1,0,0:0:0:0:
320,192,136289,1,0,0:0:0:0:
192,192,136312,1,0,0:0:0:0:
64,192,136335,1,0,0:0:0:0:
448,192,136359,1,0,0:0:0:0:
320,192,136382,1,0,0:0:0:0:
64,192,136406,1,0,0:0:0:0:
192,192,136429,1,0,0:0:0:0:
320,192,136453,1,0,0:0:0:0:
448,192,136476,1,0,0:0:0:0:
64,192,136500,1,0,0:0:0:0:
192,192,136546,1,0,0:0:0:0:
320,192,136593,1,0,0:0:0:0:
192,192,136640,1,0,0:0:0:0:
320,192,136687,1,0,0:0:0:0:
448,192,136734,1,0,0:0:0:0:
192,192,136781,1,0,0:0:0:0:
64,192,136828,1,0,0:0:0:0:
192,192,136875,1,0,0:0:0:0:
320,192,136921,1,0,0:0:0:0:
192,192,136968,1,0,0:0:0:0:
320,192,137015,1,0,0:0:0:0:
448,192,137062,1,0,0:0:0:0:
64,192,137109,1,0,0:0:0:0:
320,192,137156,1,0,0:0:0:0:
192,192,137203,1,0,0:0:0:0:
448,192,137250,1,0,0:0:0:0:
192,192,137296,1,0,0:0:0:0:
320,192,137343,1,0,0:0:0:0:
448,192,137390,1,0,0:0:0:0:
192,192,137437,1,0,0:0:0:0:
64,192,137484,1,0,0:0:0:0:
320,192,137531,1,0,0:0:0:0:
64,192,137578,1,0,0:0:0:0:
448,192,137625,1,0,0:0:0:0:
320,192,137656,1,0,0:0:0:0:
192,192,137687,1,0,0:0:0:0:
64,192,137718,1,0,0:0:0:0:
448,192,137750,1,0,0:0:0:0:
320,192,137781,1,0,0:0:0:0:
192,192,137812,1,0,0:0:0:0:
448,192,137843,1,0,0:0:0:0:
320,192,137875,1,0,0:0:0:0:
64,192,137906,1,0,0:0:0:0:
192,192,137937,1,0,0:0:0:0:
320,192,137968,1,0,0:0:0:0:
448,192,138000,1,0,0:0:0:0:
320,192,138046,1,0,0:0:0:0:
192,192,138093,1,0,0:0:0:0:
320,192,138140,1,0,0:0:0:0:
192,192,138187,1,0,0:0:0:0:
64,192,138234,1,0,0:0:0:0:
320,192,138281,1,0,0:0:0:0:
448,192,138328,1,0,0:0:0:0:
320,192,138375,1,0,0:0:0:0:
192,192,138421,1,0,0:0:0:0:
320,192,138468,1,0,0:0:0:0:
192,192,138515,1,0,0:0:0:0:
64,192,138562,1,0,0:0:0:0:
448,192,138609,1,0,0:0:0:0:
192,192,138656,1,0,0:0:0:0:
320,192,138703,1,0,0:0:0:0:
64,192,138750,1,0,0:0:0:0:
320,192,138796,1,0,0:0:0:0:
192,192,138843,1,0,0:0:0:0:
64,192,138890,1,0,0:0:0:0:
320,192,138937,1,0,0:0:0:0:
448,192,138984,1,0,0:0:0:0:
192,192,139031,1,0,0:0:0:0:
448,192,139078,1,0,0:0:0:0:
64,192,139125,1,0,0:0:0:0:
192,192,139156,1,0,0:0:0:0:
320,192,139187,1,0,0:0:0:0:
448,192,139218,1,0,0:0:0:0:
64,192,139250,1,0,0:0:0:0:
192,192,139281,1,0,0:0:0:0:
320,192,139312,1,0,0:0:0:0:
64,192,139343,1,0,0:0:0:0:
192,192,139375,1,0,0:0:0:0:
448,192,139406,1,0,0:0:0:0:
320,192,139437,1,0,0:0:0:0:
192,192,139468,1,0,0:0:0:0:
64,192,139500,1,0,0:0:0:0:
448,192,139500,1,0,0:0:0:0:
320,192,139593,1,0,0:0:0:0:
448,192,139593,1,0,0:0:0:0:
320,192,139687,1,0,0:0:0:0:
192,192,139687,1,0,0:0:0:0:
192,192,139781,1,0,0:0:0:0:
448,192,139781,1,0,0:0:0:0:
448,192,139875,1,0,0:0:0:0:
64,192,139875,1,0,0:0:0:0:
64,192,139968,1,0,0:0:0:0:
192,192,139968,1,0,0:0:0:0:
64,192,140062,1,0,0:0:0:0:
320,192,140062,1,0,0:0:0:0:
320,192,140156,1,0,0:0:0:0:
448,192,140156,1,0,0:0:0:0:
448,192,140250,1,0,0:0:0:0:
192,192,140250,1,0,0:0:0:0:
320,192,140343,1,0,0:0:0:0:
64,192,140343,1,0,0:0:0:0:
64,192,140437,1,0,0:0:0:0:
192,192,140437,1,0,0:0:0:0:
64,192,140531,1,0,0:0:0:0:
448,192,140531,1,0,0:0:0:0:
192,192,140625,1,0,0:0:0:0:
320,192,140656,1,0,0:0:0:0:
448,192,140687,1,0,0:0:0:0:
64,192,140718,1,0,0:0:0:0:
192,192,140750,1,0,0:0:0:0:
320,192,140781,1,0,0:0:0:0:
448,192,140812,1,0,0:0:0:0:
192,192,140843,1,0,0:0:0:0:
64,192,140875,1,0,0:0:0:0:
320,192,140906,1,0,0:0:0:0:
192,192,140937,1,0,0:0:0:0:
64,192,140968,1,0,0:0:0:0:
320,192,141000,1,0,0:0:0:0:
448,192,141000,1,0,0:0:0:0:
448,192,141093,1,0,0:0:0:0:
192,192,141093,1,0,0:0:0:0:
192,192,141187,1,0,0:0:0:0:
64,192,141187,1,0,0:0:0:0:
64,192,141281,1,0,0:0:0:0:
320,192,141281,1,0,0:0:0:0:
448,192,141375,1,0,0:0:0:0:
64,192,141375,1,0,0:0:0:0:
320,192,141468,1,0,0:0:0:0:
448,192,141468,1,0,0:0:0:0:
320,192,141562,1,0,0:0:0:0:
192,192,141562,1,0,0:0:0:0:
192,192,141656,1,0,0:0:0:0:
64,192,141656,1,0,0:0:0:0:
448,192,141750,1,0,0:0:0:0:
320,192,141750,1,0,0:0:0:0:
320,192,141843,1,0,0:0:0:0:
64,192,141843,1,0,0:0:0:0:
64,192,141937,1,0,0:0:0:0:
448,192,141937,1,0,0:0:0:0:
448,192,142031,1,0,0:0:0:0:
192,192,142031,1,0,0:0:0:0:
320,192,142125,1,0,0:0:0:0:
192,192,142156,1,0,0:0:0:0:
64,192,142187,1,0,0:0:0:0:
320,192,142218,1,0,0:0:0:0:
192,192,142250,1,0,0:0:0:0:
448,192,142281,1,0,0:0:0:0:
320,192,142312,1,0,0:0:0:0:
192,192,142343,1,0,0:0:0:0:
64,192,142375,1,0,0:0:0:0:
448,192,142406,1,0,0:0:0:0:
320,192,142437,1,0,0:0:0:0:
192,192,142468,1,0,0:0:0:0:
448,192,142500,1,0,0:0:0:0:
320,192,142546,1,0,0:0:0:0:
192,192,142593,1,0,0:0:0:0:
320,192,142640,1,0,0:0:0:0:
192,192,142687,1,0,0:0:0:0:
64,192,142734,1,0,0:0:0:0:
448,192,142781,1,0,0:0:0:0:
64,192,142828,1,0,0:0:0:0:
192,192,142875,1,0,0:0:0:0:
320,192,142921,1,0,0:0:0:0:
192,192,142968,1,0,0:0:0:0:
448,192,143015,1,0,0:0:0:0:
64,192,143062,1,0,0:0:0:0:
448,192,143109,1,0,0:0:0:0:
192,192,143156,1,0,0:0:0:0:
320,192,143203,1,0,0:0:0:0:
64,192,143250,1,0,0:0:0:0:
192,192,143296,1,0,0:0:0:0:
64,192,143343,1,0,0:0:0:0:
320,192,143390,1,0,0:0:0:0:
192,192,143437,1,0,0:0:0:0:
320,192,143484,1,0,0:0:0:0:
448,192,143531,1,0,0:0:0:0:
64,192,143578,1,0,0:0:0:0:
192,192,143625,1,0,0:0:0:0:
320,192,143656,1,0,0:0:0:0:
448,192,143687,1,0,0:0:0:0:
192,192,143718,1,0,0:0:0:0:
320,192,143750,1,0,0:0:0:0:
64,192,143781,1,0,0:0:0:0:
192,192,143812,1,0,0:0:0:0:
320,192,143843,1,0,0:0:0:0:
448,192,143875,1,0,0:0:0:0:
64,192,143906,1,0,0:0:0:0:
192,192,143937,1,0,0:0:0:0:
320,192,143968,1,0,0:0:0:0:
448,192,144000,1,0,0:0:0:0:
192,192,144046,1,0,0:0:0:0:
320,192,144093,1,0,0:0:0:0:
192,192,144140,1,0,0:0:0:0:
64,192,144187,1,0,0:0:0:0:
320,192,144234,1,0,0:0:0:0:
192,192,144281,1,0,0:0:0:0:
320,192,144328,1,0,0:0:0:0:
448,192,144375,1,0,0:0:0:0:
64,192,144421,1,0,0:0:0:0:
192,192,144468,1,0,0:0:0:0:
320,192,144515,1,0,0:0:0:0:
192,192,144562,1,0,0:0:0:0:
448,192,144609,1,0,0:0:0:0:
320,192,144656,1,0,0:0:0:0:
192,192,144703,1,0,0:0:0:0:
320,192,144750,1,0,0:0:0:0:
64,192,144796,1,0,0:0:0:0:
448,192,144843,1,0,0:0:0:0:
192,192,144890,1,0,0:0:0:0:
320,192,144937,1,0,0:0:0:0:
448,192,144984,1,0,0:0:0:0:
320,192,145031,1,0,0:0:0:0:
192,192,145078,1,0,0:0:0:0:
448,192,145125,1,0,0:0:0:0:
320,192,145156,1,0,0:0:0:0:
192,192,145187,1,0,0:0:0:0:
64,192,145218,1,0,0:0:0:0:
448,192,145250,1,0,0:0:0:0:
320,192,145281,1,0,0:0:0:0:
64,192,145312,1,0,0:0:0:0:
192,192,145343,1,0,0:0:0:0:
320,192,145375,1,0,0:0:0:0:
64,192,145406,1,0,0:0:0:0:
192,192,145437,1,0,0:0:0:0:
448,192,145468,1,0,0:0:0:0:
320,192,145500,1,0,0:0:0:0:
64,192,145500,1,0,0:0:0:0:
192,192,145593,1,0,0:0:0:0:
320,192,145593,1,0,0:0:0:0:
448,192,145687,1,0,0:0:0:0:
192,192,145687,1,0,0:0:0:0:
448,192,145781,1,0,0:0:0:0:
64,192,145781,1,0,0:0:0:0:
64,192,145875,1,0,0:0:0:0:
320,192,145875,1,0,0:0:0:0:
192,192,145968,1,0,0:0:0:0:
320,192,145968,1,0,0:0:0:0:
320,192,146062,1,0,0:0:0:0:
448,192,146062,1,0,0:0:0:0:
64,192,146156,1,0,0:0:0:0:
192,192,146156,1,0,0:0:0:0:
192,192,146250,1,0,0:0:0:0:
64,192,146250,1,0,0:0:0:0:
448,192,146250,1,0,0:0:0:0:
320,192,146343,1,0,0:0:0:0:
448,192,146343,1,0,0:0:0:0:
320,192,146437,1,0,0:0:0:0:
64,192,146437,1,0,0:0:0:0:
64,192,146531,1,0,0:0:0:0:
448,192,146531,1,0,0:0:0:0:
64,192,146625,1,0,0:0:0:0:
192,192,146671,1,0,0:0:0:0:
320,192,146718,1,0,0:0:0:0:
192,192,146765,1,0,0:0:0:0:
320,192,146812,1,0,0:0:0:0:
448,192,146859,1,0,0:0:0:0:
64,192,146906,1,0,0:0:0:0:
192,192,146953,1,0,0:0:0:0:
320,192,147000,128,0,147093:0:0:0:0:
320,192,147187,1,0,0:0:0:0:
192,192,147234,1,0,0:0:0:0:
64,192,147281,1,0,0:0:0:0:
192,192,147328,1,0,0:0:0:0:
64,192,147375,1,0,0:0:0:0:
192,192,147421,1,0,0:0:0:0:
448,192,147468,1,0,0:0:0:0:
320,192,147515,1,0,0:0:0:0:
448,192,147562,128,0,147656:0:0:0:0:
320,192,147750,1,0,0:0:0:0:
64,192,147796,1,0,0:0:0:0:
192,192,147843,1,0,0:0:0:0:
64,192,147890,1,0,0:0:0:0:
320,192,147937,1,0,0:0:0:0:
192,192,147984,1,0,0:0:0:0:
448,192,148031,1,0,0:0:0:0:
192,192,148078,1,0,0:0:0:0:
320,192,148125,128,0,148312:0:0:0:0:
64,192,148500,1,0,0:0:0:0:
320,192,148500,1,0,0:0:0:0:
192,192,148593,1,0,0:0:0:0:
320,192,148593,1,0,0:0:0:0:
192,192,148687,1,0,0:0:0:0:
64,192,148687,1,0,0:0:0:0:
64,192,148781,1,0,0:0:0:0:
320,192,148781,1,0,0:0:0:0:
320,192,148875,1,0,0:0:0:0:
448,192,148875,1,0,0:0:0:0:
448,192,148968,1,0,0:0:0:0:
320,192,148968,1,0,0:0:0:0:
64,192,149062,1,0,0:0:0:0:
192,192,149062,1,0,0:0:0:0:
192,192,149156,1,0,0:0:0:0:
448,192,149156,1,0,0:0:0:0:
448,192,149250,1,0,0:0:0:0:
64,192,149250,1,0,0:0:0:0:
192,192,149343,1,0,0:0:0:0:
320,192,149343,1,0,0:0:0:0:
320,192,149437,1,0,0:0:0:0:
448,192,149437,1,0,0:0:0:0:
448,192,149531,1,0,0:0:0:0:
320,192,149531,1,0,0:0:0:0:
64,192,149625,1,0,0:0:0:0:
192,192,149656,1,0,0:0:0:0:
320,192,149687,1,0,0:0:0:0:
448,192,149718,1,0,0:0:0:0:
192,192,149750,1,0,0:0:0:0:
320,192,149781,1,0,0:0:0:0:
448,192,149812,1,0,0:0:0:0:
192,192,149843,1,0,0:0:0:0:
64,192,149875,1,0,0:0:0:0:
320,192,149906,1,0,0:0:0:0:
192,192,149937,1,0,0:0:0:0:
64,192,149968,1,0,0:0:0:0:
448,192,150000,128,0,150187:0:0:0:0:
64,192,150187,1,0,0:0:0:0:
192,192,150218,1,0,0:0:0:0:
320,192,150250,1,0,0:0:0:0:
64,192,150281,1,0,0:0:0:0:
192,192,150312,1,0,0:0:0:0:
448,192,150343,1,0,0:0:0:0:
320,192,150375,1,0,0:0:0:0:
192,192,150406,1,0,0:0:0:0:
64,192,150437,1,0,0:0:0:0:
448,192,150468,1,0,0:0:0:0:
320,192,150500,1,0,0:0:0:0:
192,192,150531,1,0,0:0:0:0:
320,192,150562,128,0,150750:0:0:0:0:
64,192,150750,1,0,0:0:0:0:
192,192,150781,1,0,0:0:0:0:
320,192,150812,1,0,0:0:0:0:
448,192,150843,1,0,0:0:0:0:
64,192,150875,1,0,0:0:0:0:
192,192,150906,1,0,0:0:0:0:
448,192,150937,1,0,0:0:0:0:
320,192,150968,1,0,0:0:0:0:
192,192,151000,1,0,0:0:0:0:
448,192,151031,1,0,0:0:0:0:
320,192,151062,1,0,0:0:0:0:
64,192,151093,1,0,0:0:0:0:
192,192,151125,128,0,151312:0:0:0:0:
192,192,151500,1,0,0:0:0:0:
64,192,151500,1,0,0:0:0:0:
320,192,151593,1,0,0:0:0:0:
448,192,151593,1,0,0:0:0:0:
448,192,151687,1,0,0:0:0:0:
320,192,151687,1,0,0:0:0:0:
320,192,151781,1,0,0:0:0:0:
448,192,151781,1,0,0:0:0:0:
320,192,151875,1,0,0:0:0:0:
448,192,151875,1,0,0:0:0:0:
320,192,151968,1,0,0:0:0:0:
448,192,151968,1,0,0:0:0:0:
64,192,152062,1,0,0:0:0:0:
192,192,152062,1,0,0:0:0:0:
448,192,152156,1,0,0:0:0:0:
320,192,152156,1,0,0:0:0:0:
320,192,152250,1,0,0:0:0:0:
448,192,152250,1,0,0:0:0:0:
448,192,152343,1,0,0:0:0:0:
320,192,152343,1,0,0:0:0:0:
448,192,152437,1,0,0:0:0:0:
320,192,152437,1,0,0:0:0:0:
448,192,152531,1,0,0:0:0:0:
320,192,152531,1,0,0:0:0:0:
192,192,152625,1,0,0:0:0:0:
64,192,152625,1,0,0:0:0:0:
320,192,152718,1,0,0:0:0:0:
448,192,152718,1,0,0:0:0:0:
448,192,152812,1,0,0:0:0:0:
320,192,152812,1,0,0:0:0:0:
320,192,152906,1,0,0:0:0:0:
448,192,152906,1,0,0:0:0:0:
448,192,153000,128,0,153093:0:0:0:0:
320,192,153000,128,0,153093:0:0:0:0:
192,192,153000,128,0,153093:0:0:0:0:
64,192,153000,128,0,153093:0:0:0:0:
64,192,153187,1,0,0:0:0:0:
192,192,153187,1,0,0:0:0:0:
320,192,153281,1,0,0:0:0:0:
192,192,153281,1,0,0:0:0:0:
64,192,153375,1,0,0:0:0:0:
320,192,153375,1,0,0:0:0:0:
448,192,153468,1,0,0:0:0:0:
192,192,153468,1,0,0:0:0:0:
64,192,153468,1,0,0:0:0:0:
192,192,153562,1,0,0:0:0:0:
320,192,153562,1,0,0:0:0:0:
448,192,153656,1,0,0:0:0:0:
64,192,153656,1,0,0:0:0:0:
320,192,153750,1,0,0:0:0:0:
192,192,153750,1,0,0:0:0:0:
64,192,153750,1,0,0:0:0:0:
64,192,153937,1,0,0:0:0:0:
192,192,153937,1,0,0:0:0:0:
192,192,154031,1,0,0:0:0:0:
320,192,154031,1,0,0:0:0:0:
448,192,154125,1,0,0:0:0:0:
320,192,154171,1,0,0:0:0:0:
192,192,154218,1,0,0:0:0:0:
320,192,154265,1,0,0:0:0:0:
192,192,154312,1,0,0:0:0:0:
64,192,154359,1,0,0:0:0:0:
320,192,154406,1,0,0:0:0:0:
192,192,154453,1,0,0:0:0:0:
64,192,154500,1,0,0:0:0:0:
448,192,154500,1,0,0:0:0:0:
448,192,154593,1,0,0:0:0:0:
320,192,154593,1,0,0:0:0:0:
448,192,154687,1,0,0:0:0:0:
320,192,154687,1,0,0:0:0:0:
64,192,154781,1,0,0:0:0:0:
192,192,154781,1,0,0:0:0:0:
192,192,154875,1,0,0:0:0:0:
64,192,154875,1,0,0:0:0:0:
320,192,154968,1,0,0:0:0:0:
192,192,154968,1,0,0:0:0:0:
448,192,155062,1,0,0:0:0:0:
64,192,155062,1,0,0:0:0:0:
192,192,155156,1,0,0:0:0:0:
64,192,155156,1,0,0:0:0:0:
192,192,155250,1,0,0:0:0:0:
320,192,155250,1,0,0:0:0:0:
320,192,155343,1,0,0:0:0:0:
192,192,155343,1,0,0:0:0:0:
448,192,155437,1,0,0:0:0:0:
64,192,155437,1,0,0:0:0:0:
64,192,155531,1,0,0:0:0:0:
448,192,155531,1,0,0:0:0:0:
192,192,155625,1,0,0:0:0:0:
320,192,155625,1,0,0:0:0:0:
320,192,155718,1,0,0:0:0:0:
448,192,155718,1,0,0:0:0:0:
448,192,155812,1,0,0:0:0:0:
320,192,155812,1,0,0:0:0:0:
192,192,155906,1,0,0:0:0:0:
64,192,155906,1,0,0:0:0:0:
448,192,156000,1,0,0:0:0:0:
320,192,156046,1,0,0:0:0:0:
192,192,156093,1,0,0:0:0:0:
320,192,156140,1,0,0:0:0:0:
192,192,156187,1,0,0:0:0:0:
448,192,156234,1,0,0:0:0:0:
320,192,156281,1,0,0:0:0:0:
192,192,156328,1,0,0:0:0:0:
320,192,156375,1,0,0:0:0:0:
192,192,156421,1,0,0:0:0:0:
64,192,156468,1,0,0:0:0:0:
448,192,156515,1,0,0:0:0:0:
64,192,156562,1,0,0:0:0:0:
192,192,156609,1,0,0:0:0:0:
320,192,156656,1,0,0:0:0:0:
192,192,156703,1,0,0:0:0:0:
320,192,156750,1,0,0:0:0:0:
448,192,156796,1,0,0:0:0:0:
64,192,156843,1,0,0:0:0:0:
320,192,156890,1,0,0:0:0:0:
448,192,156937,1,0,0:0:0:0:
320,192,156984,1,0,0:0:0:0:
192,192,157031,1,0,0:0:0:0:
448,192,157078,1,0,0:0:0:0:
320,192,157125,128,0,157218:0:0:0:0:
448,192,157500,5,0,0:0:0:0:
64,192,157500,1,0,0:0:0:0:
320,192,157546,1,0,0:0:0:0:
192,192,157593,1,0,0:0:0:0:
64,192,157640,1,0,0:0:0:0:
320,192,157687,1,0,0:0:0:0:
64,192,157734,1,0,0:0:0:0:
192,192,157781,1,0,0:0:0:0:
320,192,157828,1,0,0:0:0:0:
192,192,157875,1,0,0:0:0:0:
64,192,157875,1,0,0:0:0:0:
320,192,157921,1,0,0:0:0:0:
448,192,157968,1,0,0:0:0:0:
192,192,158015,1,0,0:0:0:0:
320,192,158062,1,0,0:0:0:0:
192,192,158109,1,0,0:0:0:0:
64,192,158156,1,0,0:0:0:0:
192,192,158203,1,0,0:0:0:0:
320,192,158250,1,0,0:0:0:0:
448,192,158250,1,0,0:0:0:0:
64,192,158296,1,0,0:0:0:0:
448,192,158343,1,0,0:0:0:0:
192,192,158390,1,0,0:0:0:0:
320,192,158437,1,0,0:0:0:0:
448,192,158484,1,0,0:0:0:0:
192,192,158531,1,0,0:0:0:0:
320,192,158578,1,0,0:0:0:0:
448,192,158625,1,0,0:0:0:0:
64,192,158625,1,0,0:0:0:0:
192,192,158671,1,0,0:0:0:0:
320,192,158718,1,0,0:0:0:0:
192,192,158765,1,0,0:0:0:0:
64,192,158812,1,0,0:0:0:0:
320,192,158859,1,0,0:0:0:0:
192,192,158906,1,0,0:0:0:0:
320,192,158953,1,0,0:0:0:0:
448,192,159000,1,0,0:0:0:0:
192,192,159000,1,0,0:0:0:0:
64,192,159046,1,0,0:0:0:0:
320,192,159093,1,0,0:0:0:0:
192,192,159140,1,0,0:0:0:0:
64,192,159187,1,0,0:0:0:0:
448,192,159234,1,0,0:0:0:0:
320,192,159281,1,0,0:0:0:0:
64,192,159328,1,0,0:0:0:0:
192,192,159375,1,0,0:0:0:0:
448,192,159375,1,0,0:0:0:0:
320,192,159421,1,0,0:0:0:0:
64,192,159468,1,0,0:0:0:0:
448,192,159515,1,0,0:0:0:0:
192,192,159562,1,0,0:0:0:0:
320,192,159609,1,0,0:0:0:0:
448,192,159656,1,0,0:0:0:0:
192,192,159703,1,0,0:0:0:0:
64,192,159750,1,0,0:0:0:0:
320,192,159750,1,0,0:0:0:0:
448,192,159796,1,0,0:0:0:0:
192,192,159843,1,0,0:0:0:0:
320,192,159890,1,0,0:0:0:0:
64,192,159937,1,0,0:0:0:0:
448,192,159984,1,0,0:0:0:0:
192,192,160031,1,0,0:0:0:0:
64,192,160078,1,0,0:0:0:0:
320,192,160125,1,0,0:0:0:0:
192,192,160125,1,0,0:0:0:0:
448,192,160171,1,0,0:0:0:0:
192,192,160218,1,0,0:0:0:0:
64,192,160265,1,0,0:0:0:0:
320,192,160312,1,0,0:0:0:0:
192,192,160359,1,0,0:0:0:0:
64,192,160406,1,0,0:0:0:0:
192,192,160453,1,0,0:0:0:0:
320,192,160500,1,0,0:0:0:0:
64,192,160500,1,0,0:0:0:0:
448,192,160546,1,0,0:0:0:0:
192,192,160593,1,0,0:0:0:0:
320,192,160640,1,0,0:0:0:0:
448,192,160687,1,0,0:0:0:0:
320,192,160734,1,0,0:0:0:0:
192,192,160781,1,0,0:0:0:0:
64,192,160828,1,0,0:0:0:0:
192,192,160875,1,0,0:0:0:0:
448,192,160875,1,0,0:0:0:0:
320,192,160921,1,0,0:0:0:0:
64,192,160968,1,0,0:0:0:0:
448,192,161015,1,0,0:0:0:0:
192,192,161062,1,0,0:0:0:0:
320,192,161109,1,0,0:0:0:0:
448,192,161156,1,0,0:0:0:0:
64,192,161187,1,0,0:0:0:0:
192,192,161218,1,0,0:0:0:0:
320,192,161250,1,0,0:0:0:0:
448,192,161281,1,0,0:0:0:0:
192,192,161312,1,0,0:0:0:0:
320,192,161343,1,0,0:0:0:0:
448,192,161375,1,0,0:0:0:0:
192,192,161406,1,0,0:0:0:0:
64,192,161437,1,0,0:0:0:0:
320,192,161468,1,0,0:0:0:0:
192,192,161500,1,0,0:0:0:0:
64,192,161531,1,0,0:0:0:0:
448,192,161562,1,0,0:0:0:0:
320,192,161593,1,0,0:0:0:0:
192,192,161625,1,0,0:0:0:0:
448,192,161671,1,0,0:0:0:0:
320,192,161718,1,0,0:0:0:0:
192,192,161765,1,0,0:0:0:0:
64,192,161812,1,0,0:0:0:0:
320,192,161859,1,0,0:0:0:0:
192,192,161906,1,0,0:0:0:0:
320,192,161953,1,0,0:0:0:0:
64,192,162000,1,0,0:0:0:0:
192,192,162046,1,0,0:0:0:0:
320,192,162093,1,0,0:0:0:0:
192,192,162140,1,0,0:0:0:0:
320,192,162187,1,0,0:0:0:0:
448,192,162234,1,0,0:0:0:0:
320,192,162281,1,0,0:0:0:0:
192,192,162328,1,0,0:0:0:0:
64,192,162375,1,0,0:0:0:0:
448,192,162375,1,0,0:0:0:0:
320,192,162421,1,0,0:0:0:0:
192,192,162468,1,0,0:0:0:0:
448,192,162515,1,0,0:0:0:0:
64,192,162562,1,0,0:0:0:0:
192,192,162593,1,0,0:0:0:0:
320,192,162625,1,0,0:0:0:0:
448,192,162656,1,0,0:0:0:0:
192,192,162687,1,0,0:0:0:0:
320,192,162718,1,0,0:0:0:0:
448,192,162750,1,0,0:0:0:0:
192,192,162781,1,0,0:0:0:0:
64,192,162812,1,0,0:0:0:0:
320,192,162843,1,0,0:0:0:0:
192,192,162875,1,0,0:0:0:0:
64,192,162906,1,0,0:0:0:0:
320,192,162937,1,0,0:0:0:0:
192,192,162968,1,0,0:0:0:0:
448,192,163000,1,0,0:0:0:0:
320,192,163031,1,0,0:0:0:0:
192,192,163062,1,0,0:0:0:0:
448,192,163093,1,0,0:0:0:0:
320,192,163125,1,0,0:0:0:0:
192,192,163171,1,0,0:0:0:0:
64,192,163218,1,0,0:0:0:0:
448,192,163265,1,0,0:0:0:0:
320,192,163312,1,0,0:0:0:0:
192,192,163359,1,0,0:0:0:0:
320,192,163406,1,0,0:0:0:0:
192,192,163453,1,0,0:0:0:0:
448,192,163500,1,0,0:0:0:0:
320,192,163546,1,0,0:0:0:0:
448,192,163593,1,0,0:0:0:0:
192,192,163640,1,0,0:0:0:0:
320,192,163687,1,0,0:0:0:0:
192,192,163734,1,0,0:0:0:0:
64,192,163781,1,0,0:0:0:0:
320,192,163828,1,0,0:0:0:0:
448,192,163875,1,0,0:0:0:0:
192,192,163921,1,0,0:0:0:0:
320,192,163968,1,0,0:0:0:0:
64,192,164015,1,0,0:0:0:0:
320,192,164062,1,0,0:0:0:0:
64,192,164109,1,0,0:0:0:0:
448,192,164156,1,0,0:0:0:0:
192,192,164203,1,0,0:0:0:0:
320,192,164250,1,0,0:0:0:0:
192,192,164296,1,0,0:0:0:0:
64,192,164343,1,0,0:0:0:0:
448,192,164390,1,0,0:0:0:0:
320,192,164437,1,0,0:0:0:0:
192,192,164484,1,0,0:0:0:0:
320,192,164531,1,0,0:0:0:0:
192,192,164578,1,0,0:0:0:0:
448,192,164625,1,0,0:0:0:0:
320,192,164648,1,0,0:0:0:0:
320,192,164718,1,0,0:0:0:0:
192,192,164742,1,0,0:0:0:0:
448,192,164812,1,0,0:0:0:0:
192,192,164835,1,0,0:0:0:0:
192,192,164906,1,0,0:0:0:0:
64,192,164929,1,0,0:0:0:0:
64,192,165000,1,0,0:0:0:0:
192,192,165046,1,0,0:0:0:0:
64,192,165093,1,0,0:0:0:0:
320,192,165140,1,0,0:0:0:0:
192,192,165187,1,0,0:0:0:0:
320,192,165234,1,0,0:0:0:0:
448,192,165281,1,0,0:0:0:0:
192,192,165328,1,0,0:0:0:0:
64,192,165375,1,0,0:0:0:0:
320,192,165421,1,0,0:0:0:0:
192,192,165468,1,0,0:0:0:0:
448,192,165515,1,0,0:0:0:0:
192,192,165562,1,0,0:0:0:0:
448,192,165609,1,0,0:0:0:0:
64,192,165656,1,0,0:0:0:0:
320,192,165703,1,0,0:0:0:0:
192,192,165750,1,0,0:0:0:0:
320,192,165796,1,0,0:0:0:0:
448,192,165843,1,0,0:0:0:0:
64,192,165890,1,0,0:0:0:0:
192,192,165937,1,0,0:0:0:0:
320,192,165984,1,0,0:0:0:0:
192,192,166031,1,0,0:0:0:0:
320,192,166078,1,0,0:0:0:0:
64,192,166125,1,0,0:0:0:0:
192,192,166148,1,0,0:0:0:0:
192,192,166218,1,0,0:0:0:0:
320,192,166242,1,0,0:0:0:0:
64,192,166312,1,0,0:0:0:0:
320,192,166335,1,0,0:0:0:0:
320,192,166406,1,0,0:0:0:0:
448,192,166429,1,0,0:0:0:0:
64,192,166500,1,0,0:0:0:0:
192,192,166546,1,0,0:0:0:0:
64,192,166593,1,0,0:0:0:0:
320,192,166640,1,0,0:0:0:0:
192,192,166687,1,0,0:0:0:0:
320,192,166734,1,0,0:0:0:0:
448,192,166781,1,0,0:0:0:0:
192,192,166828,1,0,0:0:0:0:
64,192,166875,1,0,0:0:0:0:
320,192,166921,1,0,0:0:0:0:
192,192,166968,1,0,0:0:0:0:
448,192,167015,1,0,0:0:0:0:
192,192,167062,1,0,0:0:0:0:
448,192,167109,1,0,0:0:0:0:
64,192,167156,1,0,0:0:0:0:
320,192,167203,1,0,0:0:0:0:
192,192,167250,1,0,0:0:0:0:
320,192,167296,1,0,0:0:0:0:
448,192,167343,1,0,0:0:0:0:
64,192,167390,1,0,0:0:0:0:
192,192,167437,1,0,0:0:0:0:
320,192,167484,1,0,0:0:0:0:
192,192,167531,1,0,0:0:0:0:
320,192,167578,1,0,0:0:0:0:
448,192,167625,1,0,0:0:0:0:
320,192,167671,1,0,0:0:0:0:
192,192,167718,1,0,0:0:0:0:
448,192,167765,1,0,0:0:0:0:
64,192,167812,1,0,0:0:0:0:
192,192,167859,1,0,0:0:0:0:
64,192,167906,1,0,0:0:0:0:
320,192,167953,1,0,0:0:0:0:
192,192,168000,1,0,0:0:0:0:
64,192,168031,1,0,0:0:0:0:
320,192,168062,1,0,0:0:0:0:
192,192,168093,1,0,0:0:0:0:
64,192,168125,1,0,0:0:0:0:
320,192,168156,1,0,0:0:0:0:
448,192,168187,1,0,0:0:0:0:
192,192,168218,1,0,0:0:0:0:
320,192,168250,1,0,0:0:0:0:
448,192,168281,1,0,0:0:0:0:
64,192,168312,1,0,0:0:0:0:
192,192,168343,1,0,0:0:0:0:
320,192,168375,1,0,0:0:0:0:
448,192,168406,1,0,0:0:0:0:
192,192,168437,1,0,0:0:0:0:
64,192,168468,1,0,0:0:0:0:
320,192,168500,1,0,0:0:0:0:
192,192,168531,1,0,0:0:0:0:
64,192,168562,1,0,0:0:0:0:
320,192,168593,1,0,0:0:0:0:
448,192,168625,1,0,0:0:0:0:
192,192,168656,1,0,0:0:0:0:
64,192,168687,1,0,0:0:0:0:
448,192,168718,1,0,0:0:0:0:
320,192,168750,1,0,0:0:0:0:
192,192,168781,1,0,0:0:0:0:
64,192,168812,1,0,0:0:0:0:
320,192,168843,1,0,0:0:0:0:
448,192,168875,1,0,0:0:0:0:
192,192,168906,1,0,0:0:0:0:
320,192,168937,1,0,0:0:0:0:
448,192,168968,1,0,0:0:0:0:
192,192,169000,1,0,0:0:0:0:
64,192,169031,1,0,0:0:0:0:
320,192,169062,1,0,0:0:0:0:
192,192,169093,1,0,0:0:0:0:
448,192,169125,1,0,0:0:0:0:
320,192,169156,1,0,0:0:0:0:
192,192,169187,1,0,0:0:0:0:
64,192,169218,1,0,0:0:0:0:
448,192,169250,1,0,0:0:0:0:
320,192,169281,1,0,0:0:0:0:
192,192,169312,1,0,0:0:0:0:
448,192,169343,1,0,0:0:0:0:
320,192,169375,1,0,0:0:0:0:
64,192,169406,1,0,0:0:0:0:
192,192,169437,1,0,0:0:0:0:
320,192,169468,1,0,0:0:0:0:
448,192,169500,1,0,0:0:0:0:
64,192,169500,1,0,0:0:0:0:
192,192,169593,1,0,0:0:0:0:
320,192,169593,1,0,0:0:0:0:
320,192,169687,1,0,0:0:0:0:
448,192,169687,1,0,0:0:0:0:
448,192,169781,1,0,0:0:0:0:
192,192,169781,1,0,0:0:0:0:
192,192,169875,1,0,0:0:0:0:
64,192,169875,1,0,0:0:0:0:
64,192,169968,1,0,0:0:0:0:
320,192,169968,1,0,0:0:0:0:
192,192,170062,1,0,0:0:0:0:
320,192,170062,1,0,0:0:0:0:
448,192,170156,1,0,0:0:0:0:
320,192,170156,1,0,0:0:0:0:
448,192,170250,1,0,0:0:0:0:
320,192,170296,1,0,0:0:0:0:
192,192,170343,1,0,0:0:0:0:
320,192,170390,1,0,0:0:0:0:
448,192,170437,1,0,0:0:0:0:
64,192,170484,1,0,0:0:0:0:
192,192,170531,1,0,0:0:0:0:
320,192,170578,1,0,0:0:0:0:
192,192,170625,1,0,0:0:0:0:
64,192,170671,1,0,0:0:0:0:
448,192,170718,1,0,0:0:0:0:
320,192,170765,1,0,0:0:0:0:
64,192,170812,1,0,0:0:0:0:
192,192,170812,1,0,0:0:0:0:
192,192,170906,1,0,0:0:0:0:
320,192,170906,1,0,0:0:0:0:
320,192,171000,1,0,0:0:0:0:
448,192,171000,1,0,0:0:0:0:
192,192,171093,1,0,0:0:0:0:
64,192,171093,1,0,0:0:0:0:
320,192,171187,1,0,0:0:0:0:
448,192,171187,1,0,0:0:0:0:
192,192,171281,1,0,0:0:0:0:
320,192,171281,1,0,0:0:0:0:
448,192,171375,1,0,0:0:0:0:
192,192,171375,1,0,0:0:0:0:
448,192,171468,1,0,0:0:0:0:
64,192,171468,1,0,0:0:0:0:
320,192,171562,1,0,0:0:0:0:
192,192,171562,1,0,0:0:0:0:
192,192,171656,1,0,0:0:0:0:
64,192,171656,1,0,0:0:0:0:
320,192,171750,1,0,0:0:0:0:
448,192,171750,1,0,0:0:0:0:
64,192,171750,1,0,0:0:0:0:
320,192,171843,1,0,0:0:0:0:
192,192,171843,1,0,0:0:0:0:
192,192,171937,1,0,0:0:0:0:
64,192,171937,1,0,0:0:0:0:
64,192,172031,1,0,0:0:0:0:
448,192,172031,1,0,0:0:0:0:
448,192,172125,1,0,0:0:0:0:
320,192,172125,1,0,0:0:0:0:
64,192,172218,1,0,0:0:0:0:
320,192,172218,1,0,0:0:0:0:
448,192,172312,1,0,0:0:0:0:
64,192,172312,1,0,0:0:0:0:
192,192,172406,1,0,0:0:0:0:
448,192,172406,1,0,0:0:0:0:
192,192,172500,1,0,0:0:0:0:
320,192,172500,1,0,0:0:0:0:
320,192,172593,1,0,0:0:0:0:
64,192,172593,1,0,0:0:0:0:
448,192,172687,1,0,0:0:0:0:
64,192,172687,1,0,0:0:0:0:
192,192,172781,1,0,0:0:0:0:
320,192,172781,1,0,0:0:0:0:
192,192,172875,1,0,0:0:0:0:
64,192,172875,1,0,0:0:0:0:
64,192,172968,1,0,0:0:0:0:
320,192,172968,1,0,0:0:0:0:
320,192,173062,1,0,0:0:0:0:
192,192,173062,1,0,0:0:0:0:
192,192,173156,1,0,0:0:0:0:
448,192,173156,1,0,0:0:0:0:
448,192,173250,1,0,0:0:0:0:
320,192,173250,1,0,0:0:0:0:
64,192,173437,1,0,0:0:0:0:
448,192,173437,1,0,0:0:0:0:
192,192,173625,1,0,0:0:0:0:
64,192,173625,1,0,0:0:0:0:
64,192,173718,1,0,0:0:0:0:
320,192,173718,1,0,0:0:0:0:
448,192,173812,1,0,0:0:0:0:
192,192,173812,1,0,0:0:0:0:
192,192,173906,1,0,0:0:0:0:
64,192,173906,1,0,0:0:0:0:
320,192,174000,1,0,0:0:0:0:
448,192,174000,1,0,0:0:0:0:
320,192,174093,1,0,0:0:0:0:
192,192,174093,1,0,0:0:0:0:
192,192,174187,1,0,0:0:0:0:
448,192,174187,1,0,0:0:0:0:
320,192,174281,1,0,0:0:0:0:
64,192,174281,1,0,0:0:0:0:
320,192,174375,1,0,0:0:0:0:
448,192,174375,1,0,0:0:0:0:
64,192,174468,1,0,0:0:0:0:
448,192,174468,1,0,0:0:0:0:
192,192,174562,1,0,0:0:0:0:
320,192,174562,1,0,0:0:0:0:
64,192,174656,1,0,0:0:0:0:
320,192,174656,1,0,0:0:0:0:
192,192,174750,1,0,0:0:0:0:
448,192,174750,1,0,0:0:0:0:
192,192,174843,1,0,0:0:0:0:
64,192,174843,1,0,0:0:0:0:
320,192,174937,1,0,0:0:0:0:
448,192,174937,1,0,0:0:0:0:
448,192,175031,1,0,0:0:0:0:
192,192,175031,1,0,0:0:0:0:
64,192,175125,1,0,0:0:0:0:
192,192,175125,1,0,0:0:0:0:
448,192,175218,1,0,0:0:0:0:
320,192,175218,1,0,0:0:0:0:
320,192,175312,1,0,0:0:0:0:
448,192,175312,1,0,0:0:0:0:
448,192,175406,1,0,0:0:0:0:
320,192,175406,1,0,0:0:0:0:
64,192,175500,1,0,0:0:0:0:
192,192,175500,1,0,0:0:0:0:
320,192,175593,1,0,0:0:0:0:
64,192,175593,1,0,0:0:0:0:
320,192,175687,1,0,0:0:0:0:
192,192,175687,128,0,175968:0:0:0:0:
64,192,175968,1,0,0:0:0:0:
320,192,175968,1,0,0:0:0:0:
192,192,176062,1,0,0:0:0:0:
320,192,176062,1,0,0:0:0:0:
448,192,176156,1,0,0:0:0:0:
192,192,176156,1,0,0:0:0:0:
448,192,176250,1,0,0:0:0:0:
320,192,176250,128,0,176531:0:0:0:0:
192,192,176531,1,0,0:0:0:0:
448,192,176531,1,0,0:0:0:0:
192,192,176625,1,0,0:0:0:0:
64,192,176625,1,0,0:0:0:0:
64,192,176718,1,0,0:0:0:0:
320,192,176718,1,0,0:0:0:0:
320,192,176812,1,0,0:0:0:0:
192,192,176812,1,0,0:0:0:0:
192,192,176906,1,0,0:0:0:0:
448,192,176906,1,0,0:0:0:0:
320,192,177000,1,0,0:0:0:0:
448,192,177000,128,0,177187:0:0:0:0:
192,192,177281,1,0,0:0:0:0:
64,192,177312,1,0,0:0:0:0:
448,192,177375,128,0,177562:0:0:0:0:
320,192,177593,1,0,0:0:0:0:
192,192,177625,1,0,0:0:0:0:
448,192,177750,1,0,0:0:0:0:
64,192,177750,1,0,0:0:0:0:
320,192,177843,1,0,0:0:0:0:
448,192,177843,1,0,0:0:0:0:
320,192,177937,1,0,0:0:0:0:
192,192,177937,1,0,0:0:0:0:
192,192,178031,1,0,0:0:0:0:
64,192,178031,1,0,0:0:0:0:
64,192,178125,1,0,0:0:0:0:
192,192,178218,1,0,0:0:0:0:
320,192,178218,1,0,0:0:0:0:
448,192,178312,1,0,0:0:0:0:
192,192,178312,1,0,0:0:0:0:
64,192,178312,1,0,0:0:0:0:
320,192,178406,1,0,0:0:0:0:
448,192,178406,1,0,0:0:0:0:
448,192,178500,128,0,178687:0:0:0:0:
64,192,178500,1,0,0:0:0:0:
192,192,178500,1,0,0:0:0:0:
64,192,178781,1,0,0:0:0:0:
320,192,178781,1,0,0:0:0:0:
448,192,178875,1,0,0:0:0:0:
320,192,178875,1,0,0:0:0:0:
320,192,178968,1,0,0:0:0:0:
192,192,178968,1,0,0:0:0:0:
192,192,179062,1,0,0:0:0:0:
448,192,179062,1,0,0:0:0:0:
64,192,179062,128,0,179250:0:0:0:0:
192,192,179250,1,0,0:0:0:0:
320,192,179343,1,0,0:0:0:0:
448,192,179437,1,0,0:0:0:0:
64,192,179531,1,0,0:0:0:0:
320,192,179625,1,0,0:0:0:0:
192,192,179625,1,0,0:0:0:0:
192,192,179718,1,0,0:0:0:0:
448,192,179718,1,0,0:0:0:0:
448,192,179812,1,0,0:0:0:0:
320,192,179812,1,0,0:0:0:0:
448,192,179906,1,0,0:0:0:0:
64,192,179906,1,0,0:0:0:0:
64,192,180000,1,0,0:0:0:0:
192,192,180031,1,0,0:0:0:0:
320,192,180062,1,0,0:0:0:0:
64,192,180093,1,0,0:0:0:0:
192,192,180125,1,0,0:0:0:0:
320,192,180156,1,0,0:0:0:0:
448,192,180187,1,0,0:0:0:0:
192,192,180218,1,0,0:0:0:0:
320,192,180250,1,0,0:0:0:0:
448,192,180281,1,0,0:0:0:0:
192,192,180312,1,0,0:0:0:0:
64,192,180343,1,0,0:0:0:0:
320,192,180375,1,0,0:0:0:0:
192,192,180406,1,0,0:0:0:0:
64,192,180437,1,0,0:0:0:0:
320,192,180468,1,0,0:0:0:0:
448,192,180500,1,0,0:0:0:0:
192,192,180531,1,0,0:0:0:0:
320,192,180562,1,0,0:0:0:0:
448,192,180593,1,0,0:0:0:0:
64,192,180625,1,0,0:0:0:0:
192,192,180656,1,0,0:0:0:0:
320,192,180687,1,0,0:0:0:0:
448,192,180718,1,0,0:0:0:0:
64,192,180750,1,0,0:0:0:0:
448,192,180843,1,0,0:0:0:0:
320,192,180937,1,0,0:0:0:0:
192,192,181031,1,0,0:0:0:0:
320,192,181125,1,0,0:0:0:0:
192,192,181218,1,0,0:0:0:0:
64,192,181312,1,0,0:0:0:0:
64,192,181406,1,0,0:0:0:0:
448,192,181500,1,0,0:0:0:0:
320,192,181500,1,0,0:0:0:0:
192,192,181562,1,0,0:0:0:0:
320,192,181625,1,0,0:0:0:0:
64,192,181687,1,0,0:0:0:0:
192,192,181750,1,0,0:0:0:0:
64,192,181781,1,0,0:0:0:0:
320,192,181781,1,0,0:0:0:0:
192,192,181812,1,0,0:0:0:0:
320,192,181875,1,0,0:0:0:0:
448,192,181875,1,0,0:0:0:0:
192,192,181937,1,0,0:0:0:0:
320,192,182000,1,0,0:0:0:0:
64,192,182062,1,0,0:0:0:0:
448,192,182062,1,0,0:0:0:0:
320,192,182125,1,0,0:0:0:0:
192,192,182156,1,0,0:0:0:0:
448,192,182156,1,0,0:0:0:0:
320,192,182250,1,0,0:0:0:0:
192,192,182250,1,0,0:0:0:0:
64,192,182312,1,0,0:0:0:0:
448,192,182343,1,0,0:0:0:0:
320,192,182343,1,0,0:0:0:0:
192,192,182437,1,0,0:0:0:0:
448,192,182437,1,0,0:0:0:0:
448,192,182531,1,0,0:0:0:0:
64,192,182531,1,0,0:0:0:0:
320,192,182562,1,0,0:0:0:0:
192,192,182625,1,0,0:0:0:0:
320,192,182687,1,0,0:0:0:0:
192,192,182750,1,0,0:0:0:0:
448,192,182812,1,0,0:0:0:0:
320,192,182812,1,0,0:0:0:0:
64,192,182875,1,0,0:0:0:0:
320,192,182906,1,0,0:0:0:0:
192,192,182906,1,0,0:0:0:0:
448,192,182937,1,0,0:0:0:0:
64,192,183000,1,0,0:0:0:0:
192,192,183000,1,0,0:0:0:0:
320,192,183062,1,0,0:0:0:0:
64,192,183125,1,0,0:0:0:0:
192,192,183187,1,0,0:0:0:0:
448,192,183187,1,0,0:0:0:0:
320,192,183250,1,0,0:0:0:0:
192,192,183312,1,0,0:0:0:0:
320,192,183375,1,0,0:0:0:0:
448,192,183375,1,0,0:0:0:0:
192,192,183437,1,0,0:0:0:0:
320,192,183500,1,0,0:0:0:0:
192,192,183562,1,0,0:0:0:0:
64,192,183562,1,0,0:0:0:0:
448,192,183625,1,0,0:0:0:0:
320,192,183687,1,0,0:0:0:0:
448,192,183750,1,0,0:0:0:0:
192,192,183750,1,0,0:0:0:0:
320,192,183843,1,0,0:0:0:0:
64,192,183843,1,0,0:0:0:0:
448,192,183875,1,0,0:0:0:0:
192,192,183937,1,0,0:0:0:0:
320,192,183937,1,0,0:0:0:0:
64,192,184000,1,0,0:0:0:0:
320,192,184031,1,0,0:0:0:0:
448,192,184031,1,0,0:0:0:0:
192,192,184062,1,0,0:0:0:0:
448,192,184125,1,0,0:0:0:0:
320,192,184171,1,0,0:0:0:0:
192,192,184218,1,0,0:0:0:0:
320,192,184265,1,0,0:0:0:0:
192,192,184312,1,0,0:0:0:0:
64,192,184359,1,0,0:0:0:0:
192,192,184406,1,0,0:0:0:0:
320,192,184453,1,0,0:0:0:0:
64,192,184500,1,0,0:0:0:0:
192,192,184531,1,0,0:0:0:0:
320,192,184562,1,0,0:0:0:0:
64,192,184593,1,0,0:0:0:0:
192,192,184625,1,0,0:0:0:0:
448,192,184656,1,0,0:0:0:0:
320,192,184687,1,0,0:0:0:0:
192,192,184718,1,0,0:0:0:0:
64,192,184750,1,0,0:0:0:0:
320,192,184781,1,0,0:0:0:0:
192,192,184812,1,0,0:0:0:0:
64,192,184843,1,0,0:0:0:0:
320,192,184875,1,0,0:0:0:0:
448,192,184906,1,0,0:0:0:0:
192,192,184937,1,0,0:0:0:0:
320,192,184968,1,0,0:0:0:0:
448,192,185000,1,0,0:0:0:0:
192,192,185031,1,0,0:0:0:0:
64,192,185062,1,0,0:0:0:0:
320,192,185093,1,0,0:0:0:0:
192,192,185125,1,0,0:0:0:0:
64,192,185156,1,0,0:0:0:0:
320,192,185187,1,0,0:0:0:0:
192,192,185218,1,0,0:0:0:0:
448,192,185250,1,0,0:0:0:0:
64,192,185250,1,0,0:0:0:0:
64,192,185343,1,0,0:0:0:0:
192,192,185343,1,0,0:0:0:0:
320,192,185437,1,0,0:0:0:0:
192,192,185437,1,0,0:0:0:0:
320,192,185531,1,0,0:0:0:0:
64,192,185531,1,0,0:0:0:0:
192,192,185625,1,0,0:0:0:0:
64,192,185625,1,0,0:0:0:0:
192,192,185718,1,0,0:0:0:0:
448,192,185718,1,0,0:0:0:0:
448,192,185812,1,0,0:0:0:0:
64,192,185812,1,0,0:0:0:0:
192,192,185906,1,0,0:0:0:0:
64,192,185906,1,0,0:0:0:0:
448,192,186000,1,0,0:0:0:0:
320,192,186031,1,0,0:0:0:0:
192,192,186062,1,0,0:0:0:0:
64,192,186093,1,0,0:0:0:0:
192,192,186125,1,0,0:0:0:0:
64,192,186156,1,0,0:0:0:0:
320,192,186187,1,0,0:0:0:0:
448,192,186218,1,0,0:0:0:0:
192,192,186250,1,0,0:0:0:0:
320,192,186281,1,0,0:0:0:0:
448,192,186312,1,0,0:0:0:0:
192,192,186343,1,0,0:0:0:0:
320,192,186375,1,0,0:0:0:0:
64,192,186406,1,0,0:0:0:0:
192,192,186437,1,0,0:0:0:0:
320,192,186468,1,0,0:0:0:0:
448,192,186500,1,0,0:0:0:0:
192,192,186531,1,0,0:0:0:0:
64,192,186562,1,0,0:0:0:0:
320,192,186593,1,0,0:0:0:0:
192,192,186625,1,0,0:0:0:0:
64,192,186656,1,0,0:0:0:0:
320,192,186687,1,0,0:0:0:0:
192,192,186718,1,0,0:0:0:0:
448,192,186750,1,0,0:0:0:0:
192,192,186843,1,0,0:0:0:0:
320,192,186937,1,0,0:0:0:0:
64,192,187031,1,0,0:0:0:0:
448,192,187125,1,0,0:0:0:0:
320,192,187218,1,0,0:0:0:0:
192,192,187312,1,0,0:0:0:0:
64,192,187406,1,0,0:0:0:0:
192,192,187500,1,0,0:0:0:0:
448,192,187781,1,0,0:0:0:0:
320,192,187781,1,0,0:0:0:0:
64,192,187781,1,0,0:0:0:0:
64,192,187875,1,0,0:0:0:0:
192,192,187875,1,0,0:0:0:0:
192,192,187968,1,0,0:0:0:0:
448,192,187968,1,0,0:0:0:0:
448,192,188062,1,0,0:0:0:0:
320,192,188062,1,0,0:0:0:0:
64,192,188250,1,0,0:0:0:0:
192,192,188250,1,0,0:0:0:0:
320,192,188343,1,0,0:0:0:0:
64,192,188343,1,0,0:0:0:0:
192,192,188437,1,0,0:0:0:0:
320,192,188437,1,0,0:0:0:0:
448,192,188531,1,0,0:0:0:0:
192,192,188531,1,0,0:0:0:0:
320,192,188625,1,0,0:0:0:0:
448,192,188625,1,0,0:0:0:0:
64,192,188812,1,0,0:0:0:0:
320,192,188812,1,0,0:0:0:0:
192,192,188906,1,0,0:0:0:0:
64,192,188906,1,0,0:0:0:0:
448,192,189000,1,0,0:0:0:0:
320,192,189000,1,0,0:0:0:0:
192,192,189062,1,0,0:0:0:0:
64,192,189125,1,0,0:0:0:0:
320,192,189187,1,0,0:0:0:0:
448,192,189187,1,0,0:0:0:0:
192,192,189250,1,0,0:0:0:0:
64,192,189312,1,0,0:0:0:0:
448,192,189375,1,0,0:0:0:0:
192,192,189375,1,0,0:0:0:0:
320,192,189437,1,0,0:0:0:0:
64,192,189500,1,0,0:0:0:0:
448,192,189562,1,0,0:0:0:0:
192,192,189562,1,0,0:0:0:0:
320,192,189625,1,0,0:0:0:0:
192,192,189687,1,0,0:0:0:0:
448,192,189750,1,0,0:0:0:0:
320,192,189750,1,0,0:0:0:0:
192,192,189812,1,0,0:0:0:0:
64,192,189875,1,0,0:0:0:0:
320,192,189937,1,0,0:0:0:0:
448,192,189937,1,0,0:0:0:0:
192,192,190000,1,0,0:0:0:0:
64,192,190062,1,0,0:0:0:0:
448,192,190125,1,0,0:0:0:0:
192,192,190125,1,0,0:0:0:0:
320,192,190187,1,0,0:0:0:0:
64,192,190250,1,0,0:0:0:0:
448,192,190312,1,0,0:0:0:0:
192,192,190312,1,0,0:0:0:0:
320,192,190375,1,0,0:0:0:0:
192,192,190437,1,0,0:0:0:0:
320,192,190500,1,0,0:0:0:0:
448,192,190500,1,0,0:0:0:0:
64,192,190500,1,0,0:0:0:0:
192,192,190687,1,0,0:0:0:0:
64,192,190687,1,0,0:0:0:0:
320,192,190781,1,0,0:0:0:0:
192,192,190781,1,0,0:0:0:0:
192,192,190875,1,0,0:0:0:0:
64,192,190875,1,0,0:0:0:0:
320,192,190968,1,0,0:0:0:0:
448,192,190968,1,0,0:0:0:0:
320,192,191062,1,0,0:0:0:0:
192,192,191062,1,0,0:0:0:0:
448,192,191250,1,0,0:0:0:0:
320,192,191312,1,0,0:0:0:0:
192,192,191375,1,0,0:0:0:0:
320,192,191437,1,0,0:0:0:0:
192,192,191500,1,0,0:0:0:0:
64,192,191562,1,0,0:0:0:0:
192,192,191625,1,0,0:0:0:0:
64,192,191687,1,0,0:0:0:0:
192,192,191750,1,0,0:0:0:0:
320,192,191812,1,0,0:0:0:0:
64,192,191906,1,0,0:0:0:0:
192,192,192000,1,0,0:0:0:0:
320,192,192093,1,0,0:0:0:0:
448,192,192187,1,0,0:0:0:0:
448,192,192281,1,0,0:0:0:0:
64,192,192375,1,0,0:0:0:0:
192,192,192398,1,0,0:0:0:0:
320,192,192421,1,0,0:0:0:0:
448,192,192445,1,0,0:0:0:0:
192,192,192468,1,0,0:0:0:0:
64,192,192492,1,0,0:0:0:0:
320,192,192515,1,0,0:0:0:0:
448,192,192539,1,0,0:0:0:0:
64,192,192562,1,0,0:0:0:0:
192,192,192585,1,0,0:0:0:0:
448,192,192609,1,0,0:0:0:0:
320,192,192632,1,0,0:0:0:0:
64,192,192656,1,0,0:0:0:0:
192,192,192679,1,0,0:0:0:0:
320,192,192703,1,0,0:0:0:0:
448,192,192726,1,0,0:0:0:0:
64,192,192750,1,0,0:0:0:0:
192,192,192781,1,0,0:0:0:0:
320,192,192812,1,0,0:0:0:0:
448,192,192843,1,0,0:0:0:0:
192,192,192875,1,0,0:0:0:0:
64,192,192906,1,0,0:0:0:0:
320,192,192937,1,0,0:0:0:0:
192,192,192968,1,0,0:0:0:0:
64,192,193000,1,0,0:0:0:0:
320,192,193031,1,0,0:0:0:0:
448,192,193062,1,0,0:0:0:0:
192,192,193093,1,0,0:0:0:0:
320,192,193125,1,0,0:0:0:0:
448,192,193156,1,0,0:0:0:0:
192,192,193187,1,0,0:0:0:0:
320,192,193218,1,0,0:0:0:0:
64,192,193250,1,0,0:0:0:0:
192,192,193281,1,0,0:0:0:0:
320,192,193312,1,0,0:0:0:0:
64,192,193343,1,0,0:0:0:0:
192,192,193375,1,0,0:0:0:0:
320,192,193406,1,0,0:0:0:0:
448,192,193437,1,0,0:0:0:0:
64,192,193468,1,0,0:0:0:0:
192,192,193500,128,0,194250:0:0:0:0:
448,192,193687,1,0,0:0:0:0:
320,192,193875,1,0,0:0:0:0:
64,192,194062,1,0,0:0:0:0:
320,192,194625,1,0,0:0:0:0:
448,192,194812,1,0,0:0:0:0:
320,192,195000,1,0,0:0:0:0:
64,192,195187,1,0,0:0:0:0:
192,192,195750,1,0,0:0:0:0:
64,192,195843,1,0,0:0:0:0:
192,192,195937,1,0,0:0:0:0:
320,192,196031,1,0,0:0:0:0:
192,192,196125,1,0,0:0:0:0:
320,192,196218,1,0,0:0:0:0:
192,192,196312,1,0,0:0:0:0:
320,192,196406,1,0,0:0:0:0:
192,192,196500,1,0,0:0:0:0:
448,192,196687,1,0,0:0:0:0:
320,192,196875,1,0,0:0:0:0:
64,192,197062,1,0,0:0:0:0:
448,192,197625,1,0,0:0:0:0:
320,192,197812,1,0,0:0:0:0:
192,192,198000,1,0,0:0:0:0:
320,192,198187,1,0,0:0:0:0:
448,192,198281,1,0,0:0:0:0:
192,192,198375,1,0,0:0:0:0:
64,192,198562,1,0,0:0:0:0:
64,192,198937,1,0,0:0:0:0:
448,192,199125,1,0,0:0:0:0:
320,192,199125,1,0,0:0:0:0:
448,192,199218,1,0,0:0:0:0:
320,192,199218,1,0,0:0:0:0:
320,192,199312,1,0,0:0:0:0:
448,192,199312,1,0,0:0:0:0:
320,192,199406,1,0,0:0:0:0:
448,192,199406,1,0,0:0:0:0:
192,192,199500,1,0,0:0:0:0:
320,192,199500,1,0,0:0:0:0:
192,192,199593,1,0,0:0:0:0:
64,192,199593,1,0,0:0:0:0:
448,192,199687,1,0,0:0:0:0:
320,192,199687,1,0,0:0:0:0:
64,192,199781,1,0,0:0:0:0:
192,192,199781,1,0,0:0:0:0:
448,192,199875,1,0,0:0:0:0:
192,192,199875,1,0,0:0:0:0:
64,192,199968,1,0,0:0:0:0:
192,192,199968,1,0,0:0:0:0:
320,192,200062,1,0,0:0:0:0:
192,192,200062,1,0,0:0:0:0:
64,192,200156,1,0,0:0:0:0:
192,192,200156,1,0,0:0:0:0:
192,192,200437,1,0,0:0:0:0:
64,192,200437,1,0,0:0:0:0:
192,192,200531,1,0,0:0:0:0:
320,192,200531,1,0,0:0:0:0:
320,192,200625,1,0,0:0:0:0:
448,192,200625,1,0,0:0:0:0:
192,192,200718,1,0,0:0:0:0:
64,192,200718,1,0,0:0:0:0:
448,192,200812,1,0,0:0:0:0:
192,192,200812,1,0,0:0:0:0:
64,192,200906,1,0,0:0:0:0:
192,192,200906,1,0,0:0:0:0:
320,192,201000,1,0,0:0:0:0:
448,192,201000,1,0,0:0:0:0:
192,192,201093,1,0,0:0:0:0:
64,192,201093,1,0,0:0:0:0:
320,192,201187,1,0,0:0:0:0:
192,192,201187,1,0,0:0:0:0:
192,192,201468,1,0,0:0:0:0:
320,192,201468,1,0,0:0:0:0:
64,192,201562,1,0,0:0:0:0:
320,192,201562,1,0,0:0:0:0:
192,192,201656,1,0,0:0:0:0:
64,192,201656,1,0,0:0:0:0:
192,192,201750,1,0,0:0:0:0:
320,192,201750,1,0,0:0:0:0:
320,192,201843,1,0,0:0:0:0:
448,192,201843,1,0,0:0:0:0:
448,192,201937,1,0,0:0:0:0:
192,192,201937,1,0,0:0:0:0:
320,192,202031,1,0,0:0:0:0:
64,192,202031,1,0,0:0:0:0:
64,192,202125,1,0,0:0:0:0:
192,192,202125,1,0,0:0:0:0:
320,192,202218,1,0,0:0:0:0:
448,192,202218,1,0,0:0:0:0:
320,192,202312,1,0,0:0:0:0:
192,192,202312,1,0,0:0:0:0:
192,192,202406,1,0,0:0:0:0:
448,192,202406,1,0,0:0:0:0:
320,192,202500,1,0,0:0:0:0:
448,192,202500,1,0,0:0:0:0:
192,192,202687,1,0,0:0:0:0:
320,192,202687,1,0,0:0:0:0:
64,192,203062,1,0,0:0:0:0:
448,192,203062,1,0,0:0:0:0:
64,192,203437,1,0,0:0:0:0:
320,192,203437,1,0,0:0:0:0:
192,192,203625,1,0,0:0:0:0:
320,192,203625,1,0,0:0:0:0:
192,192,203812,1,0,0:0:0:0:
448,192,203812,1,0,0:0:0:0:
64,192,204000,1,0,0:0:0:0:
320,192,204000,1,0,0:0:0:0:
448,192,204093,1,0,0:0:0:0:
192,192,204093,1,0,0:0:0:0:
320,192,204187,1,0,0:0:0:0:
448,192,204187,1,0,0:0:0:0:
320,192,204281,1,0,0:0:0:0:
192,192,204281,1,0,0:0:0:0:
192,192,204375,1,0,0:0:0:0:
64,192,204375,1,0,0:0:0:0:
320,192,204468,1,0,0:0:0:0:
64,192,204468,1,0,0:0:0:0:
320,192,204562,1,0,0:0:0:0:
448,192,204562,1,0,0:0:0:0:
192,192,204656,1,0,0:0:0:0:
320,192,204656,1,0,0:0:0:0:
448,192,204750,1,0,0:0:0:0:
192,192,204750,1,0,0:0:0:0:
320,192,204796,1,0,0:0:0:0:
64,192,204843,1,0,0:0:0:0:
320,192,204937,1,0,0:0:0:0:
64,192,204937,1,0,0:0:0:0:
64,192,205031,1,0,0:0:0:0:
192,192,205031,1,0,0:0:0:0:
448,192,205078,1,0,0:0:0:0:
192,192,205125,1,0,0:0:0:0:
320,192,205171,1,0,0:0:0:0:
192,192,205218,1,0,0:0:0:0:
64,192,205265,1,0,0:0:0:0:
448,192,205312,1,0,0:0:0:0:
192,192,205359,1,0,0:0:0:0:
320,192,205406,1,0,0:0:0:0:
448,192,205453,1,0,0:0:0:0:
320,192,205500,1,0,0:0:0:0:
64,192,205500,1,0,0:0:0:0:
192,192,205546,1,0,0:0:0:0:
64,192,205593,1,0,0:0:0:0:
448,192,205640,1,0,0:0:0:0:
320,192,205687,1,0,0:0:0:0:
192,192,205734,1,0,0:0:0:0:
64,192,205781,1,0,0:0:0:0:
320,192,205828,1,0,0:0:0:0:
448,192,205875,1,0,0:0:0:0:
192,192,205921,1,0,0:0:0:0:
320,192,205968,1,0,0:0:0:0:
192,192,206015,1,0,0:0:0:0:
64,192,206062,1,0,0:0:0:0:
320,192,206109,1,0,0:0:0:0:
192,192,206156,1,0,0:0:0:0:
320,192,206203,1,0,0:0:0:0:
448,192,206250,1,0,0:0:0:0:
64,192,206296,1,0,0:0:0:0:
448,192,206343,1,0,0:0:0:0:
64,192,206390,1,0,0:0:0:0:
448,192,206437,1,0,0:0:0:0:
64,192,206484,1,0,0:0:0:0:
448,192,206531,1,0,0:0:0:0:
64,192,206578,1,0,0:0:0:0:
320,192,206625,1,0,0:0:0:0:
192,192,206671,1,0,0:0:0:0:
320,192,206718,1,0,0:0:0:0:
192,192,206765,1,0,0:0:0:0:
64,192,206812,1,0,0:0:0:0:
192,192,206859,1,0,0:0:0:0:
320,192,206906,1,0,0:0:0:0:
448,192,206953,1,0,0:0:0:0:
64,192,206953,1,0,0:0:0:0:
192,192,207000,1,0,0:0:0:0:
320,192,207000,1,0,0:0:0:0:
320,192,207093,1,0,0:0:0:0:
448,192,207093,1,0,0:0:0:0:
448,192,207187,1,0,0:0:0:0:
192,192,207187,1,0,0:0:0:0:
320,192,207281,1,0,0:0:0:0:
64,192,207281,1,0,0:0:0:0:
320,192,207375,1,0,0:0:0:0:
448,192,207375,1,0,0:0:0:0:
192,192,207468,1,0,0:0:0:0:
64,192,207468,1,0,0:0:0:0:
448,192,207562,1,0,0:0:0:0:
64,192,207562,1,0,0:0:0:0:
192,192,207656,1,0,0:0:0:0:
320,192,207656,1,0,0:0:0:0:
192,192,207750,1,0,0:0:0:0:
64,192,207750,1,0,0:0:0:0:
320,192,207812,1,0,0:0:0:0:
448,192,207875,1,0,0:0:0:0:
192,192,207875,1,0,0:0:0:0:
320,192,207937,1,0,0:0:0:0:
448,192,208000,1,0,0:0:0:0:
64,192,208000,1,0,0:0:0:0:
320,192,208062,1,0,0:0:0:0:
192,192,208125,1,0,0:0:0:0:
64,192,208125,1,0,0:0:0:0:
448,192,208187,1,0,0:0:0:0:
320,192,208250,1,0,0:0:0:0:
192,192,208250,1,0,0:0:0:0:
448,192,208312,1,0,0:0:0:0:
320,192,208375,1,0,0:0:0:0:
64,192,208375,1,0,0:0:0:0:
192,192,208437,1,0,0:0:0:0:
448,192,208500,1,0,0:0:0:0:
320,192,208546,1,0,0:0:0:0:
192,192,208593,1,0,0:0:0:0:
448,192,208640,1,0,0:0:0:0:
64,192,208687,1,0,0:0:0:0:
320,192,208734,1,0,0:0:0:0:
192,192,208781,1,0,0:0:0:0:
64,192,208828,1,0,0:0:0:0:
192,192,208875,1,0,0:0:0:0:
320,192,208921,1,0,0:0:0:0:
448,192,208968,1,0,0:0:0:0:
192,192,209015,1,0,0:0:0:0:
320,192,209062,1,0,0:0:0:0:
448,192,209109,1,0,0:0:0:0:
320,192,209156,1,0,0:0:0:0:
192,192,209203,1,0,0:0:0:0:
64,192,209250,1,0,0:0:0:0:
192,192,209296,1,0,0:0:0:0:
320,192,209343,1,0,0:0:0:0:
192,192,209390,1,0,0:0:0:0:
320,192,209437,1,0,0:0:0:0:
448,192,209484,1,0,0:0:0:0:
192,192,209531,1,0,0:0:0:0:
320,192,209578,1,0,0:0:0:0:
448,192,209625,1,0,0:0:0:0:
320,192,209671,1,0,0:0:0:0:
192,192,209718,1,0,0:0:0:0:
64,192,209765,1,0,0:0:0:0:
320,192,209812,1,0,0:0:0:0:
192,192,209859,1,0,0:0:0:0:
448,192,209906,1,0,0:0:0:0:
192,192,209953,1,0,0:0:0:0:
320,192,210000,1,0,0:0:0:0:
64,192,210046,1,0,0:0:0:0:
192,192,210093,1,0,0:0:0:0:
64,192,210140,1,0,0:0:0:0:
320,192,210187,1,0,0:0:0:0:
192,192,210234,1,0,0:0:0:0:
448,192,210281,1,0,0:0:0:0:
320,192,210328,1,0,0:0:0:0:
192,192,210375,1,0,0:0:0:0:
320,192,210421,1,0,0:0:0:0:
192,192,210468,1,0,0:0:0:0:
64,192,210515,1,0,0:0:0:0:
320,192,210562,1,0,0:0:0:0:
192,192,210609,1,0,0:0:0:0:
64,192,210656,1,0,0:0:0:0:
192,192,210703,1,0,0:0:0:0:
448,192,210796,1,0,0:0:0:0:
192,192,210890,1,0,0:0:0:0:
320,192,210984,1,0,0:0:0:0:
64,192,211078,1,0,0:0:0:0:
64,192,211171,1,0,0:0:0:0:
320,192,211265,1,0,0:0:0:0:
192,192,211359,1,0,0:0:0:0:
64,192,211453,1,0,0:0:0:0:
320,192,211500,1,0,0:0:0:0:
448,192,211593,1,0,0:0:0:0:
192,192,211687,1,0,0:0:0:0:
64,192,211734,1,0,0:0:0:0:
320,192,211781,1,0,0:0:0:0:
64,192,211828,1,0,0:0:0:0:
448,192,211875,1,0,0:0:0:0:
64,192,211921,1,0,0:0:0:0:
192,192,211968,1,0,0:0:0:0:
64,192,212015,1,0,0:0:0:0:
320,192,212062,128,0,212281:0:0:0:0:
448,192,212312,1,0,0:0:0:0:
320,192,212343,1,0,0:0:0:0:
192,192,212375,1,0,0:0:0:0:
64,192,212437,1,0,0:0:0:0:
192,192,212531,1,0,0:0:0:0:
192,192,212625,1,0,0:0:0:0:
64,192,212671,1,0,0:0:0:0:
320,192,212718,1,0,0:0:0:0:
64,192,212765,1,0,0:0:0:0:
448,192,212812,1,0,0:0:0:0:
64,192,212859,1,0,0:0:0:0:
192,192,212906,1,0,0:0:0:0:
64,192,212953,1,0,0:0:0:0:
320,192,213000,1,0,0:0:0:0:
448,192,213046,128,0,213375:0:0:0:0:
320,192,213375,1,0,0:0:0:0:
448,192,213468,1,0,0:0:0:0:
320,192,213562,1,0,0:0:0:0:
64,192,213656,1,0,0:0:0:0:
192,192,213750,1,0,0:0:0:0:
448,192,213812,1,0,0:0:0:0:
320,192,213875,1,0,0:0:0:0:
192,192,213937,1,0,0:0:0:0:
64,192,214000,1,0,0:0:0:0:
64,192,214062,1,0,0:0:0:0:
320,192,214125,1,0,0:0:0:0:
192,192,214171,1,0,0:0:0:0:
64,192,214218,1,0,0:0:0:0:
192,192,214265,1,0,0:0:0:0:
320,192,214312,1,0,0:0:0:0:
448,192,214359,1,0,0:0:0:0:
192,192,214406,1,0,0:0:0:0:
320,192,214453,1,0,0:0:0:0:
448,192,214500,1,0,0:0:0:0:
64,192,214500,1,0,0:0:0:0:
64,192,214687,1,0,0:0:0:0:
448,192,214687,1,0,0:0:0:0:
64,192,214875,1,0,0:0:0:0:
448,192,214875,1,0,0:0:0:0:
320,192,214968,1,0,0:0:0:0:
448,192,214968,1,0,0:0:0:0:
448,192,215062,1,0,0:0:0:0:
64,192,215062,1,0,0:0:0:0:
64,192,215250,1,0,0:0:0:0:
448,192,215250,1,0,0:0:0:0:
64,192,215437,1,0,0:0:0:0:
448,192,215437,1,0,0:0:0:0:
448,192,215625,1,0,0:0:0:0:
64,192,215625,1,0,0:0:0:0:
64,192,215750,1,0,0:0:0:0:
448,192,215750,1,0,0:0:0:0:
64,192,215875,1,0,0:0:0:0:
448,192,215875,1,0,0:0:0:0:
448,192,216000,1,0,0:0:0:0:
64,192,216000,1,0,0:0:0:0:
320,192,216046,1,0,0:0:0:0:
192,192,216093,1,0,0:0:0:0:
320,192,216140,1,0,0:0:0:0:
192,192,216187,1,0,0:0:0:0:
64,192,216234,1,0,0:0:0:0:
448,192,216281,1,0,0:0:0:0:
320,192,216328,1,0,0:0:0:0:
192,192,216375,1,0,0:0:0:0:
64,192,216375,1,0,0:0:0:0:
320,192,216421,1,0,0:0:0:0:
192,192,216468,1,0,0:0:0:0:
64,192,216515,1,0,0:0:0:0:
320,192,216562,1,0,0:0:0:0:
192,192,216609,1,0,0:0:0:0:
64,192,216656,1,0,0:0:0:0:
448,192,216703,1,0,0:0:0:0:
320,192,216750,1,0,0:0:0:0:
192,192,216796,1,0,0:0:0:0:
448,192,216843,1,0,0:0:0:0:
320,192,216890,1,0,0:0:0:0:
192,192,216937,1,0,0:0:0:0:
320,192,216984,1,0,0:0:0:0:
192,192,217031,1,0,0:0:0:0:
64,192,217078,1,0,0:0:0:0:
448,192,217125,1,0,0:0:0:0:
320,192,217171,1,0,0:0:0:0:
192,192,217218,1,0,0:0:0:0:
320,192,217265,1,0,0:0:0:0:
192,192,217312,1,0,0:0:0:0:
64,192,217359,1,0,0:0:0:0:
192,192,217406,1,0,0:0:0:0:
320,192,217453,1,0,0:0:0:0:
448,192,217500,1,0,0:0:0:0:
64,192,217500,1,0,0:0:0:0:
64,192,217593,1,0,0:0:0:0:
192,192,217687,1,0,0:0:0:0:
320,192,217781,1,0,0:0:0:0:
448,192,217875,1,0,0:0:0:0:
448,192,217968,1,0,0:0:0:0:
64,192,218062,1,0,0:0:0:0:
192,192,218156,1,0,0:0:0:0:
320,192,218250,1,0,0:0:0:0:
448,192,218343,1,0,0:0:0:0:
448,192,218437,1,0,0:0:0:0:
192,192,218531,1,0,0:0:0:0:
192,192,218625,1,0,0:0:0:0:
448,192,218718,1,0,0:0:0:0:
448,192,218812,1,0,0:0:0:0:
192,192,218906,1,0,0:0:0:0:
192,192,219000,1,0,0:0:0:0:
320,192,219093,1,0,0:0:0:0:
320,192,219187,1,0,0:0:0:0:
64,192,219281,1,0,0:0:0:0:
64,192,219375,1,0,0:0:0:0:
192,192,219468,1,0,0:0:0:0:
192,192,219562,1,0,0:0:0:0:
320,192,219656,1,0,0:0:0:0:
320,192,219750,1,0,0:0:0:0:
192,192,219843,1,0,0:0:0:0:
192,192,219937,1,0,0:0:0:0:
448,192,220031,1,0,0:0:0:0:
448,192,220125,1,0,0:0:0:0:
64,192,220218,1,0,0:0:0:0:
64,192,220312,1,0,0:0:0:0:
320,192,220406,1,0,0:0:0:0:
320,192,220500,1,0,0:0:0:0:
192,192,220500,1,0,0:0:0:0:
448,192,220687,1,0,0:0:0:0:
192,192,220687,1,0,0:0:0:0:
192,192,220781,1,0,0:0:0:0:
448,192,220781,1,0,0:0:0:0:
192,192,220875,1,0,0:0:0:0:
448,192,220875,1,0,0:0:0:0:
192,192,220968,1,0,0:0:0:0:
448,192,220968,1,0,0:0:0:0:
64,192,221062,1,0,0:0:0:0:
320,192,221062,1,0,0:0:0:0:
192,192,221250,1,0,0:0:0:0:
448,192,221250,1,0,0:0:0:0:
448,192,221343,1,0,0:0:0:0:
192,192,221343,1,0,0:0:0:0:
448,192,221437,1,0,0:0:0:0:
192,192,221437,1,0,0:0:0:0:
448,192,221531,1,0,0:0:0:0:
192,192,221531,1,0,0:0:0:0:
320,192,221625,1,0,0:0:0:0:
64,192,221625,1,0,0:0:0:0:
320,192,221812,1,0,0:0:0:0:
448,192,221812,1,0,0:0:0:0:
448,192,221906,1,0,0:0:0:0:
320,192,221906,1,0,0:0:0:0:
448,192,222000,1,0,0:0:0:0:
320,192,222000,1,0,0:0:0:0:
448,192,222093,1,0,0:0:0:0:
320,192,222093,1,0,0:0:0:0:
192,192,222187,1,0,0:0:0:0:
64,192,222187,1,0,0:0:0:0:
448,192,222375,1,0,0:0:0:0:
320,192,222375,1,0,0:0:0:0:
320,192,222468,1,0,0:0:0:0:
448,192,222468,1,0,0:0:0:0:
320,192,222562,1,0,0:0:0:0:
448,192,222562,1,0,0:0:0:0:
320,192,222656,1,0,0:0:0:0:
448,192,222656,1,0,0:0:0:0:
64,192,222750,1,0,0:0:0:0:
192,192,222796,1,0,0:0:0:0:
320,192,222843,1,0,0:0:0:0:
192,192,222890,1,0,0:0:0:0:
320,192,222937,1,0,0:0:0:0:
448,192,222984,1,0,0:0:0:0:
320,192,223031,1,0,0:0:0:0:
192,192,223078,1,0,0:0:0:0:
64,192,223125,1,0,0:0:0:0:
320,192,223171,1,0,0:0:0:0:
192,192,223218,1,0,0:0:0:0:
64,192,223265,1,0,0:0:0:0:
192,192,223312,1,0,0:0:0:0:
320,192,223359,1,0,0:0:0:0:
448,192,223406,1,0,0:0:0:0:
320,192,223453,1,0,0:0:0:0:
64,192,223500,1,0,0:0:0:0:
448,192,223546,1,0,0:0:0:0:
64,192,223593,1,0,0:0:0:0:
192,192,223640,1,0,0:0:0:0:
320,192,223687,1,0,0:0:0:0:
192,192,223734,1,0,0:0:0:0:
320,192,223781,1,0,0:0:0:0:
448,192,223828,1,0,0:0:0:0:
192,192,223875,1,0,0:0:0:0:
64,192,223875,1,0,0:0:0:0:
192,192,223968,1,0,0:0:0:0:
320,192,223968,1,0,0:0:0:0:
320,192,224062,1,0,0:0:0:0:
448,192,224062,1,0,0:0:0:0:
192,192,224156,1,0,0:0:0:0:
64,192,224156,1,0,0:0:0:0:
192,192,224250,1,0,0:0:0:0:
320,192,224250,1,0,0:0:0:0:
320,192,224343,1,0,0:0:0:0:
448,192,224343,1,0,0:0:0:0:
64,192,224437,1,0,0:0:0:0:
192,192,224437,1,0,0:0:0:0:
192,192,224531,1,0,0:0:0:0:
64,192,224531,1,0,0:0:0:0:
320,192,224625,1,0,0:0:0:0:
448,192,224671,1,0,0:0:0:0:
320,192,224718,1,0,0:0:0:0:
192,192,224765,1,0,0:0:0:0:
64,192,224812,1,0,0:0:0:0:
448,192,224859,1,0,0:0:0:0:
64,192,224906,1,0,0:0:0:0:
192,192,224953,1,0,0:0:0:0:
320,192,225000,1,0,0:0:0:0:
64,192,225046,1,0,0:0:0:0:
192,192,225093,1,0,0:0:0:0:
320,192,225140,1,0,0:0:0:0:
448,192,225187,1,0,0:0:0:0:
320,192,225234,1,0,0:0:0:0:
192,192,225281,1,0,0:0:0:0:
64,192,225328,1,0,0:0:0:0:
448,192,225375,1,0,0:0:0:0:
320,192,225375,1,0,0:0:0:0:
320,192,225468,1,0,0:0:0:0:
448,192,225468,1,0,0:0:0:0:
320,192,225562,1,0,0:0:0:0:
192,192,225562,1,0,0:0:0:0:
192,192,225656,1,0,0:0:0:0:
320,192,225656,1,0,0:0:0:0:
192,192,225750,1,0,0:0:0:0:
64,192,225750,1,0,0:0:0:0:
64,192,225843,1,0,0:0:0:0:
192,192,225843,1,0,0:0:0:0:
320,192,225937,1,0,0:0:0:0:
448,192,225937,1,0,0:0:0:0:
448,192,226031,1,0,0:0:0:0:
320,192,226031,1,0,0:0:0:0:
192,192,226125,1,0,0:0:0:0:
320,192,226171,1,0,0:0:0:0:
448,192,226218,1,0,0:0:0:0:
320,192,226265,1,0,0:0:0:0:
192,192,226312,1,0,0:0:0:0:
64,192,226359,1,0,0:0:0:0:
192,192,226406,1,0,0:0:0:0:
320,192,226453,1,0,0:0:0:0:
448,192,226500,1,0,0:0:0:0:
320,192,226546,1,0,0:0:0:0:
192,192,226593,1,0,0:0:0:0:
320,192,226640,1,0,0:0:0:0:
192,192,226687,1,0,0:0:0:0:
64,192,226734,1,0,0:0:0:0:
192,192,226781,1,0,0:0:0:0:
320,192,226828,1,0,0:0:0:0:
192,192,226875,1,0,0:0:0:0:
192,192,226968,1,0,0:0:0:0:
320,192,227062,1,0,0:0:0:0:
320,192,227156,1,0,0:0:0:0:
192,192,227250,1,0,0:0:0:0:
192,192,227343,1,0,0:0:0:0:
320,192,227437,1,0,0:0:0:0:
320,192,227531,1,0,0:0:0:0:
448,192,227625,1,0,0:0:0:0:
320,192,227671,1,0,0:0:0:0:
192,192,227718,1,0,0:0:0:0:
64,192,227765,1,0,0:0:0:0:
192,192,227812,1,0,0:0:0:0:
320,192,227859,1,0,0:0:0:0:
192,192,227906,1,0,0:0:0:0:
320,192,227953,1,0,0:0:0:0:
448,192,228000,1,0,0:0:0:0:
320,192,228046,1,0,0:0:0:0:
192,192,228093,1,0,0:0:0:0:
64,192,228140,1,0,0:0:0:0:
192,192,228187,1,0,0:0:0:0:
320,192,228234,1,0,0:0:0:0:
192,192,228281,1,0,0:0:0:0:
64,192,228328,1,0,0:0:0:0:
320,192,228375,1,0,0:0:0:0:
448,192,228421,1,0,0:0:0:0:
192,192,228468,1,0,0:0:0:0:
448,192,228515,1,0,0:0:0:0:
64,192,228562,1,0,0:0:0:0:
448,192,228609,1,0,0:0:0:0:
192,192,228656,1,0,0:0:0:0:
64,192,228703,1,0,0:0:0:0:
320,192,228750,1,0,0:0:0:0:
64,192,228796,1,0,0:0:0:0:
448,192,228843,1,0,0:0:0:0:
64,192,228890,1,0,0:0:0:0:
320,192,228937,1,0,0:0:0:0:
192,192,228984,1,0,0:0:0:0:
448,192,229031,1,0,0:0:0:0:
192,192,229078,1,0,0:0:0:0:
448,192,229125,1,0,0:0:0:0:
320,192,229171,1,0,0:0:0:0:
192,192,229218,1,0,0:0:0:0:
320,192,229265,1,0,0:0:0:0:
192,192,229312,1,0,0:0:0:0:
64,192,229359,1,0,0:0:0:0:
192,192,229406,1,0,0:0:0:0:
320,192,229453,1,0,0:0:0:0:
64,192,229500,1,0,0:0:0:0:
192,192,229593,1,0,0:0:0:0:
192,192,229687,1,0,0:0:0:0:
320,192,229781,1,0,0:0:0:0:
448,192,229875,1,0,0:0:0:0:
64,192,229968,1,0,0:0:0:0:
192,192,230062,1,0,0:0:0:0:
192,192,230156,1,0,0:0:0:0:
320,192,230250,1,0,0:0:0:0:
448,192,230343,1,0,0:0:0:0:
320,192,230437,1,0,0:0:0:0:
320,192,230531,1,0,0:0:0:0:
192,192,230625,1,0,0:0:0:0:
64,192,230718,1,0,0:0:0:0:
320,192,230812,1,0,0:0:0:0:
320,192,230906,1,0,0:0:0:0:
64,192,231000,1,0,0:0:0:0:
192,192,231000,1,0,0:0:0:0:
320,192,231093,1,0,0:0:0:0:
448,192,231187,1,0,0:0:0:0:
192,192,231187,1,0,0:0:0:0:
64,192,231281,1,0,0:0:0:0:
192,192,231375,1,0,0:0:0:0:
320,192,231375,1,0,0:0:0:0:
448,192,231468,1,0,0:0:0:0:
320,192,231562,1,0,0:0:0:0:
192,192,231562,1,0,0:0:0:0:
64,192,231656,1,0,0:0:0:0:
192,192,231750,1,0,0:0:0:0:
64,192,231750,1,0,0:0:0:0:
320,192,231843,1,0,0:0:0:0:
448,192,231843,1,0,0:0:0:0:
192,192,231890,1,0,0:0:0:0:
64,192,231937,1,0,0:0:0:0:
192,192,231984,1,0,0:0:0:0:
64,192,232031,1,0,0:0:0:0:
192,192,232078,1,0,0:0:0:0:
320,192,232125,1,0,0:0:0:0:
448,192,232125,1,0,0:0:0:0:
192,192,232218,1,0,0:0:0:0:
320,192,232312,1,0,0:0:0:0:
64,192,232312,1,0,0:0:0:0:
192,192,232406,1,0,0:0:0:0:
448,192,232500,1,0,0:0:0:0:
64,192,232500,1,0,0:0:0:0:
192,192,232593,1,0,0:0:0:0:
320,192,232687,1,0,0:0:0:0:
448,192,232687,1,0,0:0:0:0:
192,192,232781,1,0,0:0:0:0:
64,192,232875,1,0,0:0:0:0:
192,192,232875,1,0,0:0:0:0:
320,192,232937,1,0,0:0:0:0:
192,192,233000,1,0,0:0:0:0:
320,192,233062,1,0,0:0:0:0:
448,192,233125,1,0,0:0:0:0:
192,192,233187,1,0,0:0:0:0:
64,192,233250,1,0,0:0:0:0:
192,192,233296,1,0,0:0:0:0:
320,192,233343,1,0,0:0:0:0:
192,192,233390,1,0,0:0:0:0:
320,192,233437,1,0,0:0:0:0:
448,192,233484,1,0,0:0:0:0:
320,192,233531,1,0,0:0:0:0:
192,192,233578,1,0,0:0:0:0:
64,192,233625,1,0,0:0:0:0:
192,192,233656,1,0,0:0:0:0:
320,192,233687,1,0,0:0:0:0:
448,192,233718,1,0,0:0:0:0:
192,192,233750,1,0,0:0:0:0:
64,192,233781,1,0,0:0:0:0:
320,192,233812,1,0,0:0:0:0:
192,192,233843,1,0,0:0:0:0:
64,192,233875,1,0,0:0:0:0:
320,192,233906,1,0,0:0:0:0:
448,192,233937,1,0,0:0:0:0:
192,192,233968,1,0,0:0:0:0:
320,192,234000,128,0,234187:0:0:0:0:
192,192,234187,128,0,234375:0:0:0:0:
64,192,234375,1,0,0:0:0:0:
448,192,234437,1,0,0:0:0:0:
448,192,234562,1,0,0:0:0:0:
320,192,234656,1,0,0:0:0:0:
192,192,234750,1,0,0:0:0:0:
320,192,234875,1,0,0:0:0:0:
192,192,235000,1,0,0:0:0:0:
192,192,235125,1,0,0:0:0:0:
64,192,235312,1,0,0:0:0:0:
64,192,235500,1,0,0:0:0:0:
192,192,235687,1,0,0:0:0:0:
320,192,235875,1,0,0:0:0:0:
192,192,235968,1,0,0:0:0:0:
320,192,236062,1,0,0:0:0:0:
448,192,236156,1,0,0:0:0:0:
320,192,236250,128,0,236578:0:0:0:0:
448,192,236578,1,0,0:0:0:0:
192,192,236625,1,0,0:0:0:0:
64,192,236671,1,0,0:0:0:0:
192,192,236812,1,0,0:0:0:0:
320,192,236875,128,0,237375:0:0:0:0:
448,192,237375,1,0,0:0:0:0:
320,192,237468,1,0,0:0:0:0:
192,192,237562,128,0,237937:0:0:0:0:
320,192,237937,1,0,0:0:0:0:
192,192,237984,1,0,0:0:0:0:
64,192,238031,1,0,0:0:0:0:
64,192,238125,1,0,0:0:0:0:
192,192,238312,1,0,0:0:0:0:
320,192,238500,1,0,0:0:0:0:
448,192,238687,128,0,239062:0:0:0:0:
192,192,239062,128,0,239625:0:0:0:0:
320,192,239625,1,0,0:0:0:0:
64,192,239687,128,0,241500:0:0:0:0:
192,192,241500,1,0,0:0:0:0:
320,192,241687,1,0,0:0:0:0:
64,192,241875,1,0,0:0:0:0:
448,192,242062,128,0,242343:0:0:0:0:
448,192,242437,1,0,0:0:0:0:
320,192,242484,1,0,0:0:0:0:
192,192,242531,1,0,0:0:0:0:
64,192,242578,1,0,0:0:0:0:
192,192,242625,1,0,0:0:0:0:
320,192,242812,1,0,0:0:0:0:
64,192,243000,1,0,0:0:0:0:
320,192,243187,128,0,243562:0:0:0:0:
448,192,243562,1,0,0:0:0:0:
320,192,243609,1,0,0:0:0:0:
192,192,243656,1,0,0:0:0:0:
320,192,243703,1,0,0:0:0:0:
448,192,243750,1,0,0:0:0:0:
320,192,243937,1,0,0:0:0:0:
192,192,244125,1,0,0:0:0:0:
64,192,244312,1,0,0:0:0:0:
64,192,244500,1,0,0:0:0:0:
320,192,244687,1,0,0:0:0:0:
64,192,244875,1,0,0:0:0:0:
448,192,245062,128,0,245343:0:0:0:0:
448,192,245437,1,0,0:0:0:0:
320,192,245484,1,0,0:0:0:0:
192,192,245531,1,0,0:0:0:0:
64,192,245578,1,0,0:0:0:0:
192,192,245625,1,0,0:0:0:0:
320,192,245812,1,0,0:0:0:0:
64,192,246000,1,0,0:0:0:0:
448,192,246187,128,0,246562:0:0:0:0:
320,192,246562,1,0,0:0:0:0:
192,192,246609,1,0,0:0:0:0:
64,192,246656,1,0,0:0:0:0:
192,192,246703,1,0,0:0:0:0:
320,192,246750,1,0,0:0:0:0:
448,192,246750,1,0,0:0:0:0:
448,192,246843,1,0,0:0:0:0:
192,192,246843,1,0,0:0:0:0:
192,192,246937,1,0,0:0:0:0:
320,192,246937,1,0,0:0:0:0:
320,192,247031,1,0,0:0:0:0:
64,192,247031,1,0,0:0:0:0:
192,192,247125,1,0,0:0:0:0:
64,192,247125,1,0,0:0:0:0:
192,192,247218,1,0,0:0:0:0:
448,192,247218,1,0,0:0:0:0:
448,192,247312,1,0,0:0:0:0:
64,192,247312,1,0,0:0:0:0:
192,192,247406,1,0,0:0:0:0:
448,192,247406,1,0,0:0:0:0:
320,192,247500,1,0,0:0:0:0:
192,192,247687,1,0,0:0:0:0:
64,192,247875,1,0,0:0:0:0:
192,192,248062,128,0,248437:0:0:0:0:
320,192,248437,1,0,0:0:0:0:
192,192,248500,1,0,0:0:0:0:
64,192,248562,1,0,0:0:0:0:
320,192,248625,1,0,0:0:0:0:
448,192,248812,1,0,0:0:0:0:
64,192,249000,1,0,0:0:0:0:
320,192,249187,128,0,249562:0:0:0:0:
448,192,249562,1,0,0:0:0:0:
320,192,249625,1,0,0:0:0:0:
192,192,249687,1,0,0:0:0:0:
320,192,249750,1,0,0:0:0:0:
448,192,249937,1,0,0:0:0:0:
320,192,250125,1,0,0:0:0:0:
64,192,250125,1,0,0:0:0:0:
192,192,250218,1,0,0:0:0:0:
64,192,250218,1,0,0:0:0:0:
192,192,250312,1,0,0:0:0:0:
320,192,250312,1,0,0:0:0:0:
192,192,250406,1,0,0:0:0:0:
64,192,250406,1,0,0:0:0:0:
320,192,250500,1,0,0:0:0:0:
192,192,250687,1,0,0:0:0:0:
64,192,250875,1,0,0:0:0:0:
320,192,251062,128,0,251437:0:0:0:0:
448,192,251437,1,0,0:0:0:0:
320,192,251500,1,0,0:0:0:0:
192,192,251562,1,0,0:0:0:0:
448,192,251625,1,0,0:0:0:0:
320,192,251812,1,0,0:0:0:0:
64,192,252000,1,0,0:0:0:0:
320,192,252187,128,0,252562:0:0:0:0:
192,192,252562,1,0,0:0:0:0:
64,192,252625,1,0,0:0:0:0:
192,192,252687,1,0,0:0:0:0:
448,192,252750,1,0,0:0:0:0:
192,192,252937,1,0,0:0:0:0:
64,192,252937,1,0,0:0:0:0:
64,192,253031,1,0,0:0:0:0:
192,192,253031,1,0,0:0:0:0:
320,192,253125,1,0,0:0:0:0:
448,192,253125,1,0,0:0:0:0:
320,192,253187,1,0,0:0:0:0:
448,192,253187,1,0,0:0:0:0:
64,192,253250,1,0,0:0:0:0:
320,192,253312,1,0,0:0:0:0:
448,192,253312,1,0,0:0:0:0:
192,192,253375,1,0,0:0:0:0:
64,192,253375,1,0,0:0:0:0:
320,192,253437,1,0,0:0:0:0:
448,192,253437,1,0,0:0:0:0:
192,192,253500,1,0,0:0:0:0:
64,192,253500,1,0,0:0:0:0:
448,192,253593,128,0,254062:0:0:0:0:
192,192,253781,1,0,0:0:0:0:
64,192,253781,1,0,0:0:0:0:
320,192,254062,128,0,254625:0:0:0:0:
64,192,254062,1,0,0:0:0:0:
192,192,254062,1,0,0:0:0:0:
64,192,254625,128,0,256500:0:0:0:0:
320,192,254812,1,0,0:0:0:0:
448,192,254812,1,0,0:0:0:0:
320,192,255187,1,0,0:0:0:0:
448,192,255187,1,0,0:0:0:0:
448,192,255375,1,0,0:0:0:0:
320,192,255375,1,0,0:0:0:0:
320,192,255562,1,0,0:0:0:0:
448,192,255562,1,0,0:0:0:0:
320,192,256312,1,0,0:0:0:0:
448,192,256312,1,0,0:0:0:0:
320,192,256500,1,0,0:0:0:0:
448,192,256500,1,0,0:0:0:0:
448,192,256593,128,0,257062:0:0:0:0:
320,192,257062,128,0,257625:0:0:0:0:
192,192,257062,1,0,0:0:0:0:
64,192,257062,1,0,0:0:0:0:
192,192,257625,128,0,259500:0:0:0:0:
320,192,257812,1,0,0:0:0:0:
448,192,257812,1,0,0:0:0:0:
448,192,258281,1,0,0:0:0:0:
320,192,258281,1,0,0:0:0:0:
320,192,258562,1,0,0:0:0:0:
448,192,258562,1,0,0:0:0:0:
320,192,258937,1,0,0:0:0:0:
448,192,258937,1,0,0:0:0:0:
320,192,259031,1,0,0:0:0:0:
448,192,259031,1,0,0:0:0:0:
448,192,259312,1,0,0:0:0:0:
448,192,259312,1,0,0:0:0:0:
448,192,259312,1,0,0:0:0:0:
320,192,259312,1,0,0:0:0:0:
320,192,259500,1,0,0:0:0:0:
448,192,259500,1,0,0:0:0:0:
448,192,259593,128,0,260062:0:0:0:0:
320,192,260062,128,0,260625:0:0:0:0:
448,192,260625,1,0,0:0:0:0:
192,192,260718,128,0,261937:0:0:0:0:
64,192,261937,128,0,262500:0:0:0:0:
320,192,262500,1,0,0:0:0:0:
448,192,262687,128,0,263062:0:0:0:0:
192,192,263062,1,0,0:0:0:0:
320,192,263187,128,0,263625:0:0:0:0:
448,192,263625,1,0,0:0:0:0:
64,192,263718,128,0,264656:0:0:0:0:
320,192,264375,1,0,0:0:0:0:
448,192,264468,1,0,0:0:0:0:
64,192,264750,1,0,0:0:0:0:
192,192,264750,1,0,0:0:0:0:
320,192,264843,1,0,0:0:0:0:
64,192,264843,1,0,0:0:0:0:
192,192,264937,1,0,0:0:0:0:
320,192,264937,1,0,0:0:0:0:
448,192,265031,1,0,0:0:0:0:
192,192,265031,1,0,0:0:0:0:
320,192,265125,1,0,0:0:0:0:
448,192,265125,1,0,0:0:0:0:
192,192,265218,1,0,0:0:0:0:
64,192,265218,1,0,0:0:0:0:
192,192,265312,1,0,0:0:0:0:
320,192,265312,1,0,0:0:0:0:
320,192,265406,1,0,0:0:0:0:
448,192,265406,1,0,0:0:0:0:
320,192,265500,1,0,0:0:0:0:
448,192,265500,1,0,0:0:0:0:
192,192,265500,1,0,0:0:0:0:
64,192,265500,1,0,0:0:0:0:
320,192,266062,1,0,0:0:0:0:
192,192,266437,1,0,0:0:0:0:
64,192,266812,1,0,0:0:0:0:
448,192,267187,1,0,0:0:0:0:
320,192,267375,1,0,0:0:0:0:
192,192,267562,1,0,0:0:0:0:
64,192,268125,1,0,0:0:0:0:
64,192,268500,1,0,0:0:0:0:
192,192,268687,1,0,0:0:0:0:
64,192,268875,1,0,0:0:0:0:
320,192,269062,1,0,0:0:0:0:
192,192,269437,1,0,0:0:0:0:
320,192,269625,1,0,0:0:0:0:
64,192,270000,1,0,0:0:0:0:
192,192,270187,1,0,0:0:0:0:
320,192,270375,1,0,0:0:0:0:
448,192,270562,1,0,0:0:0:0:
64,192,271125,1,0,0:0:0:0:
192,192,271218,1,0,0:0:0:0:
320,192,271312,1,0,0:0:0:0:
320,192,271406,1,0,0:0:0:0:
320,192,271500,1,0,0:0:0:0:
192,192,272062,1,0,0:0:0:0:
448,192,272625,1,0,0:0:0:0:
320,192,273000,1,0,0:0:0:0:
320,192,273562,1,0,0:0:0:0:
320,192,274312,1,0,0:0:0:0:
192,192,274500,1,0,0:0:0:0:
320,192,274687,1,0,0:0:0:0:
192,192,274875,1,0,0:0:0:0:
64,192,275062,1,0,0:0:0:0:
320,192,275812,1,0,0:0:0:0:
192,192,276000,1,0,0:0:0:0:
320,192,276187,1,0,0:0:0:0:
192,192,276375,1,0,0:0:0:0:
64,192,276562,1,0,0:0:0:0:
