osu file format v14

[General]
AudioFilename: audio.mp3
AudioLeadIn: 0
PreviewTime: 17001
Countdown: 0
SampleSet: Normal
StackLeniency: 0.7
Mode: 0
LetterboxInBreaks: 0
WidescreenStoryboard: 1

[Editor]
DistanceSpacing: 1.2
BeatDivisor: 4
GridSize: 32
TimelineZoom: 1

[Metadata]
Title:D.Va Happy.mp4
TitleUnicode:D.Va Happy.mp4
Artist:ThePopushi
ArtistUnicode:ThePopushi
Creator:pomroz
Version:Advanced
Source:
Tags:overwatch dva doritos mountain mtn dew meme viva happy mitchie m parody worminators jean-michel jr
BeatmapID:1403801
BeatmapSetID:662045

[Difficulty]
HPDrainRate:3.5
CircleSize:3.5
OverallDifficulty:5
ApproachRate:7
SliderMultiplier:1.59999990463257
SliderTickRate:1

[Events]
//Background and Video events
0,0,"divahapi.png",0,0
Video,0,"dvahappy.mp4"
//Break Periods
//Storyboard Layer 0 (Background)
//Storyboard Layer 1 (Fail)
//Storyboard Layer 2 (Pass)
//Storyboard Layer 3 (Foreground)
//Storyboard Sound Samples

[TimingPoints]
25,405.405405405405,4,2,1,65,1,0
4079,405.405405405405,4,2,1,65,1,0
4079,-100,4,1,1,75,0,1
4484,-100,4,1,2,75,0,1
4687,-100,4,1,1,75,0,1
5092,-100,4,1,2,75,0,1
7322,-100,4,1,1,75,0,1
7727,-100,4,1,2,75,0,1
7930,-100,4,1,1,75,0,1
8335,-100,4,1,2,75,0,1
10565,-100,4,1,1,70,0,0
10970,-100,4,1,2,70,0,0
13808,-100,4,1,1,70,0,0
15024,-100,4,1,2,70,0,0
15835,-100,4,3,1,70,0,0
17051,-133.333333333333,4,1,1,70,0,0
17457,-100,4,1,2,80,0,1
17862,-100,4,1,1,80,0,1
18268,-100,4,1,2,80,0,1
20295,-133.333333333333,4,1,1,80,0,1
20700,-100,4,1,2,80,0,1
21106,-100,4,1,1,80,0,1
21511,-100,4,1,2,80,0,1
23538,-125,4,3,1,70,0,0
26376,-100,4,3,1,70,0,0
27187,-125,4,1,1,70,0,0
27592,-125,4,1,2,70,0,0
27997,-125,4,1,1,70,0,0
28403,-125,4,1,2,70,0,0
28606,-125,4,1,1,70,0,0
28808,-125,4,1,2,70,0,0
29011,-125,4,1,1,70,0,0
29214,-125,4,1,2,70,0,0

[Colours]
Combo1 : 57,75,206
Combo2 : 239,68,189
SliderTrackOverride : 57,75,206
SliderBorder : 239,68,189

[HitObjects]
106,149,25,6,0,P|188:202|234:199,2,119.999992847443
58,47,835,1,0,0:0:0:0:
256,192,1241,12,6,3673,0:0:0:0:
29,184,4079,6,8,B|20:267|20:267|51:345,1,159.999990463257
130,253,4687,2,8,B|138:169|138:169|107:91,1,159.999990463257
247,197,5497,2,8,P|334:201|374:136,1,159.999990463257
206,58,6308,6,2,B|165:40|165:40|117:40,2,79.9999952316285,2|10|2,0:0|0:0|0:0,0:0:0:0:
293,131,6916,1,10,0:0:0:0:
170,278,7322,6,8,B|106:333|106:333|25:352,1,159.999990463257
55,235,7930,2,8,B|119:180|119:180|200:161,1,159.999990463257
395,152,8741,2,0,B|420:115|420:115|420:-1,2,159.999990463257,8|8|2,0:0|0:0|0:0,0:0:0:0:
327,222,9754,1,10,0:0:0:0:
258,158,9957,1,2,0:0:0:0:
191,225,10160,6,0,B|157:304|104:232|71:312,2,159.999990463257,10|8|8,0:0|0:0|0:0,0:0:0:0:
258,158,11173,2,0,B|291:78|344:150|377:70,2,159.999990463257,10|8|8,0:0|0:0|0:0,0:0:0:0:
219,366,12389,6,0,P|262:337|291:295,1,79.9999952316285,0|8,0:0|0:0,0:0:0:0:
335,237,12795,2,0,P|441:208|466:313,1,239.999985694885,8|8,0:0|0:0,0:0:0:0:
483,101,13808,2,8,B|423:112|385:44|385:44|318:82|318:82|279:20|215:22,1,319.999980926514
187,216,15024,2,8,L|218:127,1,79.9999952316285
416,345,15835,6,2,L|447:256,1,79.9999952316285,10|2,0:0|0:0,0:0:0:0:
346,283,16241,2,2,L|377:194,1,79.9999952316285,10|2,0:0|0:0,0:0:0:0:
276,221,16646,2,2,L|307:132,1,79.9999952316285,10|2,0:0|0:0,0:0:0:0:
206,159,17051,6,0,L|246:43,1,119.999992847443,8|8,0:0|0:0,0:0:0:0:
136,97,17660,2,0,L|109:172,1,79.9999952316285,0|8,0:0|0:0,0:0:0:0:
66,35,18065,2,0,P|104:8|147:5,1,79.9999952316285,0|8,0:0|0:0,0:0:0:0:
245,45,18470,2,8,P|331:66|414:62,1,159.999990463257,8|0,0:0|0:0,0:0:0:0:
487,48,19078,1,8,0:0:0:0:
454,138,19281,6,2,L|376:142,1,79.9999952316285,2|10,0:0|0:0,0:0:0:0:
421,228,19687,2,2,L|500:224,1,79.9999952316285,2|10,0:0|0:0,0:0:0:0:
387,317,20092,1,0,0:0:0:0:
326,243,20295,6,0,L|286:127,1,119.999992847443,8|8,0:0|0:0,0:0:0:0:
393,152,20903,2,0,L|420:227,1,79.9999952316285,0|8,0:0|0:0,0:0:0:0:
463,90,21308,2,0,P|424:65|382:60,1,79.9999952316285,0|8,0:0|0:0,0:0:0:0:
284,100,21714,2,8,P|198:121|115:117,1,159.999990463257,8|0,0:0|0:0,0:0:0:0:
42,103,22322,1,8,0:0:0:0:
75,193,22524,6,2,L|153:197,1,79.9999952316285,2|10,0:0|0:0,0:0:0:0:
108,283,22930,2,2,L|30:279,1,79.9999952316285,2|10,0:0|0:0,0:0:0:0:
142,372,23335,1,0,0:0:0:0:
203,299,23538,6,0,P|266:230|315:226,1,127.999992370606,10|0,0:0|0:0,0:0:0:0:
383,250,24146,1,0,0:0:0:0:
426,334,24349,2,0,B|473:308|477:244|477:244|477:225,1,127.999992370606,10|0,0:0|0:0,0:0:0:0:
474,131,24957,1,0,0:0:0:0:
389,81,25160,2,0,L|303:48,1,63.9999961853028,10|0,0:0|0:0,0:0:0:0:
280,159,25565,2,0,L|194:192,1,63.9999961853028,10|0,0:0|0:0,0:0:0:0:
171,81,25970,1,10,0:0:0:0:
171,81,26173,1,10,0:0:0:0:
135,185,26376,6,10,L|121:224,4,39.9999976158142,10|10|10|10|14,0:0|0:0|0:0|0:0|0:0,0:0:0:0:
345,108,27187,2,8,L|427:79,2,63.9999961853028
135,186,27997,1,8,0:0:0:0:
135,186,28200,1,8,0:0:0:0:
220,258,28403,2,8,L|294:213,1,63.9999961853028
364,171,28808,2,8,L|438:216,1,63.9999961853028
512,260,29214,1,8,0:0:0:0:
256,192,29619,12,0,30633,0:0:0:0:
