osu file format v14

[General]
AudioFilename: audio.mp3
AudioLeadIn: 0
PreviewTime: -1
Countdown: 1
SampleSet: None
StackLeniency: 0.7
Mode: 0
LetterboxInBreaks: 0
WidescreenStoryboard: 1

[Editor]
DistanceSpacing: 1.5
BeatDivisor: 2
GridSize: 4
TimelineZoom: 1.8

[Metadata]
Title:ECHO [Gumi English]
TitleUnicode:ECHO 【Gumi English】
Artist:TheLivingTombstone
ArtistUnicode:TheLivingTombstone
Creator:WalterandAaron
Version:Hard
Source:Youtube
Tags:Vocaloid Remix TheLivingTombstone
BeatmapID:1752719
BeatmapSetID:837066

[Difficulty]
HPDrainRate:4
CircleSize:5
OverallDifficulty:6
ApproachRate:5
SliderMultiplier:1.4
SliderTickRate:1

[Events]
//Background and Video events
0,0,"Echo_CrusherP.png",0,0
Video,0,"ECHO【Gumi English】Crusher-P The Living Tombstone Remix.mp4"
//Break Periods
2,61055,75655
//Storyboard Layer 0 (Background)
//Storyboard Layer 1 (Fail)
//Storyboard Layer 2 (Pass)
//Storyboard Layer 3 (Foreground)
//Storyboard Sound Samples

[TimingPoints]
6455,400.005405405404,4,2,0,100,1,0
25605,-100,4,1,0,70,0,0
36805,-100,4,1,0,100,0,1
50955,-100,4,1,0,70,0,0
87956,-42.5531914893617,4,1,0,70,0,0
89356,-100,4,2,0,100,0,0
95856,-100,4,1,0,70,0,0
102256,-100,4,1,0,100,0,0
121656,-66.6666666666667,4,1,0,100,0,1
147156,-100,4,1,0,100,0,1
172857,-100,4,1,0,100,0,0

[Colours]
Combo1 : 0,0,0
Combo2 : 255,255,255

[HitObjects]
256,192,6454,12,0,12055,0:0:0:0:
95,188,12455,5,0,0:0:0:0:
254,190,12855,6,0,L|427:190,1,140
450,264,13455,1,0,0:0:0:0:
392,328,13655,2,0,L|212:328,1,140
196,260,14255,1,0,0:0:0:0:
248,184,14455,6,0,L|408:184,1,140
456,252,15055,1,0,0:0:0:0:
388,312,15255,2,0,L|244:312,1,140
179,251,15855,1,0,0:0:0:0:
139,153,16055,1,0,0:0:0:0:
163,50,16255,1,0,0:0:0:0:
264,20,16455,1,0,0:0:0:0:
372,64,16655,1,0,0:0:0:0:
412,160,16855,2,0,P|388:235|302:247,1,140
120,28,17655,6,0,B|106:21|59:1|43:56,1,70
90,140,18055,2,0,B|76:133|107:157|151:128,1,70
120,28,18455,6,0,B|110:25|63:5|47:60,1,70
90,140,18855,2,0,B|80:137|111:161|155:132,1,70
228,128,19255,6,0,B|296:184|296:184|376:152,1,140
384,112,19855,1,0,0:0:0:0:
400,48,20055,1,0,0:0:0:0:
192,260,20855,6,0,P|280:308|356:248,3,140
376,236,22255,5,0,0:0:0:0:
404,160,22455,2,0,P|372:68|264:92,1,210
228,128,23255,2,0,P|264:220|372:212,1,210
360,112,24055,2,0,P|296:72|296:88,1,140
264,104,24655,2,0,P|256:184|344:144,1,210
176,72,25655,6,2,P|80:136|88:212,1,140
76,240,26255,1,8,0:0:0:0:
160,308,26655,1,8,0:0:0:0:
364,144,27255,6,2,P|376:52|296:32,1,140
272,24,27855,1,8,0:0:0:0:
160,80,28255,1,8,0:0:0:0:
144,216,28855,6,0,P|209:286|282:258,1,140
324,220,29455,1,0,0:0:0:0:
372,68,29855,1,0,0:0:0:0:
300,36,30055,1,0,0:0:0:0:
232,60,30255,1,0,0:0:0:0:
176,120,30455,6,0,L|108:96,1,70
72,176,30855,2,0,L|148:216,1,70
228,184,31255,2,0,L|272:112,1,70
264,48,31655,2,0,L|176:4,1,70
128,40,32055,6,0,L|56:104,2,70
220,40,32655,1,0,0:0:0:0:
376,116,33055,1,0,0:0:0:0:
276,216,33655,6,0,L|216:264,2,70
372,132,34255,1,0,0:0:0:0:
204,64,34655,1,0,0:0:0:0:
104,116,35255,6,0,L|56:144,3,35
236,80,35655,2,0,L|236:28,3,35
392,112,36055,2,0,L|440:132,3,35
240,204,36455,2,0,L|240:256,3,35
80,96,36855,6,2,P|252:28|436:148,1,420
212,216,38455,2,0,L|212:296,1,70
296,288,38855,2,0,L|296:208,1,70
156,220,39255,2,0,L|156:304,1,70
352,288,39655,2,0,L|352:204,1,70
312,132,40055,5,0,0:0:0:0:
216,108,40255,1,0,0:0:0:0:
144,160,40455,1,0,0:0:0:0:
116,240,40655,1,0,0:0:0:0:
136,320,40855,2,0,P|240:344|412:288,1,280
408,216,41855,1,0,0:0:0:0:
416,128,42055,1,0,0:0:0:0:
424,40,42255,1,0,0:0:0:0:
336,36,42455,1,0,0:0:0:0:
328,132,42655,1,0,0:0:0:0:
324,220,42855,1,0,0:0:0:0:
316,312,43055,1,0,0:0:0:0:
256,252,43255,2,0,L|176:248,1,70
404,248,43655,2,0,L|480:252,1,70
476,184,44055,6,0,P|460:132|244:136,1,280
200,116,45255,6,0,L|104:120,2,70
324,120,46055,1,0,0:0:0:0:
356,204,46455,1,0,0:0:0:0:
352,292,46655,1,0,0:0:0:0:
264,328,46855,1,0,0:0:0:0:
176,308,47055,1,0,0:0:0:0:
132,232,47255,2,0,P|136:136|220:88,1,140
132,336,48055,2,0,P|168:304|148:268,1,70
160,272,48455,2,0,P|140:220|160:200,1,70
152,200,48855,2,0,P|188:168|168:132,1,70
180,136,49255,2,0,P|160:84|180:64,1,70
284,76,49655,6,0,P|320:108|300:144,1,70
312,140,50055,2,0,P|292:192|312:212,1,70
304,212,50455,2,0,P|340:244|320:280,1,70
232,224,50855,1,0,0:0:0:0:
196,132,51055,1,0,0:0:0:0:
132,184,51255,6,0,P|120:256|184:300,2,140
324,116,52455,1,0,0:0:0:0:
212,192,52855,6,0,P|196:304|248:340,2,140
332,120,54055,1,0,0:0:0:0:
124,124,54455,6,0,L|124:220,1,70
228,196,54855,2,0,L|232:120,1,70
336,132,55255,2,0,L|332:216,1,70
436,204,55655,2,0,L|432:120,1,70
328,132,56055,6,0,L|244:128,3,70
152,132,56855,6,0,L|152:216,3,70
260,40,57655,5,0,0:0:0:0:
260,40,58055,2,0,P|448:176|308:40,1,980
256,24,76855,5,0,0:0:0:0:
256,24,77255,2,0,P|415:270|379:54,1,840
192,80,80055,6,0,L|192:176,1,70
292,152,80455,2,0,P|328:108|312:76,1,70
236,48,80856,2,0,P|180:60|168:92,1,70
124,160,81256,2,0,P|112:204|140:240,1,70
184,268,81656,6,0,L|240:288,2,35
116,216,82056,2,0,P|96:160|108:136,1,70
128,88,82456,2,0,P|168:52|204:60,1,70
260,72,82856,2,0,P|308:104|304:144,1,70
332,200,83256,6,0,L|324:236,2,35
344,128,83656,2,0,P|316:72|292:80,1,70
248,64,84056,2,0,P|200:80|180:120,1,70
148,156,84456,2,0,P|144:208|168:240,1,70
204,272,84856,6,0,P|240:292|280:272,2,70
164,212,85456,2,0,P|152:172|168:144,1,70
228,92,85856,2,0,P|276:88|320:104,1,70
388,136,86256,1,0,0:0:0:0:
388,136,86456,6,0,P|444:164|444:196,1,70
456,204,86856,2,0,P|436:236|436:284,1,70
432,296,87256,2,0,P|381:333|353:318,1,70
340,325,87656,2,0,P|320:292|277:270,1,70
176,228,88056,6,0,L|176:56,1,164.499997489929
248,52,88456,6,0,L|244:248,1,164.499997489929
320,224,88856,6,0,L|320:40,1,164.499997489929
408,56,89256,6,0,L|408:240,1,164.499997489929
376,284,89656,1,0,0:0:0:0:
320,328,89856,1,0,0:0:0:0:
248,324,90056,1,0,0:0:0:0:
200,272,90256,1,0,0:0:0:0:
180,208,90456,2,0,P|172:152|216:124,1,70
240,128,90856,2,0,P|288:144|280:184,1,70
296,228,91256,1,0,0:0:0:0:
264,300,91456,1,0,0:0:0:0:
192,288,91656,1,0,0:0:0:0:
144,224,91856,1,0,0:0:0:0:
156,148,92056,2,0,L|216:88,1,70
272,72,92456,6,0,L|360:76,1,70
428,88,92856,1,0,0:0:0:0:
452,168,93056,1,0,0:0:0:0:
432,252,93256,1,0,0:0:0:0:
376,292,93456,1,0,0:0:0:0:
300,288,93656,2,0,P|256:272|240:232,1,70
228,200,94056,2,0,P|272:144|324:168,1,70
336,144,94456,1,0,0:0:0:0:
392,180,94656,1,0,0:0:0:0:
412,240,94856,1,0,0:0:0:0:
392,296,95056,1,0,0:0:0:0:
332,332,95256,2,0,P|256:312|252:272,1,70
224,284,95656,6,0,P|200:236|212:196,1,70
220,164,96056,2,0,P|240:132|300:132,1,70
332,132,96456,2,0,P|376:152|380:192,1,70
384,232,96856,2,0,P|380:256|340:272,1,70
296,248,97256,2,0,P|272:220|284:184,1,70
316,160,97656,2,0,P|368:176|376:212,1,70
384,220,98056,2,0,P|392:272|376:296,1,70
352,312,98456,1,0,0:0:0:0:
232,240,98856,5,0,0:0:0:0:
200,176,99256,2,0,P|192:156|224:112,1,70
296,108,99656,2,0,P|324:136|320:168,1,70
260,216,100056,2,0,L|260:264,2,35
200,176,100456,2,0,P|172:140|184:104,1,70
216,72,100856,1,0,0:0:0:0:
288,48,101056,1,0,0:0:0:0:
352,88,101256,1,0,0:0:0:0:
380,152,101456,1,0,0:0:0:0:
372,220,101656,2,0,P|352:280|268:292,1,140
168,172,102456,5,0,0:0:0:0:
212,112,102656,1,0,0:0:0:0:
280,68,102856,1,0,0:0:0:0:
352,88,103056,1,0,0:0:0:0:
400,144,103256,2,0,P|408:220|384:264,1,70
396,248,103656,2,0,P|372:296|332:308,1,70
296,316,104056,1,0,0:0:0:0:
240,280,104256,1,0,0:0:0:0:
208,224,104456,1,0,0:0:0:0:
204,152,104656,1,0,0:0:0:0:
248,88,104856,2,0,P|316:80|376:128,1,140
384,152,105656,5,0,0:0:0:0:
320,184,105856,1,0,0:0:0:0:
388,216,106056,1,0,0:0:0:0:
324,252,106256,1,0,0:0:0:0:
388,280,106456,1,0,0:0:0:0:
324,252,106656,1,0,0:0:0:0:
388,216,106856,1,0,0:0:0:0:
328,176,107056,1,0,0:0:0:0:
328,112,107256,2,0,P|376:80|432:88,1,70
432,92,107656,2,0,P|480:128|484:152,1,70
488,196,108056,2,0,P|432:296|336:304,1,210
292,288,108856,6,0,P|264:256|256:224,1,70
264,160,109256,1,0,0:0:0:0:
312,112,109456,1,0,0:0:0:0:
376,100,109656,2,0,B|456:160|444:232|408:248,1,140
400,288,110456,1,0,0:0:0:0:
338,311,110656,1,0,0:0:0:0:
280,273,110856,1,0,0:0:0:0:
265,208,111056,1,0,0:0:0:0:
288,144,111256,2,0,B|324:80|392:104|408:144,1,140
196,236,112056,6,0,L|185:133,1,70
304,152,112456,2,0,L|297:241,1,70
196,236,112856,2,0,L|188:136,1,70
304,152,113256,2,0,L|300:244,1,70
196,236,113656,2,0,L|192:140,1,70
304,152,114056,2,0,L|304:248,1,70
304,240,114456,2,0,P|226:290|171:277,1,140
144,256,115256,6,0,P|93:165|101:117,1,70
144,256,116056,2,0,P|96:168|104:120,1,70
144,256,116856,2,0,P|99:171|107:123,1,70
144,256,117656,2,0,P|103:175|111:127,1,70
144,256,118456,6,0,P|106:178|114:130,1,70
144,256,118856,2,0,P|109:181|117:133,1,70
144,256,119256,2,0,P|112:184|120:136,1,70
144,256,119656,2,0,P|116:188|124:140,1,70
120,172,120056,5,0,0:0:0:0:
144,120,120256,1,0,0:0:0:0:
184,84,120456,1,0,0:0:0:0:
244,64,120656,1,0,0:0:0:0:
288,64,120856,2,0,P|360:100|412:216,1,210
368,295,121656,6,0,P|248:356|215:338,1,105.000004005432
202,336,122056,1,0,0:0:0:0:
147,266,122256,1,0,0:0:0:0:
131,177,122456,2,0,B|243:46|191:191|309:55|308:55,1,210.000008010865
388,34,123256,5,0,0:0:0:0:
449,102,123456,1,0,0:0:0:0:
436,199,123656,1,0,0:0:0:0:
390,273,123856,1,0,0:0:0:0:
318,328,124056,2,0,P|196:352|149:280,1,210.000008010865
154,111,124856,5,0,0:0:0:0:
222,61,125056,1,0,0:0:0:0:
309,67,125256,1,0,0:0:0:0:
366,139,125456,1,0,0:0:0:0:
360,232,125656,1,0,0:0:0:0:
297,302,125856,1,0,0:0:0:0:
208,301,126056,1,0,0:0:0:0:
158,227,126256,1,0,0:0:0:0:
172,136,126456,1,0,0:0:0:0:
246,88,126656,1,0,0:0:0:0:
333,112,126856,1,0,0:0:0:0:
390,157,127056,1,0,0:0:0:0:
390,157,127256,2,0,B|455:343|452:61|501:263,1,210.000008010865
378,315,128056,6,0,P|265:268|269:195,1,105.000004005432
224,218,128456,1,0,0:0:0:0:
204,126,128656,1,0,0:0:0:0:
203,39,128856,6,0,P|307:23|369:66,1,105.000004005432
380,46,129256,2,0,P|459:93|480:148,1,105.000004005432
477,194,129656,1,0,0:0:0:0:
449,274,129856,1,0,0:0:0:0:
379,317,130056,1,0,0:0:0:0:
297,292,130256,1,0,0:0:0:0:
250,224,130456,2,0,B|218:40|184:282|158:56,1,210.000008010865
58,94,131256,5,0,0:0:0:0:
150,131,131456,1,0,0:0:0:0:
57,156,131656,1,0,0:0:0:0:
150,192,131856,1,0,0:0:0:0:
49,218,132056,1,0,0:0:0:0:
152,243,132256,1,0,0:0:0:0:
49,276,132456,1,0,0:0:0:0:
145,304,132656,1,0,0:0:0:0:
41,338,132856,1,0,0:0:0:0:
141,361,133056,1,0,0:0:0:0:
232,315,133256,1,0,0:0:0:0:
305,264,133456,1,0,0:0:0:0:
371,206,133656,2,0,P|418:107|342:57,1,210.000008010865
219,59,134456,6,0,L|133:138,1,105.000004005432
111,212,134856,1,0,0:0:0:0:
167,282,135056,1,0,0:0:0:0:
247,231,135256,2,0,P|316:189|331:146,1,105.000004005432
285,111,135656,2,0,P|202:138|182:162,1,105.000004005432
171,239,136056,1,0,0:0:0:0:
184,322,136256,1,0,0:0:0:0:
261,359,136456,1,0,0:0:0:0:
341,321,136656,1,0,0:0:0:0:
361,237,136856,2,0,P|393:150|379:119,1,105.000004005432
309,115,137256,2,0,P|269:178|291:239,1,105.000004005432
303,268,137656,2,0,P|435:267|442:258,1,105.000004005432
303,268,138056,2,0,P|435:267|442:258,1,105.000004005432
299,193,138456,2,0,P|431:194|438:203,1,105.000004005432
298,193,138856,2,0,P|430:194|437:203,1,105.000004005432
303,268,139256,2,0,P|435:267|442:258,1,105.000004005432
298,193,139656,2,0,P|430:194|437:203,1,105.000004005432
463,204,140056,2,0,B|464:351|464:350|298:331,1,210.000008010865
279,331,140856,6,0,B|77:276|308:273|108:224,1,210.000008010865
233,331,141656,6,0,B|435:276|204:273|404:224,1,210.000008010865
