osu file format v14

[General]
AudioFilename: audio.mp3
AudioLeadIn: 0
PreviewTime: -1
Countdown: 1
SampleSet: Soft
StackLeniency: 0.7
Mode: 0
LetterboxInBreaks: 0
WidescreenStoryboard: 0

[Editor]
Bookmarks: 90205,227028
DistanceSpacing: 1
BeatDivisor: 4
GridSize: 32
TimelineZoom: 2.5

[Metadata]
Title:Monody
TitleUnicode:Monody
Artist:TheFatRat/Laura BreHm
ArtistUnicode:TheFatRat/Laura BreHm
Creator:blueloniess
Version:bluelon
Source:
Tags:blueloniess monody
BeatmapID:1497486
BeatmapSetID:708307

[Difficulty]
HPDrainRate:0
CircleSize:4
OverallDifficulty:4
ApproachRate:10
SliderMultiplier:1.8
SliderTickRate:1

[Events]
//Background and Video events
//Break Periods
2,164424,226578
//Storyboard Layer 0 (Background)
//Storyboard Layer 1 (Fail)
//Storyboard Layer 2 (Pass)
//Storyboard Layer 3 (Foreground)
//Storyboard Sound Samples

[TimingPoints]
206,280.373831775701,4,2,0,100,1,0
54318,280.373831775701,4,2,0,100,1,0
96934,-200,4,2,0,100,0,0
98617,-100,4,2,0,100,0,0
105906,-200,4,2,0,100,0,0
107589,-100,4,2,0,100,0,0
111046,-100,4,2,0,5,0,0
111140,-100,4,2,0,100,0,0
111327,-100,4,2,0,50,0,0
111420,-100,4,2,0,100,0,0
111607,-100,4,2,0,5,0,0
111701,-100,4,2,0,100,0,0
111888,-100,4,2,0,50,0,0
111981,-100,4,2,0,100,0,0
127775,-200,4,2,0,100,0,0
128056,-100,4,2,0,100,0,0
143476,-200,4,2,0,100,0,0
227028,-100,4,2,0,100,0,0

[HitObjects]
25,58,54318,5,0,0:0:0:0:
429,54,54598,1,0,0:0:0:0:
437,329,54785,1,0,0:0:0:0:
309,328,54878,1,0,0:0:0:0:
308,116,55159,1,0,0:0:0:0:
77,110,55439,5,0,0:0:0:0:
62,348,55719,1,0,0:0:0:0:
302,349,55906,1,0,0:0:0:0:
310,248,56000,1,0,0:0:0:0:
54,257,56280,1,0,0:0:0:0:
241,41,56560,6,0,P|258:105|251:163,1,120
300,50,56841,2,0,P|279:123|234:172,1,120
397,157,57121,2,0,P|337:170|301:166,2,60
473,212,57402,2,0,P|404:250|345:248,1,120
201,216,57682,6,0,P|118:201|36:268,1,180
102,367,58056,2,0,P|171:345|197:317,1,60
309,321,58243,2,0,P|340:253|306:144,1,180
73,52,58803,5,0,0:0:0:0:
54,357,59084,1,0,0:0:0:0:
447,368,59271,1,0,0:0:0:0:
445,231,59364,1,0,0:0:0:0:
122,231,59645,1,0,0:0:0:0:
129,57,59925,5,0,0:0:0:0:
433,52,60205,1,0,0:0:0:0:
421,351,60392,1,0,0:0:0:0:
427,221,60486,1,0,0:0:0:0:
82,229,60766,1,0,0:0:0:0:
237,333,61046,6,0,P|309:300|345:222,1,120
407,354,61327,2,0,P|371:290|302:263,1,120
170,230,61607,2,0,P|101:245|86:249,2,60
309,176,61888,2,0,P|329:102|291:27,1,120
84,79,62168,2,0,P|64:149|127:245,1,180
260,258,62542,2,0,P|317:307|324:347,1,60
125,362,62729,2,0,P|56:347|17:236,1,180
404,46,63289,5,0,0:0:0:0:
69,300,63570,1,0,0:0:0:0:
421,298,63757,1,0,0:0:0:0:
309,186,63850,1,0,0:0:0:0:
91,19,64131,1,0,0:0:0:0:
252,377,64411,5,0,0:0:0:0:
447,35,64691,1,0,0:0:0:0:
17,27,64878,1,0,0:0:0:0:
144,117,64972,1,0,0:0:0:0:
490,367,65252,1,0,0:0:0:0:
253,253,65532,6,0,P|176:262|112:226,1,120
360,266,65813,2,0,P|296:337|239:367,1,120
421,185,66093,2,0,P|452:239|455:272,2,60
345,82,66374,2,0,P|419:52|485:52,1,120
208,242,66654,2,0,P|116:233|72:137,1,180
170,51,67028,2,0,P|171:120|157:141,1,60
46,337,67215,2,0,P|79:229|67:149,1,180
430,58,67775,5,0,0:0:0:0:
206,278,68056,1,0,0:0:0:0:
459,188,68243,1,0,0:0:0:0:
311,147,68336,2,0,P|200:158|89:168,1,180
301,333,68897,6,0,L|491:315,1,180
220,74,69364,1,0,0:0:0:0:
131,164,69458,2,0,P|126:230|251:253,1,180
412,220,70018,6,0,P|426:160|433:27,1,180
412,220,70579,1,0,0:0:0:0:
306,98,70719,1,0,0:0:0:0:
250,253,70860,2,0,P|303:225|328:184,1,90
224,57,71140,6,0,P|144:47|36:97,1,180
231,178,71560,1,0,0:0:0:0:
59,288,71701,6,0,P|123:321|238:291,1,180
287,46,72261,5,0,0:0:0:0:
440,252,72542,1,0,0:0:0:0:
376,49,72729,1,0,0:0:0:0:
437,141,72822,2,0,P|362:163|293:77,1,180
280,5,73243,1,0,0:0:0:0:
186,119,73383,2,0,P|168:176|93:284,1,180
98,117,73850,1,0,0:0:0:0:
216,231,73944,2,0,P|285:249|345:245,1,120
461,183,74224,1,0,0:0:0:0:
95,64,74504,6,0,P|165:113|187:178,1,120
228,239,74785,2,0,P|262:172|246:84,1,120
319,37,75065,2,0,P|371:43|413:57,2,90
140,245,75486,1,0,0:0:0:0:
313,250,75626,6,0,P|396:255|477:168,1,180
363,24,76046,1,0,0:0:0:0:
237,101,76187,2,0,P|233:178|267:247,1,135
255,231,76467,2,0,P|341:238|346:172,1,150
353,191,76747,6,0,P|341:240|233:208,1,180
271,63,77168,1,0,0:0:0:0:
405,286,77308,2,0,P|354:323|321:335,1,90
108,130,77589,2,0,P|122:196|128:244,1,90
221,384,77869,6,0,P|233:301|252:190,1,180
412,33,78289,1,0,0:0:0:0:
435,169,78430,2,0,P|387:158|332:149,1,90
65,238,78710,2,0,P|116:261|150:176,1,150
114,111,78990,5,0,0:0:0:0:
436,283,79271,1,0,0:0:0:0:
395,99,79551,5,0,0:0:0:0:
55,250,79691,1,0,0:0:0:0:
410,88,79832,1,0,0:0:0:0:
173,187,79972,5,0,0:0:0:0:
461,308,80112,2,0,L|458:363,2,30
408,187,80252,2,0,P|324:170|233:236,1,180
122,324,80673,2,0,P|176:324|225:328,1,90
184,89,80953,2,0,L|75:91,1,90
338,260,81233,5,0,0:0:0:0:
130,32,81701,5,0,0:0:0:0:
130,171,81794,2,0,P|82:174|29:67,1,180
216,97,82215,1,0,0:0:0:0:
198,246,82355,2,0,P|130:279|7:259,1,180
278,41,82822,1,0,0:0:0:0:
330,121,82916,2,0,P|333:173|330:221,1,90
199,335,83196,2,0,P|196:283|199:235,1,90
397,15,83476,6,0,P|383:77|327:121,1,135
455,150,83757,2,0,P|392:151|318:110,1,135
230,58,84037,2,0,L|177:66,2,45
200,249,84318,2,0,L|188:144,1,90
336,143,84598,2,0,P|331:194|331:216,2,60
132,293,84878,2,0,P|198:282|300:306,1,150
504,206,85159,2,0,P|461:221|310:189,1,180
147,66,85719,5,0,0:0:0:0:
393,158,86000,1,0,0:0:0:0:
78,185,86187,1,0,0:0:0:0:
219,245,86280,2,0,P|152:256|38:306,1,180
289,313,86701,1,0,0:0:0:0:
361,202,86841,6,0,P|324:149|221:84,1,180
297,311,87261,2,0,P|338:347|357:347,1,60
501,174,87402,2,0,P|456:188|355:292,1,180
373,16,87962,5,0,0:0:0:0:
256,192,88009,12,0,90065,0:0:0:0:
199,294,90205,6,0,P|257:328|452:270,1,270
278,236,90766,2,0,P|322:245|367:225,1,90
356,141,91046,2,0,P|312:131|271:148,1,90
191,95,91327,2,0,P|310:38|434:82,1,270
362,228,91888,2,0,P|321:245|278:236,1,90
271,148,92168,2,0,P|312:131|356:141,1,90
442,281,92448,2,0,P|323:337|199:294,1,270
278,236,93009,2,0,P|321:245|362:228,1,90
355,140,93289,2,0,P|312:131|271:148,1,90
191,95,93570,2,0,P|310:38|434:82,1,270
362,228,94131,2,0,P|321:245|278:236,1,90
271,148,94410,2,0,P|312:131|356:141,1,90
442,281,94691,2,0,P|323:337|199:294,1,270
141,172,95252,2,0,P|105:203|92:244,1,90
251,208,95532,2,0,P|287:177|300:136,1,90
173,77,95813,2,0,L|210:344,1,270
419,242,96374,2,0,P|405:200|371:172,1,90
212,137,96654,2,0,P|226:179|261:208,1,90
339,77,96935,2,0,L|302:344,1,270
128,128,98617,6,0,P|96:160|96:224,1,90
192,256,98897,2,0,P|224:224|224:160,1,90
128,128,99177,2,0,P|139:220|214:260,1,180
320,256,99598,1,0,0:0:0:0:
422,202,99738,2,0,P|415:159|384:128,1,90
281,181,100018,2,0,P|288:224|320:256,1,90
422,202,100299,2,0,P|370:115|212:126,1,270
192,256,100860,6,0,P|224:224|224:160,1,90
128,128,101140,2,0,P|96:160|96:224,1,90
192,256,101420,2,0,P|258:217|358:247,1,180
388,325,101841,1,0,0:0:0:0:
320,256,101981,6,0,P|288:224|288:160,1,90
384,128,102261,2,0,P|416:160|416:224,1,90
320,256,102542,2,0,B|224:320|160:192|64:256,1,270
0,192,103103,6,0,P|32:160|76:148,1,90
166,146,103383,2,0,P|211:146|250:168,1,90
302,244,103663,2,0,P|329:311|473:233,1,270
434,176,104224,2,0,P|386:181|348:162,1,90
337,68,104504,2,0,P|385:63|423:82,1,90
434,176,104785,2,0,P|344:238|192:204,1,270
147,132,105346,2,0,P|183:96|230:91,1,90
310,114,105626,2,0,P|346:150|351:197,1,90
326,272,105906,2,0,P|237:322|121:220,1,270
104,193,107589,6,0,L|196:173,1,90
192,224,107869,2,0,L|284:204,1,90
376,120,108149,6,0,L|376:304,1,180
280,96,108617,1,0,0:0:0:0:
336,78,108710,2,0,P|376:120|370:183,1,120
316,201,108990,1,0,0:0:0:0:
195,213,109177,2,0,L|206:271,1,60
130,112,109458,2,0,L|119:170,1,60
89,293,109738,1,0,0:0:0:0:
122,343,109832,2,0,P|189:368|246:353,1,120
281,320,110112,2,0,P|339:311|393:335,1,120
432,381,110392,6,0,L|445:289,1,90
405,210,110673,2,0,L|418:118,1,90
316,61,110953,2,0,L|325:125,1,60
281,163,111140,1,0,0:0:0:0:
336,185,111233,2,0,L|345:249,1,60
385,288,111420,1,0,0:0:0:0:
330,310,111513,2,0,L|321:374,1,60
263,351,111701,1,0,0:0:0:0:
208,329,111794,2,0,L|199:265,1,60
193,209,111981,2,0,L|184:145,1,60
331,115,112261,6,0,P|293:162|171:134,1,180
139,112,112635,6,0,L|139:296,1,180
243,91,113103,1,0,0:0:0:0:
187,73,113196,2,0,P|147:115|153:178,1,120
207,196,113476,1,0,0:0:0:0:
328,208,113663,2,0,L|317:266,1,60
393,107,113944,2,0,L|404:165,1,60
426,270,114224,1,0,0:0:0:0:
381,310,114318,2,0,P|320:308|268:262,1,120
268,213,114598,2,0,P|329:180|347:133,1,120
231,36,114878,6,0,L|323:46,1,90
206,132,115159,2,0,L|114:122,1,90
31,107,115439,1,0,0:0:0:0:
45,108,115626,1,0,0:0:0:0:
186,227,115719,1,0,0:0:0:0:
167,318,115906,1,0,0:0:0:0:
352,239,116000,2,0,L|343:175,1,60
161,311,116187,1,0,0:0:0:0:
134,87,116280,2,0,L|125:146,1,60
155,302,116467,1,0,0:0:0:0:
223,217,116560,1,0,0:0:0:0:
150,292,116747,1,0,0:0:0:0:
255,340,116841,2,0,P|319:346|377:315,1,120
423,209,117121,6,0,P|374:173|250:188,1,180
208,258,117589,1,0,0:0:0:0:
153,283,117682,2,0,P|119:248|112:177,1,120
149,133,117962,2,0,L|79:115,1,60
189,89,118149,5,0,0:0:0:0:
247,103,118243,2,0,P|281:138|250:254,1,180
146,311,118710,1,0,0:0:0:0:
198,281,118803,2,0,P|260:294|306:338,1,120
331,383,119084,2,0,P|376:344|434:333,1,120
507,220,119364,6,0,P|449:240|394:222,1,120
369,167,119645,2,0,L|368:235,1,60
417,117,119925,1,0,0:0:0:0:
307,68,120112,1,0,0:0:0:0:
270,115,120205,1,0,0:0:0:0:
172,185,120392,1,0,0:0:0:0:
209,232,120486,2,0,P|267:212|322:230,1,120
369,354,120766,2,0,L|378:295,1,60
446,185,120953,2,0,L|455:244,1,60
373,108,121233,2,0,L|382:49,1,60
202,174,121607,6,0,P|251:210|375:195,1,180
429,99,122075,1,0,0:0:0:0:
378,66,122168,2,0,P|327:83|258:67,1,120
218,29,122448,2,0,P|160:15|103:33,1,120
55,70,122729,1,0,0:0:0:0:
60,189,122916,1,0,0:0:0:0:
114,213,123009,1,0,0:0:0:0:
215,148,123196,1,0,0:0:0:0:
269,124,123289,2,0,P|318:164|372:164,1,120
409,115,123570,2,0,P|373:170|395:222,1,120
477,276,123850,5,0,0:0:0:0:
341,296,124131,2,0,L|329:361,2,60
277,235,124411,1,0,0:0:0:0:
450,135,124598,1,0,0:0:0:0:
352,160,124691,1,0,0:0:0:0:
199,100,124878,1,0,0:0:0:0:
297,75,124971,5,0,0:0:0:0:
199,100,125439,5,0,0:0:0:0:
101,125,125533,1,0,0:0:0:0:
182,186,125719,5,0,0:0:0:0:
280,211,125813,1,0,0:0:0:0:
191,279,126000,5,0,0:0:0:0:
93,254,126093,2,0,P|76:186|107:80,1,180
212,57,126560,5,0,0:0:0:0:
230,114,126654,1,0,0:0:0:0:
248,171,126934,2,0,P|313:151|363:172,1,120
417,152,127215,1,0,0:0:0:0:
460,263,127402,2,0,L|399:246,1,60
302,313,127682,1,0,0:0:0:0:
270,262,127775,2,0,L|209:245,1,60
161,279,128056,1,0,0:0:0:0:
44,309,128243,2,0,L|41:275,1,30
41,248,128336,6,0,L|163:275,1,120
194,224,128617,2,0,L|316:197,1,120
367,218,128897,2,0,P|411:258|423:259,1,60
468,253,129084,1,0,0:0:0:0:
512,209,129177,2,0,P|516:157|495:131,1,60
462,119,129364,1,0,0:0:0:0:
406,125,129458,5,0,0:0:0:0:
297,73,129645,1,0,0:0:0:0:
355,61,129738,2,0,P|392:88|408:160,1,120
360,193,130018,1,0,0:0:0:0:
272,275,130205,2,0,L|453:260,1,180
390,339,130579,6,0,P|350:265|387:181,1,180
435,73,131046,1,0,0:0:0:0:
386,108,131140,2,0,P|326:122|263:112,1,120
225,71,131420,2,0,P|244:133|233:204,1,120
203,237,131701,1,0,0:0:0:0:
309,291,131888,2,0,L|298:231,1,60
414,263,132168,1,0,0:0:0:0:
379,214,132262,2,0,P|365:154|375:91,1,120
421,60,132542,2,0,P|426:109|377:93,1,120
377,31,132822,6,0,P|312:17|263:38,1,120
264,98,133103,2,0,P|329:112|378:91,1,120
412,43,133383,1,0,0:0:0:0:
472,192,133570,1,0,0:0:0:0:
458,133,133663,1,0,0:0:0:0:
389,312,133850,1,0,0:0:0:0:
403,253,133944,2,0,P|341:262|284:238,1,120
262,187,134224,2,0,P|206:166|147:175,1,120
103,216,134504,1,0,0:0:0:0:
240,275,134691,2,0,L|59:260,1,180
125,186,135065,6,0,P|160:265|120:342,1,180
240,275,135532,1,0,0:0:0:0:
292,304,135626,2,0,P|354:309|403:273,1,120
411,218,135906,2,0,P|349:223|300:187,1,120
290,131,136187,2,0,P|369:95|446:135,1,180
449,255,136654,1,0,0:0:0:0:
421,307,136747,2,0,P|365:328|306:313,1,120
267,268,137028,2,0,P|209:254|154:275,1,120
132,331,137308,6,0,L|116:263,1,60
106,213,137495,2,0,L|112:175,1,30
116,153,137589,1,0,0:0:0:0:
282,85,137869,1,0,0:0:0:0:
221,188,138056,1,0,0:0:0:0:
279,201,138149,1,0,0:0:0:0:
387,148,138336,1,0,0:0:0:0:
445,135,138430,6,0,L|434:199,1,60
341,304,138710,2,0,L|352:240,1,60
445,135,138897,2,0,L|434:199,1,60
355,105,139177,2,0,L|344:45,1,60
187,40,139551,6,0,P|263:80|343:45,1,180
453,94,140018,1,0,0:0:0:0:
412,138,140112,2,0,P|400:199|421:257,1,120
464,291,140392,2,0,P|415:335|363:333,1,120
308,306,140673,1,0,0:0:0:0:
352,194,140860,1,0,0:0:0:0:
293,205,140953,1,0,0:0:0:0:
337,93,141140,1,0,0:0:0:0:
282,69,141233,2,0,P|221:84|161:70,1,120
126,25,141514,2,0,L|118:96,1,60
115,144,141701,2,0,L|123:182,1,30
130,201,141794,5,0,0:0:0:0:
382,183,142075,1,0,0:0:0:0:
209,133,142355,1,0,0:0:0:0:
315,188,142542,1,0,0:0:0:0:
303,251,142635,1,0,0:0:0:0:
197,196,142822,1,0,0:0:0:0:
209,133,142916,1,0,0:0:0:0:
315,188,143103,1,0,0:0:0:0:
315,188,143149,1,0,0:0:0:0:
315,188,143196,2,0,L|299:278,1,90
394,346,143476,6,0,L|387:295,1,45
410,220,143757,2,0,L|403:169,1,45
344,100,144037,2,0,L|318:232,1,135
228,271,144598,6,0,L|235:220,1,45
212,145,144879,2,0,L|219:94,1,45
278,25,145159,2,0,L|303:157,1,135
373,215,145719,6,0,L|380:260,1,45
396,134,146000,2,0,L|389:83,1,45
457,196,146280,2,0,L|325:221,1,135
222,244,146841,6,0,L|215:288,1,45
199,162,147122,2,0,L|206:111,1,45
138,224,147402,2,0,L|270:249,1,135
363,264,147962,6,0,L|369:219,1,45
248,107,148243,2,0,L|254:151,1,45
275,247,148523,2,0,L|299:113,1,135
241,44,149084,6,0,L|234:88,1,45
356,201,149365,2,0,L|349:156,1,45
318,19,149645,2,0,L|294:153,1,135
275,247,150205,6,0,L|319:240,1,45
442,179,150486,2,0,L|397:172,1,45
301,148,150766,2,0,P|266:284|436:262,1,360
442,179,152448,6,0,L|397:172,1,45
251,218,152729,2,0,L|206:211,1,45
42,153,153009,2,0,L|137:142,1,90
259,133,153430,1,0,0:0:0:0:
68,172,153570,6,0,L|112:178,1,45
259,133,153851,2,0,L|303:139,1,45
468,198,154131,2,0,L|326:221,1,135
187,250,154691,6,0,L|231:256,1,45
439,282,154972,2,0,L|394:288,1,45
252,331,155252,2,0,L|345:346,1,90
317,246,155673,1,0,0:0:0:0:
451,210,155813,6,0,L|406:203,1,45
199,178,156094,2,0,L|243:171,1,45
405,128,156374,2,0,L|266:102,1,135
157,67,156934,6,0,L|201:60,1,45
45,153,157215,2,0,L|0:146,1,45
198,238,157495,2,0,L|65:262,1,135
218,149,158056,6,0,L|173:142,1,45
330,235,158337,2,0,L|374:228,1,45
177,320,158617,2,0,L|309:344,1,135
409,280,159177,6,0,L|453:286,1,45
297,194,159458,2,0,L|252:200,1,45
256,192,159738,12,0,164224,0:0:0:0:
346,177,227028,6,0,P|246:200|171:125,1,180
397,44,227495,1,0,0:0:0:0:
468,118,227589,2,0,P|471:207|461:227,1,60
368,353,227869,2,0,P|275:353|235:353,1,120
107,179,228149,6,0,P|177:215|139:320,1,180
10,188,228617,1,0,0:0:0:0:
66,108,228710,2,0,P|143:106|213:115,1,120
276,283,228990,2,0,P|358:258|375:177,1,120
429,183,229271,6,0,L|218:212,2,180
405,84,229925,1,0,0:0:0:0:
326,45,230018,1,0,0:0:0:0:
252,63,230112,2,0,P|198:110|185:133,1,60
173,216,230299,1,0,0:0:0:0:
146,148,230392,2,0,P|110:75|33:2,1,180
81,345,230860,1,0,0:0:0:0:
81,345,230953,2,0,P|138:320|218:303,1,120
364,384,231233,2,0,P|274:378|241:344,1,120
339,163,231514,6,0,P|375:237|313:318,1,180
234,133,231981,1,0,0:0:0:0:
302,86,232075,2,0,P|358:80|425:117,1,120
411,246,232355,2,0,P|346:196|343:132,1,120
414,106,232635,6,0,P|364:65|255:114,2,180
454,186,233289,1,0,0:0:0:0:
466,282,233383,1,0,0:0:0:0:
425,356,233476,1,0,0:0:0:0:
339,343,233570,2,0,P|259:335|245:350,1,60
220,204,233757,2,0,P|297:242|272:334,1,180
186,301,234131,1,0,0:0:0:0:
89,339,234224,1,0,0:0:0:0:
16,285,234318,2,0,P|19:216|20:204,2,60
132,145,234598,2,0,P|58:173|6:157,1,120
154,53,234878,6,0,P|208:83|207:205,1,180
162,278,235252,1,0,0:0:0:0:
270,247,235346,1,0,0:0:0:0:
360,216,235439,2,0,P|431:206|489:221,1,120
436,370,235719,2,0,P|379:339|452:296,1,180
250,36,236280,5,0,0:0:0:0:
120,187,236467,1,0,0:0:0:0:
56,276,236560,2,0,P|15:227|16:144,1,120
115,69,236841,2,0,P|128:143|117:193,1,120
26,343,237121,2,0,P|104:308|235:320,1,180
295,363,237495,2,0,P|368:354|381:333,1,60
333,167,237682,2,0,P|278:225|374:289,1,180
420,219,238056,2,0,P|443:147|437:126,1,60
431,51,238243,6,0,P|375:79|251:97,2,180
481,134,238897,1,0,0:0:0:0:
458,216,238990,1,0,0:0:0:0:
423,284,239084,2,0,P|376:333|351:340,1,60
314,350,239271,1,0,0:0:0:0:
255,308,239364,2,0,P|215:244|141:167,1,180
97,70,239738,2,0,P|48:111|47:139,1,60
255,308,239925,2,0,P|340:302|385:275,1,120
512,181,240205,2,0,P|449:119|391:117,1,120
346,177,240486,6,0,P|246:200|171:125,1,180
397,44,240953,1,0,0:0:0:0:
468,118,241047,2,0,P|471:207|461:227,1,60
368,353,241327,2,0,P|275:353|235:353,1,120
107,179,241607,6,0,P|177:215|139:320,1,180
10,188,242075,1,0,0:0:0:0:
66,108,242168,2,0,P|143:106|213:115,1,120
276,283,242448,2,0,P|358:258|375:177,1,120
429,183,242729,6,0,L|218:212,2,180
405,84,243383,1,0,0:0:0:0:
326,45,243476,1,0,0:0:0:0:
252,63,243570,2,0,P|198:110|185:133,1,60
173,216,243757,1,0,0:0:0:0:
146,148,243850,2,0,P|110:75|33:2,1,180
81,345,244318,1,0,0:0:0:0:
81,345,244411,2,0,P|138:320|218:303,1,120
364,384,244691,2,0,P|274:378|241:344,1,120
339,163,244972,6,0,P|375:237|313:318,1,180
234,133,245439,1,0,0:0:0:0:
302,86,245533,2,0,P|358:80|425:117,1,120
411,246,245813,2,0,P|346:196|343:132,1,120
414,106,246093,6,0,P|364:65|255:114,2,180
454,186,246747,1,0,0:0:0:0:
466,282,246841,1,0,0:0:0:0:
425,356,246934,1,0,0:0:0:0:
339,343,247028,2,0,P|259:335|245:350,1,60
163,369,247215,6,0,L|155:177,2,180
54,109,247869,1,0,0:0:0:0:
164,114,247962,1,0,0:0:0:0:
249,101,248056,2,0,P|310:68|326:44,1,60
396,26,248243,1,0,0:0:0:0:
461,113,248336,6,0,P|376:154|299:256,1,180
360,343,248710,2,0,P|382:279|378:260,1,60
211,189,248897,2,0,P|142:200|73:244,1,120
186,365,249177,2,0,P|234:313|142:328,1,180
34,347,249738,5,0,0:0:0:0:
361,368,249925,1,0,0:0:0:0:
512,290,250018,2,0,P|446:280|381:314,1,120
211,252,250299,2,0,P|302:252|375:229,1,120
279,58,250579,6,0,P|218:110|298:177,1,180
363,61,250953,2,0,P|340:3|316:-9,1,60
106,60,251140,2,0,P|102:158|116:267,1,180
147,368,251514,2,0,P|182:317|198:299,1,60
337,200,251701,6,0,P|265:259|228:209,1,120
285,109,251981,2,0,P|416:99|439:108,1,120
373,349,252261,2,0,P|283:359|181:343,1,180
170,247,252635,1,0,0:0:0:0:
109,174,252729,1,0,0:0:0:0:
28,200,252822,2,0,P|19:260|25:300,2,60
67,78,253103,2,0,P|141:39|260:37,1,180
304,106,253476,1,0,0:0:0:0:
316,14,253570,1,0,0:0:0:0:
201,99,253663,2,0,P|209:170|224:246,1,120
374,241,253944,6,0,P|274:264|199:189,1,180
392,42,254411,1,0,0:0:0:0:
463,116,254505,2,0,P|466:205|456:225,1,60
363,351,254785,2,0,P|270:351|230:351,1,120
102,177,255065,6,0,P|172:213|134:318,1,180
5,186,255533,1,0,0:0:0:0:
61,106,255626,2,0,P|138:104|208:113,1,120
271,281,255906,2,0,P|353:256|370:175,1,120
424,181,256187,6,0,L|213:210,2,180
400,82,256841,1,0,0:0:0:0:
321,43,256934,1,0,0:0:0:0:
247,61,257028,2,0,P|193:108|180:131,1,60
168,214,257215,1,0,0:0:0:0:
141,146,257308,2,0,P|105:73|28:0,1,180
76,343,257776,1,0,0:0:0:0:
76,343,257869,2,0,P|133:318|213:301,1,120
359,382,258149,2,0,P|269:376|236:342,1,120
334,161,258430,6,0,P|370:235|308:316,1,180
229,131,258897,1,0,0:0:0:0:
297,84,258991,2,0,P|353:78|420:115,1,120
406,244,259271,2,0,P|341:194|338:130,1,120
409,104,259551,6,0,P|359:63|250:112,2,180
449,184,260205,1,0,0:0:0:0:
461,280,260299,1,0,0:0:0:0:
420,354,260392,1,0,0:0:0:0:
334,341,260486,2,0,P|254:333|240:348,1,60
215,202,260673,2,0,P|292:240|267:332,1,180
181,299,261047,1,0,0:0:0:0:
84,337,261140,1,0,0:0:0:0:
11,283,261234,2,0,P|14:214|15:202,2,60
127,143,261514,2,0,P|53:171|1:155,1,120
149,51,261794,6,0,P|203:81|202:203,1,180
157,276,262168,1,0,0:0:0:0:
265,245,262262,1,0,0:0:0:0:
355,214,262355,2,0,P|426:204|484:219,1,120
431,368,262635,2,0,P|374:337|447:294,1,180
245,34,263196,5,0,0:0:0:0:
115,185,263383,1,0,0:0:0:0:
51,274,263476,2,0,P|10:225|11:142,1,120
110,67,263757,2,0,P|123:141|112:191,1,120
21,341,264037,2,0,P|99:306|230:318,1,180
290,361,264411,2,0,P|363:352|376:331,1,60
328,165,264598,2,0,P|273:223|369:287,1,180
415,217,264972,2,0,P|438:145|432:124,1,60
426,49,265159,6,0,P|370:77|246:95,2,180
476,132,265813,1,0,0:0:0:0:
453,214,265906,1,0,0:0:0:0:
418,282,266000,2,0,P|371:331|346:338,1,60
309,348,266187,1,0,0:0:0:0:
250,306,266280,2,0,P|210:242|136:165,1,180
92,68,266654,2,0,P|43:109|42:137,1,60
250,306,266841,2,0,P|335:300|380:273,1,120
507,179,267121,2,0,P|444:117|386:115,1,120
341,175,267402,6,0,P|241:198|166:123,1,180
392,42,267869,1,0,0:0:0:0:
463,116,267963,2,0,P|466:205|456:225,1,60
363,351,268243,2,0,P|270:351|230:351,1,120
102,177,268523,6,0,P|172:213|134:318,1,180
5,186,268991,1,0,0:0:0:0:
61,106,269084,2,0,P|138:104|208:113,1,120
271,281,269364,2,0,P|353:256|370:175,1,120
424,181,269645,6,0,L|213:210,2,180
400,82,270299,1,0,0:0:0:0:
321,43,270392,1,0,0:0:0:0:
247,61,270486,2,0,P|193:108|180:131,1,60
168,214,270673,1,0,0:0:0:0:
141,146,270766,2,0,P|105:73|28:0,1,180
76,343,271234,1,0,0:0:0:0:
76,343,271327,2,0,P|133:318|213:301,1,120
359,382,271607,2,0,P|269:376|236:342,1,120
334,161,271888,6,0,P|370:235|308:316,1,180
206,124,272261,1,0,0:0:0:0:
288,71,272355,1,0,0:0:0:0:
396,76,272448,2,0,P|465:121|486:192,1,120
321,310,272729,2,0,P|227:299|165:273,1,120
165,73,273009,2,0,P|257:116|270:227,1,180
86,307,273383,2,0,P|6:293|-12:279,1,60
14,158,273570,6,0,B|123:145|80:221|193:182,1,180
420,323,274131,1,0,0:0:0:0:
463,250,274224,1,0,0:0:0:0:
474,173,274318,1,0,0:0:0:0:
440,99,274411,2,0,P|361:78|336:83,1,60
292,64,274598,1,0,0:0:0:0:
234,134,274691,2,0,P|256:207|273:324,1,180
160,84,275065,2,0,P|156:152|164:186,1,60
202,248,275252,2,0,P|295:241|412:219,1,180
198,33,275813,6,0,P|99:47|13:81,1,180
237,152,276374,2,0,P|319:98|271:1,1,180
156,86,276747,1,0,0:0:0:0:
168,207,276841,1,0,0:0:0:0:
209,318,276934,2,0,P|292:304|400:333,1,180
492,243,277308,2,0,P|433:253|401:241,1,60
370,68,277495,2,0,P|456:98|425:191,1,180
258,202,278056,2,0,B|144:243|179:158|31:193,1,180
256,192,278617,12,0,286467,0:0:0:0:
