osu file format v14

[General]
AudioFilename: audio.mp3
AudioLeadIn: 0
PreviewTime: 92196
Countdown: 0
SampleSet: Normal
StackLeniency: 0.7
Mode: 3
LetterboxInBreaks: 0
SpecialStyle: 0
WidescreenStoryboard: 0

[Editor]
DistanceSpacing: 0.4
BeatDivisor: 4
GridSize: 32
TimelineZoom: 1.3

[Metadata]
Title:Stronger
TitleUnicode:Stronger
Artist:TheFatRat, Slaydit & Anjulie
ArtistUnicode:TheFatRat, Slaydit & Anjulie
Creator:- Theya -
Version:Overcharge!
Source:
Tags:Monstercat Dubstep
BeatmapID:2077205
BeatmapSetID:993341

[Difficulty]
HPDrainRate:8
CircleSize:4
OverallDifficulty:8
ApproachRate:5
SliderMultiplier:1.4
SliderTickRate:1

[Events]
//Background and Video events
0,0,"674b4c17.jpg",0,0
//Break Periods
2,87990,93340
2,118740,129340
//Storyboard Layer 0 (Background)
//Storyboard Layer 1 (Fail)
//Storyboard Layer 2 (Pass)
//Storyboard Layer 3 (Foreground)
//Storyboard Sound Samples

[TimingPoints]
4540,375,4,1,0,60,1,0
40540,-200,4,1,0,60,0,0
40821,-66.6666666666667,4,1,0,60,0,0
40915,-200,4,1,0,60,0,0
41196,-66.6666666666667,4,1,0,60,0,0
41290,-200,4,1,0,60,0,0
41383,-66.6666666666667,4,1,0,60,0,0
41477,-200,4,1,0,60,0,0
41571,-66.6666666666667,4,1,0,60,0,0
41665,-1000,4,1,0,60,0,1
41993,-33.3333333333333,4,1,0,60,0,1
42040,-1000,4,1,0,60,0,1
42368,-33.3333333333333,4,1,0,60,0,1
42415,-1000,4,1,0,60,0,1
42743,-33.3333333333333,4,1,0,60,0,1
42790,-1000,4,1,0,60,0,1
43118,-33.3333333333333,4,1,0,60,0,1
43165,-1000,4,1,0,60,0,1
43493,-33.3333333333333,4,1,0,60,0,1
43540,-1000,4,1,0,60,0,1
43868,-33.3333333333333,4,1,0,60,0,1
43915,-1000,4,1,0,60,0,1
44243,-33.3333333333333,4,1,0,60,0,1
44290,-1000,4,1,0,60,0,1
44618,-33.3333333333333,4,1,0,60,0,1
44665,-200,4,1,0,60,0,1
44758,-66.6666666666667,4,1,0,60,0,1
44852,-200,4,1,0,60,0,1
44946,-66.6666666666667,4,1,0,60,0,1
45040,-1000,4,1,0,60,0,1
45368,-33.3333333333333,4,1,0,60,0,1
45415,-1000,4,1,0,60,0,1
45743,-33.3333333333333,4,1,0,60,0,1
45790,-1000,4,1,0,60,0,1
46118,-33.3333333333333,4,1,0,60,0,1
46165,-200,4,1,0,60,0,1
46258,-66.6666666666667,4,1,0,60,0,1
46352,-200,4,1,0,60,0,1
46446,-66.6666666666667,4,1,0,60,0,1
46540,-1000,4,1,0,60,0,1
46868,-33.3333333333333,4,1,0,60,0,1
46915,-1000,4,1,0,60,0,1
47243,-33.3333333333333,4,1,0,60,0,1
47290,-200,4,1,0,60,0,1
47383,-66.6666666666667,4,1,0,60,0,1
47477,-200,4,1,0,60,0,1
47571,-66.6666666666667,4,1,0,60,0,1
47665,-1000,4,1,0,60,0,1
47993,-33.3333333333333,4,1,0,60,0,1
48040,-1000,4,1,0,60,0,1
48368,-33.3333333333333,4,1,0,60,0,1
48415,-1000,4,1,0,60,0,1
48743,-33.3333333333333,4,1,0,60,0,1
48790,-1000,4,1,0,60,0,1
49118,-33.3333333333333,4,1,0,60,0,1
49165,-1000,4,1,0,60,0,1
49493,-33.3333333333333,4,1,0,60,0,1
49540,-1000,4,1,0,60,0,1
49868,-33.3333333333333,4,1,0,60,0,1
49915,-1000,4,1,0,60,0,1
50243,-33.3333333333333,4,1,0,60,0,1
50290,-1000,4,1,0,60,0,1
50618,-33.3333333333333,4,1,0,60,0,1
50665,-200,4,1,0,60,0,1
50758,-66.6666666666667,4,1,0,60,0,1
50852,-200,4,1,0,60,0,1
50946,-66.6666666666667,4,1,0,60,0,1
51040,-200,4,1,0,60,0,1
51133,-66.6666666666667,4,1,0,60,0,1
51227,-200,4,1,0,60,0,1
51321,-66.6666666666667,4,1,0,60,0,1
51415,-200,4,1,0,60,0,1
51508,-66.6666666666667,4,1,0,60,0,1
51602,-200,4,1,0,60,0,1
51696,-66.6666666666667,4,1,0,60,0,1
51790,-200,4,1,0,60,0,1
51883,-66.6666666666667,4,1,0,60,0,1
51977,-200,4,1,0,60,0,1
52071,-66.6666666666667,4,1,0,60,0,1
52165,-200,4,1,0,60,0,1
52258,-66.6666666666667,4,1,0,60,0,1
52352,-200,4,1,0,60,0,1
52446,-66.6666666666667,4,1,0,60,0,1
52540,-200,4,1,0,60,0,0
52821,-66.6666666666667,4,1,0,60,0,0
52915,-200,4,1,0,60,0,0
53196,-66.6666666666667,4,1,0,60,0,0
53290,-200,4,1,0,60,0,0
53383,-66.6666666666667,4,1,0,60,0,0
53477,-200,4,1,0,60,0,0
53571,-66.6666666666667,4,1,0,60,0,0
53665,-1000,4,1,0,60,0,1
53993,-33.3333333333333,4,1,0,60,0,1
54040,-1000,4,1,0,60,0,1
54368,-33.3333333333333,4,1,0,60,0,1
54415,-1000,4,1,0,60,0,1
54743,-33.3333333333333,4,1,0,60,0,1
54790,-1000,4,1,0,60,0,1
55118,-33.3333333333333,4,1,0,60,0,1
55165,-1000,4,1,0,60,0,1
55493,-33.3333333333333,4,1,0,60,0,1
55540,-1000,4,1,0,60,0,1
55868,-33.3333333333333,4,1,0,60,0,1
55915,-1000,4,1,0,60,0,1
56243,-33.3333333333333,4,1,0,60,0,1
56290,-1000,4,1,0,60,0,1
56618,-33.3333333333333,4,1,0,60,0,1
56665,-200,4,1,0,60,0,1
56758,-66.6666666666667,4,1,0,60,0,1
56852,-200,4,1,0,60,0,1
56946,-66.6666666666667,4,1,0,60,0,1
57040,-1000,4,1,0,60,0,1
57368,-33.3333333333333,4,1,0,60,0,1
57415,-1000,4,1,0,60,0,1
57743,-33.3333333333333,4,1,0,60,0,1
57790,-200,4,1,0,60,0,1
58071,-66.6666666666667,4,1,0,60,0,1
58165,-100,4,1,0,60,0,1
58540,-100,4,1,0,60,0,0
63040,-200,4,1,0,60,0,0
63321,-66.6666666666667,4,1,0,60,0,0
63415,-200,4,1,0,60,0,0
63696,-66.6666666666667,4,1,0,60,0,0
63790,-100,4,1,0,60,0,0
64540,-200,4,1,0,60,0,0
64821,-66.6666666666667,4,1,0,60,0,0
64915,-200,4,1,0,60,0,0
65196,-66.6666666666667,4,1,0,60,0,0
65290,-200,4,1,0,60,0,0
65383,-66.6666666666667,4,1,0,60,0,0
65477,-200,4,1,0,60,0,0
65571,-66.6666666666667,4,1,0,60,0,0
65665,-1000,4,1,0,60,0,1
65993,-33.3333333333333,4,1,0,60,0,1
66040,-1000,4,1,0,60,0,1
66368,-33.3333333333333,4,1,0,60,0,1
66415,-1000,4,1,0,60,0,1
66743,-33.3333333333333,4,1,0,60,0,1
66790,-1000,4,1,0,60,0,1
67118,-33.3333333333333,4,1,0,60,0,1
67165,-1000,4,1,0,60,0,1
67493,-33.3333333333333,4,1,0,60,0,1
67540,-1000,4,1,0,60,0,1
67868,-33.3333333333333,4,1,0,60,0,1
67915,-1000,4,1,0,60,0,1
68243,-33.3333333333333,4,1,0,60,0,1
68290,-1000,4,1,0,60,0,1
68618,-33.3333333333333,4,1,0,60,0,1
68665,-200,4,1,0,60,0,1
68758,-66.6666666666667,4,1,0,60,0,1
68852,-200,4,1,0,60,0,1
68946,-66.6666666666667,4,1,0,60,0,1
69040,-1000,4,1,0,60,0,1
69368,-33.3333333333333,4,1,0,60,0,1
69415,-1000,4,1,0,60,0,1
69743,-33.3333333333333,4,1,0,60,0,1
69790,-1000,4,1,0,60,0,1
70118,-33.3333333333333,4,1,0,60,0,1
70165,-200,4,1,0,60,0,1
70258,-66.6666666666667,4,1,0,60,0,1
70352,-200,4,1,0,60,0,1
70446,-66.6666666666667,4,1,0,60,0,1
70540,-1000,4,1,0,60,0,1
70868,-33.3333333333333,4,1,0,60,0,1
70915,-1000,4,1,0,60,0,1
71243,-33.3333333333333,4,1,0,60,0,1
71290,-200,4,1,0,60,0,1
71383,-66.6666666666667,4,1,0,60,0,1
71477,-200,4,1,0,60,0,1
71571,-66.6666666666667,4,1,0,60,0,1
71665,-1000,4,1,0,60,0,1
71993,-33.3333333333333,4,1,0,60,0,1
72040,-1000,4,1,0,60,0,1
72368,-33.3333333333333,4,1,0,60,0,1
72415,-1000,4,1,0,60,0,1
72743,-33.3333333333333,4,1,0,60,0,1
72790,-1000,4,1,0,60,0,1
73118,-33.3333333333333,4,1,0,60,0,1
73165,-1000,4,1,0,60,0,1
73493,-33.3333333333333,4,1,0,60,0,1
73540,-1000,4,1,0,60,0,1
73868,-33.3333333333333,4,1,0,60,0,1
73915,-1000,4,1,0,60,0,1
74243,-33.3333333333333,4,1,0,60,0,1
74290,-1000,4,1,0,60,0,1
74618,-33.3333333333333,4,1,0,60,0,1
74665,-200,4,1,0,60,0,1
74758,-66.6666666666667,4,1,0,60,0,1
74852,-200,4,1,0,60,0,1
74946,-66.6666666666667,4,1,0,60,0,1
75040,-200,4,1,0,60,0,1
75133,-66.6666666666667,4,1,0,60,0,1
75227,-200,4,1,0,60,0,1
75321,-66.6666666666667,4,1,0,60,0,1
75415,-200,4,1,0,60,0,1
75508,-66.6666666666667,4,1,0,60,0,1
75602,-200,4,1,0,60,0,1
75696,-66.6666666666667,4,1,0,60,0,1
75790,-100,4,1,0,60,0,1
76540,-200,4,1,0,60,0,0
76821,-66.6666666666667,4,1,0,60,0,0
76915,-200,4,1,0,60,0,0
77196,-66.6666666666667,4,1,0,60,0,0
77290,-200,4,1,0,60,0,0
77383,-66.6666666666667,4,1,0,60,0,0
77477,-200,4,1,0,60,0,0
77571,-66.6666666666667,4,1,0,60,0,0
77665,-1000,4,1,0,60,0,1
77993,-33.3333333333333,4,1,0,60,0,1
78040,-1000,4,1,0,60,0,1
78368,-33.3333333333333,4,1,0,60,0,1
78415,-1000,4,1,0,60,0,1
78743,-33.3333333333333,4,1,0,60,0,1
78790,-1000,4,1,0,60,0,1
79118,-33.3333333333333,4,1,0,60,0,1
79165,-1000,4,1,0,60,0,1
79493,-33.3333333333333,4,1,0,60,0,1
79540,-1000,4,1,0,60,0,1
79868,-33.3333333333333,4,1,0,60,0,1
79915,-1000,4,1,0,60,0,1
80243,-33.3333333333333,4,1,0,60,0,1
80290,-1000,4,1,0,60,0,1
80618,-33.3333333333333,4,1,0,60,0,1
80665,-200,4,1,0,60,0,1
80758,-66.6666666666667,4,1,0,60,0,1
80852,-200,4,1,0,60,0,1
80946,-66.6666666666667,4,1,0,60,0,1
81040,-1000,4,1,0,60,0,1
81368,-33.3333333333333,4,1,0,60,0,1
81415,-1000,4,1,0,60,0,1
81743,-33.3333333333333,4,1,0,60,0,1
81790,-1000,4,1,0,60,0,1
82118,-33.3333333333333,4,1,0,60,0,1
82165,-100,4,1,0,60,0,1
82540,-200,4,1,0,60,0,0
82821,-66.6666666666667,4,1,0,60,0,0
82915,-200,4,1,0,60,0,0
83196,-66.6666666666667,4,1,0,60,0,0
83290,-200,4,1,0,60,0,0
83383,-66.6666666666667,4,1,0,60,0,0
83477,-200,4,1,0,60,0,0
83571,-66.6666666666667,4,1,0,60,0,0
83665,-1000,4,1,0,60,0,1
83993,-33.3333333333333,4,1,0,60,0,1
84040,-1000,4,1,0,60,0,1
84368,-33.3333333333333,4,1,0,60,0,1
84415,-1000,4,1,0,60,0,1
84743,-33.3333333333333,4,1,0,60,0,1
84790,-1000,4,1,0,60,0,1
85118,-33.3333333333333,4,1,0,60,0,1
85165,-1000,4,1,0,60,0,1
85493,-33.3333333333333,4,1,0,60,0,1
85540,-1000,4,1,0,60,0,1
85868,-33.3333333333333,4,1,0,60,0,1
85915,-1000,4,1,0,60,0,1
86243,-33.3333333333333,4,1,0,60,0,1
86290,-1000,4,1,0,60,0,1
86618,-33.3333333333333,4,1,0,60,0,1
86665,-200,4,1,0,60,0,1
86758,-66.6666666666667,4,1,0,60,0,1
86852,-200,4,1,0,60,0,1
86946,-66.6666666666667,4,1,0,60,0,1
87040,-1000,4,1,0,60,0,1
87368,-33.3333333333333,4,1,0,60,0,1
87415,-1000,4,1,0,60,0,1
87743,-33.3333333333333,4,1,0,60,0,1
87790,-100,4,1,0,60,0,0
142540,-200,4,1,0,60,0,0
142821,-66.6666666666667,4,1,0,60,0,0
142915,-200,4,1,0,60,0,0
143196,-66.6666666666667,4,1,0,60,0,0
143290,-200,4,1,0,60,0,0
143383,-66.6666666666667,4,1,0,60,0,0
143477,-200,4,1,0,60,0,0
143571,-66.6666666666667,4,1,0,60,0,0
143665,-1000,4,1,0,60,0,1
143993,-33.3333333333333,4,1,0,60,0,1
144040,-1000,4,1,0,60,0,1
144368,-33.3333333333333,4,1,0,60,0,1
144415,-1000,4,1,0,60,0,1
144743,-33.3333333333333,4,1,0,60,0,1
144790,-1000,4,1,0,60,0,1
145118,-33.3333333333333,4,1,0,60,0,1
145165,-1000,4,1,0,60,0,1
145493,-33.3333333333333,4,1,0,60,0,1
145540,-1000,4,1,0,60,0,1
145868,-33.3333333333333,4,1,0,60,0,1
145915,-1000,4,1,0,60,0,1
146243,-33.3333333333333,4,1,0,60,0,1
146290,-1000,4,1,0,60,0,1
146618,-33.3333333333333,4,1,0,60,0,1
146665,-200,4,1,0,60,0,1
146758,-66.6666666666667,4,1,0,60,0,1
146852,-200,4,1,0,60,0,1
146946,-66.6666666666667,4,1,0,60,0,1
147040,-1000,4,1,0,60,0,1
147368,-33.3333333333333,4,1,0,60,0,1
147415,-1000,4,1,0,60,0,1
147743,-33.3333333333333,4,1,0,60,0,1
147790,-1000,4,1,0,60,0,1
148118,-33.3333333333333,4,1,0,60,0,1
148165,-200,4,1,0,60,0,1
148165,-200,4,1,0,60,0,1
148258,-66.6666666666667,4,1,0,60,0,1
148352,-200,4,1,0,60,0,1
148446,-66.6666666666667,4,1,0,60,0,1
148540,-1000,4,1,0,60,0,1
148868,-33.3333333333333,4,1,0,60,0,1
148915,-1000,4,1,0,60,0,1
149243,-33.3333333333333,4,1,0,60,0,1
149290,-200,4,1,0,60,0,1
149383,-66.6666666666667,4,1,0,60,0,1
149477,-200,4,1,0,60,0,1
149571,-66.6666666666667,4,1,0,60,0,1
149665,-1000,4,1,0,60,0,1
149993,-33.3333333333333,4,1,0,60,0,1
150040,-1000,4,1,0,60,0,1
150368,-33.3333333333333,4,1,0,60,0,1
150415,-1000,4,1,0,60,0,1
150743,-33.3333333333333,4,1,0,60,0,1
150790,-1000,4,1,0,60,0,1
151118,-33.3333333333333,4,1,0,60,0,1
151165,-1000,4,1,0,60,0,1
151493,-33.3333333333333,4,1,0,60,0,1
151540,-1000,4,1,0,60,0,1
151868,-33.3333333333333,4,1,0,60,0,1
151915,-1000,4,1,0,60,0,1
152243,-33.3333333333333,4,1,0,60,0,1
152290,-1000,4,1,0,60,0,1
152618,-33.3333333333333,4,1,0,60,0,1
152665,-200,4,1,0,60,0,1
152758,-66.6666666666667,4,1,0,60,0,1
152852,-200,4,1,0,60,0,1
152946,-66.6666666666667,4,1,0,60,0,1
153040,-200,4,1,0,60,0,1
153133,-66.6666666666667,4,1,0,60,0,1
153227,-200,4,1,0,60,0,1
153321,-66.6666666666667,4,1,0,60,0,1
153415,-200,4,1,0,60,0,1
153508,-66.6666666666667,4,1,0,60,0,1
153602,-200,4,1,0,60,0,1
153696,-66.6666666666667,4,1,0,60,0,1
153790,-200,4,1,0,60,0,1
153883,-66.6666666666667,4,1,0,60,0,1
153977,-200,4,1,0,60,0,1
154071,-66.6666666666667,4,1,0,60,0,1
154165,-200,4,1,0,60,0,1
154258,-66.6666666666667,4,1,0,60,0,1
154352,-200,4,1,0,60,0,1
154446,-66.6666666666667,4,1,0,60,0,1
154540,-200,4,1,0,60,0,0
154821,-66.6666666666667,4,1,0,60,0,0
154915,-200,4,1,0,60,0,0
155196,-66.6666666666667,4,1,0,60,0,0
155290,-200,4,1,0,60,0,0
155383,-66.6666666666667,4,1,0,60,0,0
155477,-200,4,1,0,60,0,0
155571,-66.6666666666667,4,1,0,60,0,0
155665,-1000,4,1,0,60,0,1
155993,-33.3333333333333,4,1,0,60,0,1
156040,-1000,4,1,0,60,0,1
156368,-33.3333333333333,4,1,0,60,0,1
156415,-1000,4,1,0,60,0,1
156743,-33.3333333333333,4,1,0,60,0,1
156790,-1000,4,1,0,60,0,1
157118,-33.3333333333333,4,1,0,60,0,1
157165,-1000,4,1,0,60,0,1
157493,-33.3333333333333,4,1,0,60,0,1
157540,-1000,4,1,0,60,0,1
157868,-33.3333333333333,4,1,0,60,0,1
157915,-1000,4,1,0,60,0,1
158243,-33.3333333333333,4,1,0,60,0,1
158290,-1000,4,1,0,60,0,1
158618,-33.3333333333333,4,1,0,60,0,1
158665,-200,4,1,0,60,0,1
158758,-66.6666666666667,4,1,0,60,0,1
158852,-200,4,1,0,60,0,1
158946,-66.6666666666667,4,1,0,60,0,1
159040,-1000,4,1,0,60,0,1
159368,-33.3333333333333,4,1,0,60,0,1
159415,-1000,4,1,0,60,0,1
159743,-33.3333333333333,4,1,0,60,0,1
159790,-200,4,1,0,60,0,1
160071,-66.6666666666667,4,1,0,60,0,1
160165,-100,4,1,0,60,0,1
160540,-100,4,1,0,60,0,0
165040,-200,4,1,0,60,0,0
165321,-66.6666666666667,4,1,0,60,0,0
165415,-200,4,1,0,60,0,0
165696,-66.6666666666667,4,1,0,60,0,0
165790,-100,4,1,0,60,0,0
166540,-200,4,1,0,60,0,0
166821,-66.6666666666667,4,1,0,60,0,0
166915,-200,4,1,0,60,0,0
167196,-66.6666666666667,4,1,0,60,0,0
167290,-200,4,1,0,60,0,0
167383,-66.6666666666667,4,1,0,60,0,0
167477,-200,4,1,0,60,0,0
167571,-66.6666666666667,4,1,0,60,0,0
167665,-1000,4,1,0,60,0,1
167993,-33.3333333333333,4,1,0,60,0,1
168040,-1000,4,1,0,60,0,1
168368,-33.3333333333333,4,1,0,60,0,1
168415,-1000,4,1,0,60,0,1
168743,-33.3333333333333,4,1,0,60,0,1
168790,-1000,4,1,0,60,0,1
169118,-33.3333333333333,4,1,0,60,0,1
169165,-1000,4,1,0,60,0,1
169493,-33.3333333333333,4,1,0,60,0,1
169540,-1000,4,1,0,60,0,1
169868,-33.3333333333333,4,1,0,60,0,1
169915,-1000,4,1,0,60,0,1
170243,-33.3333333333333,4,1,0,60,0,1
170290,-1000,4,1,0,60,0,1
170618,-33.3333333333333,4,1,0,60,0,1
170665,-200,4,1,0,60,0,1
170758,-66.6666666666667,4,1,0,60,0,1
170852,-200,4,1,0,60,0,1
170946,-66.6666666666667,4,1,0,60,0,1
171040,-1000,4,1,0,60,0,1
171368,-33.3333333333333,4,1,0,60,0,1
171415,-1000,4,1,0,60,0,1
171743,-33.3333333333333,4,1,0,60,0,1
171790,-1000,4,1,0,60,0,1
172118,-33.3333333333333,4,1,0,60,0,1
172165,-200,4,1,0,60,0,1
172258,-66.6666666666667,4,1,0,60,0,1
172352,-200,4,1,0,60,0,1
172446,-66.6666666666667,4,1,0,60,0,1
172540,-1000,4,1,0,60,0,1
172868,-33.3333333333333,4,1,0,60,0,1
172915,-1000,4,1,0,60,0,1
173243,-33.3333333333333,4,1,0,60,0,1
173290,-200,4,1,0,60,0,1
173383,-66.6666666666667,4,1,0,60,0,1
173477,-200,4,1,0,60,0,1
173571,-66.6666666666667,4,1,0,60,0,1
173665,-1000,4,1,0,60,0,1
173993,-33.3333333333333,4,1,0,60,0,1
174040,-1000,4,1,0,60,0,1
174368,-33.3333333333333,4,1,0,60,0,1
174415,-1000,4,1,0,60,0,1
174743,-33.3333333333333,4,1,0,60,0,1
174790,-1000,4,1,0,60,0,1
175118,-33.3333333333333,4,1,0,60,0,1
175165,-1000,4,1,0,60,0,1
175493,-33.3333333333333,4,1,0,60,0,1
175540,-1000,4,1,0,60,0,1
175868,-33.3333333333333,4,1,0,60,0,1
175915,-1000,4,1,0,60,0,1
176243,-33.3333333333333,4,1,0,60,0,1
176290,-1000,4,1,0,60,0,1
176618,-33.3333333333333,4,1,0,60,0,1
176665,-200,4,1,0,60,0,1
176758,-66.6666666666667,4,1,0,60,0,1
176852,-200,4,1,0,60,0,1
176946,-66.6666666666667,4,1,0,60,0,1
177040,-200,4,1,0,60,0,1
177133,-66.6666666666667,4,1,0,60,0,1
177227,-200,4,1,0,60,0,1
177321,-66.6666666666667,4,1,0,60,0,1
177415,-200,4,1,0,60,0,1
177508,-66.6666666666667,4,1,0,60,0,1
177602,-200,4,1,0,60,0,1
177696,-66.6666666666667,4,1,0,60,0,1
177790,-100,4,1,0,60,0,1
178540,-200,4,1,0,60,0,0
178821,-66.6666666666667,4,1,0,60,0,0
178915,-200,4,1,0,60,0,0
179196,-66.6666666666667,4,1,0,60,0,0
179290,-200,4,1,0,60,0,0
179383,-66.6666666666667,4,1,0,60,0,0
179477,-200,4,1,0,60,0,0
179571,-66.6666666666667,4,1,0,60,0,0
179665,-1000,4,1,0,60,0,1
179993,-33.3333333333333,4,1,0,60,0,1
180040,-1000,4,1,0,60,0,1
180368,-33.3333333333333,4,1,0,60,0,1
180415,-1000,4,1,0,60,0,1
180743,-33.3333333333333,4,1,0,60,0,1
180790,-1000,4,1,0,60,0,1
181118,-33.3333333333333,4,1,0,60,0,1
181165,-1000,4,1,0,60,0,1
181493,-33.3333333333333,4,1,0,60,0,1
181540,-1000,4,1,0,60,0,1
181868,-33.3333333333333,4,1,0,60,0,1
181915,-1000,4,1,0,60,0,1
182243,-33.3333333333333,4,1,0,60,0,1
182290,-1000,4,1,0,60,0,1
182618,-33.3333333333333,4,1,0,60,0,1
182665,-200,4,1,0,60,0,1
182758,-66.6666666666667,4,1,0,60,0,1
182852,-200,4,1,0,60,0,1
182946,-66.6666666666667,4,1,0,60,0,1
183040,-1000,4,1,0,60,0,1
183368,-33.3333333333333,4,1,0,60,0,1
183415,-1000,4,1,0,60,0,1
183743,-33.3333333333333,4,1,0,60,0,1
183790,-1000,4,1,0,60,0,1
184118,-33.3333333333333,4,1,0,60,0,1
184165,-100,4,1,0,60,0,1
184540,-200,4,1,0,60,0,0
184821,-66.6666666666667,4,1,0,60,0,0
184915,-200,4,1,0,60,0,0
185196,-66.6666666666667,4,1,0,60,0,0
185290,-200,4,1,0,60,0,0
185383,-66.6666666666667,4,1,0,60,0,0
185477,-200,4,1,0,60,0,0
185571,-66.6666666666667,4,1,0,60,0,0
185665,-1000,4,1,0,60,0,1
185993,-33.3333333333333,4,1,0,60,0,1
186040,-1000,4,1,0,60,0,1
186368,-33.3333333333333,4,1,0,60,0,1
186415,-1000,4,1,0,60,0,1
186743,-33.3333333333333,4,1,0,60,0,1
186790,-1000,4,1,0,60,0,1
187118,-33.3333333333333,4,1,0,60,0,1
187165,-1000,4,1,0,60,0,1
187493,-33.3333333333333,4,1,0,60,0,1
187540,-1000,4,1,0,60,0,1
187868,-33.3333333333333,4,1,0,60,0,1
187915,-1000,4,1,0,60,0,1
188243,-33.3333333333333,4,1,0,60,0,1
188290,-1000,4,1,0,60,0,1
188618,-33.3333333333333,4,1,0,60,0,1
188665,-200,4,1,0,60,0,1
188758,-66.6666666666667,4,1,0,60,0,1
188852,-200,4,1,0,60,0,1
188946,-66.6666666666667,4,1,0,60,0,1
189040,-1000,4,1,0,60,0,1
189368,-33.3333333333333,4,1,0,60,0,1
189415,-1000,4,1,0,60,0,1
189743,-33.3333333333333,4,1,0,60,0,1
189790,-100,4,1,0,60,0,0

[HitObjects]
64,192,2290,128,0,2665:0:0:0:0:
320,192,2665,1,0,0:0:0:0:
192,192,3040,128,0,3415:0:0:0:0:
64,192,3415,128,0,3790:0:0:0:0:
320,192,3790,128,0,4165:0:0:0:0:
448,192,4165,128,0,4540:0:0:0:0:
64,192,4540,1,0,0:0:0:0:
320,192,4915,1,0,0:0:0:0:
192,192,5290,1,0,0:0:0:0:
64,192,5290,1,0,0:0:0:0:
320,192,5477,1,0,0:0:0:0:
448,192,5665,1,0,0:0:0:0:
320,192,6040,1,0,0:0:0:0:
192,192,6415,1,0,0:0:0:0:
64,192,6790,1,0,0:0:0:0:
448,192,6790,1,0,0:0:0:0:
320,192,7165,1,0,0:0:0:0:
448,192,7540,1,0,0:0:0:0:
192,192,7915,1,0,0:0:0:0:
320,192,8290,1,0,0:0:0:0:
448,192,8290,1,0,0:0:0:0:
64,192,8665,1,0,0:0:0:0:
448,192,8852,1,0,0:0:0:0:
192,192,9040,1,0,0:0:0:0:
320,192,9415,1,0,0:0:0:0:
448,192,9790,1,0,0:0:0:0:
192,192,9790,1,0,0:0:0:0:
64,192,10165,1,0,0:0:0:0:
64,192,10352,1,0,0:0:0:0:
320,192,10540,1,0,0:0:0:0:
192,192,10915,1,0,0:0:0:0:
448,192,11290,1,0,0:0:0:0:
320,192,11290,1,0,0:0:0:0:
192,192,11477,1,0,0:0:0:0:
64,192,11665,1,0,0:0:0:0:
192,192,12040,1,0,0:0:0:0:
320,192,12415,1,0,0:0:0:0:
448,192,12790,1,0,0:0:0:0:
64,192,12790,1,0,0:0:0:0:
192,192,13165,1,0,0:0:0:0:
448,192,13540,1,0,0:0:0:0:
192,192,13915,1,0,0:0:0:0:
320,192,14290,1,0,0:0:0:0:
448,192,14290,1,0,0:0:0:0:
192,192,14665,1,0,0:0:0:0:
320,192,14852,1,0,0:0:0:0:
448,192,15040,1,0,0:0:0:0:
64,192,15415,1,0,0:0:0:0:
448,192,15790,1,0,0:0:0:0:
192,192,15790,1,0,0:0:0:0:
192,192,16165,1,0,0:0:0:0:
64,192,16540,1,0,0:0:0:0:
320,192,16915,1,0,0:0:0:0:
192,192,17290,1,0,0:0:0:0:
448,192,17290,1,0,0:0:0:0:
64,192,17477,1,0,0:0:0:0:
320,192,17665,1,0,0:0:0:0:
192,192,18040,1,0,0:0:0:0:
448,192,18415,1,0,0:0:0:0:
64,192,18790,1,0,0:0:0:0:
192,192,18790,1,0,0:0:0:0:
192,192,19165,1,0,0:0:0:0:
320,192,19540,1,0,0:0:0:0:
192,192,19915,1,0,0:0:0:0:
64,192,20290,1,0,0:0:0:0:
192,192,20290,1,0,0:0:0:0:
448,192,20665,1,0,0:0:0:0:
320,192,20852,1,0,0:0:0:0:
192,192,21040,1,0,0:0:0:0:
64,192,21415,1,0,0:0:0:0:
192,192,21602,1,0,0:0:0:0:
320,192,21790,1,0,0:0:0:0:
448,192,21790,1,0,0:0:0:0:
320,192,22165,1,0,0:0:0:0:
64,192,22352,1,0,0:0:0:0:
448,192,22540,1,0,0:0:0:0:
192,192,22915,1,0,0:0:0:0:
448,192,23290,1,0,0:0:0:0:
320,192,23290,1,0,0:0:0:0:
64,192,23477,1,0,0:0:0:0:
192,192,23665,1,0,0:0:0:0:
320,192,24040,1,0,0:0:0:0:
192,192,24415,1,0,0:0:0:0:
448,192,24790,1,0,0:0:0:0:
64,192,24790,1,0,0:0:0:0:
448,192,25165,1,0,0:0:0:0:
192,192,25540,1,0,0:0:0:0:
320,192,25915,1,0,0:0:0:0:
64,192,26290,1,0,0:0:0:0:
192,192,26290,1,0,0:0:0:0:
320,192,26665,1,0,0:0:0:0:
192,192,26852,1,0,0:0:0:0:
64,192,27040,1,0,0:0:0:0:
320,192,27415,1,0,0:0:0:0:
448,192,27790,1,0,0:0:0:0:
192,192,27790,1,0,0:0:0:0:
64,192,28165,1,0,0:0:0:0:
192,192,28540,1,0,0:0:0:0:
64,192,28540,1,0,0:0:0:0:
320,192,28540,1,0,0:0:0:0:
448,192,28915,1,0,0:0:0:0:
320,192,28915,1,0,0:0:0:0:
192,192,28915,1,0,0:0:0:0:
64,192,29290,1,0,0:0:0:0:
192,192,29290,1,0,0:0:0:0:
448,192,29290,1,0,0:0:0:0:
192,192,29477,1,0,0:0:0:0:
320,192,29477,1,0,0:0:0:0:
320,192,29665,1,0,0:0:0:0:
448,192,29665,1,0,0:0:0:0:
64,192,29665,1,0,0:0:0:0:
192,192,30040,1,0,0:0:0:0:
64,192,30040,1,0,0:0:0:0:
448,192,30040,1,0,0:0:0:0:
64,192,30415,1,0,0:0:0:0:
320,192,30415,1,0,0:0:0:0:
448,192,30415,1,0,0:0:0:0:
192,192,30790,1,0,0:0:0:0:
320,192,30790,1,0,0:0:0:0:
448,192,30790,1,0,0:0:0:0:
192,192,31165,1,0,0:0:0:0:
64,192,31165,1,0,0:0:0:0:
320,192,31165,1,0,0:0:0:0:
192,192,31540,1,0,0:0:0:0:
64,192,31540,1,0,0:0:0:0:
448,192,31540,1,0,0:0:0:0:
192,192,31915,1,0,0:0:0:0:
320,192,31915,1,0,0:0:0:0:
448,192,31915,1,0,0:0:0:0:
64,192,32290,1,0,0:0:0:0:
320,192,32290,1,0,0:0:0:0:
448,192,32290,1,0,0:0:0:0:
192,192,32665,1,0,0:0:0:0:
64,192,32665,1,0,0:0:0:0:
320,192,32665,1,0,0:0:0:0:
192,192,32852,1,0,0:0:0:0:
64,192,32852,1,0,0:0:0:0:
320,192,33040,1,0,0:0:0:0:
448,192,33040,1,0,0:0:0:0:
192,192,33040,1,0,0:0:0:0:
192,192,33415,1,0,0:0:0:0:
64,192,33415,1,0,0:0:0:0:
320,192,33415,1,0,0:0:0:0:
192,192,33790,1,0,0:0:0:0:
64,192,33790,1,0,0:0:0:0:
448,192,33790,1,0,0:0:0:0:
64,192,34165,1,0,0:0:0:0:
320,192,34165,1,0,0:0:0:0:
448,192,34165,1,0,0:0:0:0:
192,192,34352,1,0,0:0:0:0:
320,192,34352,1,0,0:0:0:0:
64,192,34540,1,0,0:0:0:0:
192,192,34540,1,0,0:0:0:0:
448,192,34540,1,0,0:0:0:0:
448,192,34727,1,0,0:0:0:0:
320,192,34727,1,0,0:0:0:0:
320,192,34915,1,0,0:0:0:0:
192,192,34915,1,0,0:0:0:0:
64,192,34915,1,0,0:0:0:0:
192,192,35102,1,0,0:0:0:0:
448,192,35102,1,0,0:0:0:0:
64,192,35290,1,0,0:0:0:0:
320,192,35290,1,0,0:0:0:0:
448,192,35290,1,0,0:0:0:0:
64,192,35477,1,0,0:0:0:0:
192,192,35477,1,0,0:0:0:0:
192,192,35665,1,0,0:0:0:0:
320,192,35665,1,0,0:0:0:0:
448,192,35665,1,0,0:0:0:0:
320,192,35852,1,0,0:0:0:0:
64,192,35852,1,0,0:0:0:0:
64,192,36040,1,0,0:0:0:0:
192,192,36040,1,0,0:0:0:0:
448,192,36040,1,0,0:0:0:0:
448,192,36227,1,0,0:0:0:0:
64,192,36227,1,0,0:0:0:0:
192,192,36415,1,0,0:0:0:0:
320,192,36415,1,0,0:0:0:0:
448,192,36415,1,0,0:0:0:0:
320,192,36602,1,0,0:0:0:0:
192,192,36602,1,0,0:0:0:0:
64,192,36790,1,0,0:0:0:0:
192,192,36790,1,0,0:0:0:0:
448,192,36790,1,0,0:0:0:0:
320,192,36977,1,0,0:0:0:0:
448,192,36977,1,0,0:0:0:0:
320,192,37165,1,0,0:0:0:0:
64,192,37165,1,0,0:0:0:0:
192,192,37165,1,0,0:0:0:0:
320,192,37352,1,0,0:0:0:0:
64,192,37352,1,0,0:0:0:0:
192,192,37540,1,0,0:0:0:0:
448,192,37540,1,0,0:0:0:0:
64,192,37540,1,0,0:0:0:0:
320,192,37633,1,0,0:0:0:0:
448,192,37727,1,0,0:0:0:0:
192,192,37727,1,0,0:0:0:0:
64,192,37821,1,0,0:0:0:0:
320,192,37915,1,0,0:0:0:0:
448,192,37915,1,0,0:0:0:0:
192,192,38008,1,0,0:0:0:0:
64,192,38102,1,0,0:0:0:0:
448,192,38102,1,0,0:0:0:0:
320,192,38196,1,0,0:0:0:0:
192,192,38290,1,0,0:0:0:0:
64,192,38290,1,0,0:0:0:0:
320,192,38383,1,0,0:0:0:0:
448,192,38477,1,0,0:0:0:0:
192,192,38477,1,0,0:0:0:0:
64,192,38571,1,0,0:0:0:0:
320,192,38665,1,0,0:0:0:0:
192,192,38665,1,0,0:0:0:0:
448,192,38758,1,0,0:0:0:0:
192,192,38852,1,0,0:0:0:0:
64,192,38852,1,0,0:0:0:0:
320,192,38946,1,0,0:0:0:0:
448,192,39040,1,0,0:0:0:0:
64,192,39040,1,0,0:0:0:0:
192,192,39040,1,0,0:0:0:0:
448,192,39227,1,0,0:0:0:0:
320,192,39415,1,0,0:0:0:0:
192,192,39415,1,0,0:0:0:0:
64,192,39415,1,0,0:0:0:0:
192,192,39602,1,0,0:0:0:0:
448,192,39602,1,0,0:0:0:0:
448,192,39790,1,0,0:0:0:0:
64,192,39790,1,0,0:0:0:0:
320,192,39790,1,0,0:0:0:0:
192,192,39883,1,0,0:0:0:0:
320,192,39977,1,0,0:0:0:0:
448,192,39977,1,0,0:0:0:0:
192,192,40165,1,0,0:0:0:0:
64,192,40165,1,0,0:0:0:0:
320,192,40352,1,0,0:0:0:0:
448,192,40352,1,0,0:0:0:0:
192,192,40540,1,0,0:0:0:0:
64,192,40540,1,0,0:0:0:0:
320,192,40540,1,0,0:0:0:0:
192,192,40915,1,0,0:0:0:0:
320,192,40915,1,0,0:0:0:0:
448,192,40915,1,0,0:0:0:0:
192,192,41290,1,0,0:0:0:0:
64,192,41290,1,0,0:0:0:0:
448,192,41290,1,0,0:0:0:0:
192,192,41477,1,0,0:0:0:0:
320,192,41477,1,0,0:0:0:0:
64,192,41665,1,0,0:0:0:0:
192,192,41665,1,0,0:0:0:0:
320,192,41665,1,0,0:0:0:0:
192,192,42040,1,0,0:0:0:0:
320,192,42040,1,0,0:0:0:0:
448,192,42040,1,0,0:0:0:0:
192,192,42415,1,0,0:0:0:0:
64,192,42415,1,0,0:0:0:0:
448,192,42415,1,0,0:0:0:0:
64,192,42790,1,0,0:0:0:0:
448,192,42790,1,0,0:0:0:0:
320,192,42790,1,0,0:0:0:0:
192,192,42790,1,0,0:0:0:0:
192,192,43165,1,0,0:0:0:0:
448,192,43165,1,0,0:0:0:0:
64,192,43165,1,0,0:0:0:0:
64,192,43540,1,0,0:0:0:0:
320,192,43540,1,0,0:0:0:0:
448,192,43540,1,0,0:0:0:0:
192,192,43915,1,0,0:0:0:0:
320,192,43915,1,0,0:0:0:0:
448,192,43915,1,0,0:0:0:0:
192,192,44290,1,0,0:0:0:0:
64,192,44290,1,0,0:0:0:0:
320,192,44290,1,0,0:0:0:0:
448,192,44290,1,0,0:0:0:0:
448,192,44665,1,0,0:0:0:0:
64,192,44665,1,0,0:0:0:0:
320,192,44665,1,0,0:0:0:0:
448,192,44852,1,0,0:0:0:0:
64,192,44852,1,0,0:0:0:0:
192,192,45040,1,0,0:0:0:0:
64,192,45040,1,0,0:0:0:0:
448,192,45040,1,0,0:0:0:0:
64,192,45415,1,0,0:0:0:0:
192,192,45415,1,0,0:0:0:0:
320,192,45415,1,0,0:0:0:0:
192,192,45790,1,0,0:0:0:0:
320,192,45790,1,0,0:0:0:0:
448,192,45790,1,0,0:0:0:0:
64,192,45790,1,0,0:0:0:0:
320,192,46165,1,0,0:0:0:0:
448,192,46165,1,0,0:0:0:0:
192,192,46165,1,0,0:0:0:0:
192,192,46352,1,0,0:0:0:0:
448,192,46352,1,0,0:0:0:0:
64,192,46540,1,0,0:0:0:0:
320,192,46540,1,0,0:0:0:0:
448,192,46540,1,0,0:0:0:0:
192,192,46915,1,0,0:0:0:0:
448,192,46915,1,0,0:0:0:0:
320,192,46915,1,0,0:0:0:0:
64,192,47290,1,0,0:0:0:0:
192,192,47290,1,0,0:0:0:0:
448,192,47290,1,0,0:0:0:0:
320,192,47290,1,0,0:0:0:0:
320,192,47477,1,0,0:0:0:0:
192,192,47477,1,0,0:0:0:0:
192,192,47665,1,0,0:0:0:0:
320,192,47665,1,0,0:0:0:0:
448,192,47665,1,0,0:0:0:0:
64,192,48040,1,0,0:0:0:0:
192,192,48040,1,0,0:0:0:0:
320,192,48040,1,0,0:0:0:0:
64,192,48415,1,0,0:0:0:0:
448,192,48415,1,0,0:0:0:0:
320,192,48415,1,0,0:0:0:0:
192,192,48790,1,0,0:0:0:0:
320,192,48790,1,0,0:0:0:0:
448,192,48790,1,0,0:0:0:0:
64,192,48790,1,0,0:0:0:0:
448,192,49165,1,0,0:0:0:0:
64,192,49165,1,0,0:0:0:0:
320,192,49165,1,0,0:0:0:0:
64,192,49540,1,0,0:0:0:0:
192,192,49540,1,0,0:0:0:0:
448,192,49540,1,0,0:0:0:0:
64,192,49915,1,0,0:0:0:0:
192,192,49915,1,0,0:0:0:0:
320,192,49915,1,0,0:0:0:0:
192,192,50290,1,0,0:0:0:0:
64,192,50290,1,0,0:0:0:0:
320,192,50290,1,0,0:0:0:0:
448,192,50290,1,0,0:0:0:0:
192,192,50665,1,0,0:0:0:0:
448,192,50665,1,0,0:0:0:0:
64,192,50665,1,0,0:0:0:0:
64,192,50852,1,0,0:0:0:0:
192,192,50852,1,0,0:0:0:0:
64,192,51040,1,0,0:0:0:0:
448,192,51040,1,0,0:0:0:0:
320,192,51040,1,0,0:0:0:0:
192,192,51227,1,0,0:0:0:0:
192,192,51415,1,0,0:0:0:0:
320,192,51415,1,0,0:0:0:0:
448,192,51415,1,0,0:0:0:0:
64,192,51602,1,0,0:0:0:0:
64,192,51790,1,0,0:0:0:0:
448,192,51790,1,0,0:0:0:0:
320,192,51790,1,0,0:0:0:0:
192,192,51790,1,0,0:0:0:0:
320,192,51977,1,0,0:0:0:0:
320,192,52165,1,0,0:0:0:0:
64,192,52165,1,0,0:0:0:0:
192,192,52165,1,0,0:0:0:0:
64,192,52352,1,0,0:0:0:0:
448,192,52540,1,0,0:0:0:0:
320,192,52540,1,0,0:0:0:0:
192,192,52540,1,0,0:0:0:0:
320,192,52915,1,0,0:0:0:0:
448,192,52915,1,0,0:0:0:0:
64,192,52915,1,0,0:0:0:0:
64,192,53290,1,0,0:0:0:0:
192,192,53290,1,0,0:0:0:0:
448,192,53290,1,0,0:0:0:0:
320,192,53477,1,0,0:0:0:0:
192,192,53477,1,0,0:0:0:0:
320,192,53665,1,0,0:0:0:0:
448,192,53665,1,0,0:0:0:0:
64,192,53665,1,0,0:0:0:0:
192,192,54040,1,0,0:0:0:0:
64,192,54040,1,0,0:0:0:0:
320,192,54040,1,0,0:0:0:0:
192,192,54415,1,0,0:0:0:0:
320,192,54415,1,0,0:0:0:0:
448,192,54415,1,0,0:0:0:0:
64,192,54790,1,0,0:0:0:0:
320,192,54790,1,0,0:0:0:0:
448,192,54790,1,0,0:0:0:0:
192,192,54790,1,0,0:0:0:0:
64,192,55165,1,0,0:0:0:0:
320,192,55165,1,0,0:0:0:0:
448,192,55165,1,0,0:0:0:0:
64,192,55540,1,0,0:0:0:0:
192,192,55540,1,0,0:0:0:0:
448,192,55540,1,0,0:0:0:0:
192,192,55915,1,0,0:0:0:0:
64,192,55915,1,0,0:0:0:0:
448,192,55915,1,0,0:0:0:0:
192,192,56290,1,0,0:0:0:0:
64,192,56290,1,0,0:0:0:0:
320,192,56290,1,0,0:0:0:0:
448,192,56290,1,0,0:0:0:0:
320,192,56665,1,0,0:0:0:0:
192,192,56665,1,0,0:0:0:0:
448,192,56665,1,0,0:0:0:0:
64,192,56852,1,0,0:0:0:0:
320,192,56852,1,0,0:0:0:0:
320,192,57040,1,0,0:0:0:0:
64,192,57040,1,0,0:0:0:0:
448,192,57040,1,0,0:0:0:0:
192,192,57415,1,0,0:0:0:0:
64,192,57415,1,0,0:0:0:0:
320,192,57415,1,0,0:0:0:0:
192,192,57790,1,0,0:0:0:0:
320,192,57790,1,0,0:0:0:0:
64,192,57790,1,0,0:0:0:0:
448,192,57790,1,0,0:0:0:0:
448,192,58165,1,0,0:0:0:0:
320,192,58165,1,0,0:0:0:0:
192,192,58258,1,0,0:0:0:0:
64,192,58258,1,0,0:0:0:0:
320,192,58352,1,0,0:0:0:0:
448,192,58352,1,0,0:0:0:0:
192,192,58540,1,0,0:0:0:0:
64,192,58540,1,0,0:0:0:0:
192,192,58727,1,0,0:0:0:0:
448,192,58915,1,0,0:0:0:0:
64,192,58915,1,0,0:0:0:0:
320,192,59102,1,0,0:0:0:0:
192,192,59290,1,0,0:0:0:0:
64,192,59290,1,0,0:0:0:0:
320,192,59477,1,0,0:0:0:0:
448,192,59477,1,0,0:0:0:0:
192,192,59665,1,0,0:0:0:0:
64,192,59665,1,0,0:0:0:0:
320,192,59852,1,0,0:0:0:0:
448,192,60040,1,0,0:0:0:0:
192,192,60040,1,0,0:0:0:0:
64,192,60227,1,0,0:0:0:0:
192,192,60415,1,0,0:0:0:0:
320,192,60415,1,0,0:0:0:0:
320,192,60602,1,0,0:0:0:0:
448,192,60790,1,0,0:0:0:0:
192,192,60790,1,0,0:0:0:0:
64,192,60977,1,0,0:0:0:0:
192,192,61165,1,0,0:0:0:0:
64,192,61165,1,0,0:0:0:0:
320,192,61352,1,0,0:0:0:0:
448,192,61540,1,0,0:0:0:0:
192,192,61540,1,0,0:0:0:0:
64,192,61727,1,0,0:0:0:0:
192,192,61727,1,0,0:0:0:0:
320,192,61915,1,0,0:0:0:0:
192,192,61915,1,0,0:0:0:0:
320,192,62102,1,0,0:0:0:0:
64,192,62102,1,0,0:0:0:0:
192,192,62290,1,0,0:0:0:0:
448,192,62290,1,0,0:0:0:0:
320,192,62477,1,0,0:0:0:0:
192,192,62477,1,0,0:0:0:0:
64,192,62665,1,0,0:0:0:0:
448,192,62665,1,0,0:0:0:0:
192,192,62852,1,0,0:0:0:0:
64,192,62852,1,0,0:0:0:0:
320,192,62946,1,0,0:0:0:0:
448,192,62946,1,0,0:0:0:0:
192,192,63040,1,0,0:0:0:0:
64,192,63040,1,0,0:0:0:0:
320,192,63040,1,0,0:0:0:0:
64,192,63415,1,0,0:0:0:0:
192,192,63415,1,0,0:0:0:0:
320,192,63415,1,0,0:0:0:0:
64,192,63790,1,0,0:0:0:0:
192,192,63790,1,0,0:0:0:0:
320,192,63790,1,0,0:0:0:0:
448,192,63977,1,0,0:0:0:0:
320,192,64071,1,0,0:0:0:0:
192,192,64165,1,0,0:0:0:0:
64,192,64165,1,0,0:0:0:0:
448,192,64165,1,0,0:0:0:0:
320,192,64352,1,0,0:0:0:0:
448,192,64352,1,0,0:0:0:0:
64,192,64352,1,0,0:0:0:0:
192,192,64540,1,0,0:0:0:0:
320,192,64540,1,0,0:0:0:0:
448,192,64540,1,0,0:0:0:0:
192,192,64915,1,0,0:0:0:0:
64,192,64915,1,0,0:0:0:0:
320,192,64915,1,0,0:0:0:0:
320,192,65290,1,0,0:0:0:0:
64,192,65290,1,0,0:0:0:0:
448,192,65290,1,0,0:0:0:0:
192,192,65290,1,0,0:0:0:0:
320,192,65477,1,0,0:0:0:0:
448,192,65477,1,0,0:0:0:0:
192,192,65665,1,0,0:0:0:0:
64,192,65665,1,0,0:0:0:0:
320,192,65665,1,0,0:0:0:0:
64,192,66040,1,0,0:0:0:0:
320,192,66040,1,0,0:0:0:0:
448,192,66040,1,0,0:0:0:0:
192,192,66415,1,0,0:0:0:0:
64,192,66415,1,0,0:0:0:0:
448,192,66415,1,0,0:0:0:0:
192,192,66790,1,0,0:0:0:0:
64,192,66790,1,0,0:0:0:0:
320,192,66790,1,0,0:0:0:0:
448,192,66790,1,0,0:0:0:0:
320,192,67165,1,0,0:0:0:0:
64,192,67165,1,0,0:0:0:0:
448,192,67165,1,0,0:0:0:0:
192,192,67540,1,0,0:0:0:0:
64,192,67540,1,0,0:0:0:0:
320,192,67540,1,0,0:0:0:0:
192,192,67915,1,0,0:0:0:0:
320,192,67915,1,0,0:0:0:0:
448,192,67915,1,0,0:0:0:0:
448,192,68290,1,0,0:0:0:0:
320,192,68290,1,0,0:0:0:0:
192,192,68290,1,0,0:0:0:0:
64,192,68290,1,0,0:0:0:0:
64,192,68665,1,0,0:0:0:0:
320,192,68665,1,0,0:0:0:0:
448,192,68665,1,0,0:0:0:0:
64,192,68852,1,0,0:0:0:0:
448,192,68852,1,0,0:0:0:0:
192,192,69040,1,0,0:0:0:0:
320,192,69040,1,0,0:0:0:0:
448,192,69040,1,0,0:0:0:0:
64,192,69415,1,0,0:0:0:0:
320,192,69415,1,0,0:0:0:0:
448,192,69415,1,0,0:0:0:0:
192,192,69790,1,0,0:0:0:0:
64,192,69790,1,0,0:0:0:0:
320,192,69790,1,0,0:0:0:0:
448,192,69790,1,0,0:0:0:0:
64,192,70165,1,0,0:0:0:0:
192,192,70165,1,0,0:0:0:0:
320,192,70165,1,0,0:0:0:0:
192,192,70352,1,0,0:0:0:0:
320,192,70352,1,0,0:0:0:0:
320,192,70540,1,0,0:0:0:0:
448,192,70540,1,0,0:0:0:0:
192,192,70540,1,0,0:0:0:0:
64,192,70915,1,0,0:0:0:0:
192,192,70915,1,0,0:0:0:0:
448,192,70915,1,0,0:0:0:0:
192,192,71290,1,0,0:0:0:0:
320,192,71290,1,0,0:0:0:0:
448,192,71290,1,0,0:0:0:0:
64,192,71290,1,0,0:0:0:0:
192,192,71477,1,0,0:0:0:0:
320,192,71477,1,0,0:0:0:0:
64,192,71665,1,0,0:0:0:0:
320,192,71665,1,0,0:0:0:0:
448,192,71665,1,0,0:0:0:0:
192,192,72040,1,0,0:0:0:0:
320,192,72040,1,0,0:0:0:0:
448,192,72040,1,0,0:0:0:0:
448,192,72415,1,0,0:0:0:0:
64,192,72415,1,0,0:0:0:0:
192,192,72415,1,0,0:0:0:0:
192,192,72790,1,0,0:0:0:0:
64,192,72790,1,0,0:0:0:0:
320,192,72790,1,0,0:0:0:0:
448,192,72790,1,0,0:0:0:0:
320,192,73165,1,0,0:0:0:0:
192,192,73165,1,0,0:0:0:0:
64,192,73165,1,0,0:0:0:0:
448,192,73540,1,0,0:0:0:0:
320,192,73540,1,0,0:0:0:0:
64,192,73540,1,0,0:0:0:0:
192,192,73915,1,0,0:0:0:0:
64,192,73915,1,0,0:0:0:0:
448,192,73915,1,0,0:0:0:0:
192,192,74290,1,0,0:0:0:0:
320,192,74290,1,0,0:0:0:0:
448,192,74290,1,0,0:0:0:0:
64,192,74290,1,0,0:0:0:0:
192,192,74665,1,0,0:0:0:0:
320,192,74665,1,0,0:0:0:0:
448,192,74665,1,0,0:0:0:0:
64,192,74852,1,0,0:0:0:0:
320,192,74852,1,0,0:0:0:0:
192,192,75040,1,0,0:0:0:0:
320,192,75040,1,0,0:0:0:0:
448,192,75040,1,0,0:0:0:0:
192,192,75227,1,0,0:0:0:0:
64,192,75415,1,0,0:0:0:0:
320,192,75415,1,0,0:0:0:0:
448,192,75602,1,0,0:0:0:0:
320,192,75602,1,0,0:0:0:0:
192,192,75790,1,0,0:0:0:0:
64,192,75790,1,0,0:0:0:0:
448,192,75790,1,0,0:0:0:0:
320,192,75883,1,0,0:0:0:0:
192,192,75977,1,0,0:0:0:0:
64,192,76165,1,0,0:0:0:0:
448,192,76165,1,0,0:0:0:0:
320,192,76165,1,0,0:0:0:0:
192,192,76258,1,0,0:0:0:0:
320,192,76352,1,0,0:0:0:0:
448,192,76446,1,0,0:0:0:0:
192,192,76540,1,0,0:0:0:0:
64,192,76540,1,0,0:0:0:0:
320,192,76540,1,0,0:0:0:0:
320,192,76915,1,0,0:0:0:0:
448,192,76915,1,0,0:0:0:0:
192,192,76915,1,0,0:0:0:0:
192,192,77290,1,0,0:0:0:0:
64,192,77290,1,0,0:0:0:0:
320,192,77290,1,0,0:0:0:0:
448,192,77290,1,0,0:0:0:0:
192,192,77477,1,0,0:0:0:0:
448,192,77477,1,0,0:0:0:0:
320,192,77665,1,0,0:0:0:0:
448,192,77665,1,0,0:0:0:0:
64,192,77665,1,0,0:0:0:0:
64,192,78040,1,0,0:0:0:0:
192,192,78040,1,0,0:0:0:0:
448,192,78040,1,0,0:0:0:0:
192,192,78415,1,0,0:0:0:0:
320,192,78415,1,0,0:0:0:0:
64,192,78415,1,0,0:0:0:0:
192,192,78790,1,0,0:0:0:0:
320,192,78790,1,0,0:0:0:0:
448,192,78790,1,0,0:0:0:0:
64,192,78790,1,0,0:0:0:0:
192,192,79165,1,0,0:0:0:0:
320,192,79165,1,0,0:0:0:0:
448,192,79165,1,0,0:0:0:0:
64,192,79540,1,0,0:0:0:0:
320,192,79540,1,0,0:0:0:0:
448,192,79540,1,0,0:0:0:0:
64,192,79915,1,0,0:0:0:0:
320,192,79915,1,0,0:0:0:0:
448,192,79915,1,0,0:0:0:0:
192,192,80290,1,0,0:0:0:0:
64,192,80290,1,0,0:0:0:0:
320,192,80290,1,0,0:0:0:0:
448,192,80290,1,0,0:0:0:0:
192,192,80665,1,0,0:0:0:0:
320,192,80665,1,0,0:0:0:0:
448,192,80665,1,0,0:0:0:0:
64,192,80852,1,0,0:0:0:0:
448,192,80852,1,0,0:0:0:0:
192,192,81040,1,0,0:0:0:0:
64,192,81040,1,0,0:0:0:0:
320,192,81040,1,0,0:0:0:0:
320,192,81415,1,0,0:0:0:0:
448,192,81415,1,0,0:0:0:0:
64,192,81415,1,0,0:0:0:0:
64,192,81790,1,0,0:0:0:0:
320,192,81790,1,0,0:0:0:0:
192,192,81790,1,0,0:0:0:0:
448,192,81790,1,0,0:0:0:0:
320,192,82165,1,0,0:0:0:0:
448,192,82165,1,0,0:0:0:0:
192,192,82258,1,0,0:0:0:0:
64,192,82258,1,0,0:0:0:0:
320,192,82352,1,0,0:0:0:0:
448,192,82352,1,0,0:0:0:0:
192,192,82540,1,0,0:0:0:0:
64,192,82540,1,0,0:0:0:0:
320,192,82540,1,0,0:0:0:0:
64,192,82915,1,0,0:0:0:0:
320,192,82915,1,0,0:0:0:0:
448,192,82915,1,0,0:0:0:0:
192,192,83290,1,0,0:0:0:0:
64,192,83290,1,0,0:0:0:0:
320,192,83290,1,0,0:0:0:0:
448,192,83290,1,0,0:0:0:0:
192,192,83477,1,0,0:0:0:0:
448,192,83477,1,0,0:0:0:0:
320,192,83665,1,0,0:0:0:0:
64,192,83665,1,0,0:0:0:0:
448,192,83665,1,0,0:0:0:0:
64,192,84040,1,0,0:0:0:0:
192,192,84040,1,0,0:0:0:0:
320,192,84040,1,0,0:0:0:0:
192,192,84415,1,0,0:0:0:0:
320,192,84415,1,0,0:0:0:0:
448,192,84415,1,0,0:0:0:0:
64,192,84790,1,0,0:0:0:0:
192,192,84790,1,0,0:0:0:0:
320,192,84790,1,0,0:0:0:0:
448,192,84790,1,0,0:0:0:0:
192,192,85165,1,0,0:0:0:0:
64,192,85165,1,0,0:0:0:0:
448,192,85165,1,0,0:0:0:0:
64,192,85540,1,0,0:0:0:0:
320,192,85540,1,0,0:0:0:0:
448,192,85540,1,0,0:0:0:0:
192,192,85915,1,0,0:0:0:0:
64,192,85915,1,0,0:0:0:0:
320,192,85915,1,0,0:0:0:0:
192,192,86290,1,0,0:0:0:0:
320,192,86290,1,0,0:0:0:0:
448,192,86290,1,0,0:0:0:0:
64,192,86290,1,0,0:0:0:0:
64,192,86665,1,0,0:0:0:0:
320,192,86665,1,0,0:0:0:0:
448,192,86665,1,0,0:0:0:0:
192,192,86852,1,0,0:0:0:0:
320,192,86852,1,0,0:0:0:0:
64,192,87040,1,0,0:0:0:0:
192,192,87040,1,0,0:0:0:0:
448,192,87040,1,0,0:0:0:0:
192,192,87415,1,0,0:0:0:0:
64,192,87415,1,0,0:0:0:0:
448,192,87415,1,0,0:0:0:0:
192,192,87790,1,0,0:0:0:0:
448,192,87790,1,0,0:0:0:0:
64,192,87790,1,0,0:0:0:0:
448,192,94540,5,0,0:0:0:0:
192,192,94915,1,0,0:0:0:0:
448,192,95290,1,0,0:0:0:0:
320,192,95290,1,0,0:0:0:0:
192,192,95477,1,0,0:0:0:0:
64,192,95665,1,0,0:0:0:0:
192,192,96040,1,0,0:0:0:0:
320,192,96415,1,0,0:0:0:0:
64,192,96790,1,0,0:0:0:0:
448,192,96790,1,0,0:0:0:0:
192,192,97165,1,0,0:0:0:0:
64,192,97540,1,0,0:0:0:0:
320,192,97915,1,0,0:0:0:0:
192,192,98290,1,0,0:0:0:0:
64,192,98290,1,0,0:0:0:0:
448,192,98665,1,0,0:0:0:0:
64,192,98852,1,0,0:0:0:0:
320,192,99040,1,0,0:0:0:0:
192,192,99415,1,0,0:0:0:0:
320,192,99790,1,0,0:0:0:0:
64,192,99790,1,0,0:0:0:0:
448,192,100165,1,0,0:0:0:0:
448,192,100352,1,0,0:0:0:0:
192,192,100540,1,0,0:0:0:0:
320,192,100915,1,0,0:0:0:0:
192,192,101290,1,0,0:0:0:0:
64,192,101290,1,0,0:0:0:0:
320,192,101477,1,0,0:0:0:0:
448,192,101665,1,0,0:0:0:0:
320,192,102040,1,0,0:0:0:0:
192,192,102415,1,0,0:0:0:0:
448,192,102790,1,0,0:0:0:0:
64,192,102790,1,0,0:0:0:0:
320,192,103165,1,0,0:0:0:0:
64,192,103540,1,0,0:0:0:0:
320,192,103915,1,0,0:0:0:0:
64,192,104290,1,0,0:0:0:0:
192,192,104290,1,0,0:0:0:0:
320,192,104665,1,0,0:0:0:0:
192,192,104852,1,0,0:0:0:0:
64,192,105040,1,0,0:0:0:0:
448,192,105415,1,0,0:0:0:0:
320,192,105790,1,0,0:0:0:0:
64,192,105790,1,0,0:0:0:0:
320,192,106165,1,0,0:0:0:0:
320,192,106352,1,0,0:0:0:0:
448,192,106540,1,0,0:0:0:0:
192,192,106915,1,0,0:0:0:0:
64,192,107290,1,0,0:0:0:0:
320,192,107290,1,0,0:0:0:0:
448,192,107477,1,0,0:0:0:0:
192,192,107665,1,0,0:0:0:0:
320,192,108040,1,0,0:0:0:0:
64,192,108415,1,0,0:0:0:0:
320,192,108790,1,0,0:0:0:0:
448,192,108790,1,0,0:0:0:0:
320,192,109165,1,0,0:0:0:0:
192,192,109540,1,0,0:0:0:0:
320,192,109915,1,0,0:0:0:0:
448,192,110290,1,0,0:0:0:0:
320,192,110290,1,0,0:0:0:0:
64,192,110665,1,0,0:0:0:0:
192,192,110852,1,0,0:0:0:0:
320,192,111040,1,0,0:0:0:0:
448,192,111415,1,0,0:0:0:0:
64,192,111790,1,0,0:0:0:0:
192,192,111790,1,0,0:0:0:0:
192,192,112165,1,0,0:0:0:0:
448,192,112352,1,0,0:0:0:0:
64,192,112540,1,0,0:0:0:0:
320,192,112915,1,0,0:0:0:0:
192,192,113290,1,0,0:0:0:0:
64,192,113290,1,0,0:0:0:0:
448,192,113477,1,0,0:0:0:0:
320,192,113665,1,0,0:0:0:0:
192,192,114040,1,0,0:0:0:0:
320,192,114415,1,0,0:0:0:0:
448,192,114790,1,0,0:0:0:0:
64,192,114790,1,0,0:0:0:0:
64,192,115165,1,0,0:0:0:0:
320,192,115540,1,0,0:0:0:0:
192,192,115915,1,0,0:0:0:0:
320,192,116290,1,0,0:0:0:0:
448,192,116290,1,0,0:0:0:0:
192,192,116665,1,0,0:0:0:0:
320,192,116852,1,0,0:0:0:0:
448,192,117040,1,0,0:0:0:0:
192,192,117415,1,0,0:0:0:0:
320,192,117790,1,0,0:0:0:0:
64,192,117790,1,0,0:0:0:0:
448,192,118165,1,0,0:0:0:0:
320,192,118352,1,0,0:0:0:0:
64,192,118540,1,0,0:0:0:0:
192,192,130540,5,0,0:0:0:0:
64,192,130540,1,0,0:0:0:0:
320,192,130915,1,0,0:0:0:0:
192,192,130915,1,0,0:0:0:0:
64,192,131290,1,0,0:0:0:0:
448,192,131290,1,0,0:0:0:0:
64,192,131477,1,0,0:0:0:0:
192,192,131477,1,0,0:0:0:0:
320,192,131665,1,0,0:0:0:0:
448,192,131665,1,0,0:0:0:0:
192,192,132040,1,0,0:0:0:0:
320,192,132040,1,0,0:0:0:0:
64,192,132415,1,0,0:0:0:0:
192,192,132415,1,0,0:0:0:0:
64,192,132790,1,0,0:0:0:0:
320,192,132790,1,0,0:0:0:0:
448,192,133165,1,0,0:0:0:0:
64,192,133165,1,0,0:0:0:0:
192,192,133540,1,0,0:0:0:0:
448,192,133540,1,0,0:0:0:0:
192,192,133915,1,0,0:0:0:0:
64,192,133915,1,0,0:0:0:0:
320,192,134290,1,0,0:0:0:0:
64,192,134290,1,0,0:0:0:0:
320,192,134665,1,0,0:0:0:0:
448,192,134665,1,0,0:0:0:0:
192,192,134852,1,0,0:0:0:0:
64,192,134852,1,0,0:0:0:0:
192,192,135040,1,0,0:0:0:0:
320,192,135040,1,0,0:0:0:0:
448,192,135415,1,0,0:0:0:0:
320,192,135415,1,0,0:0:0:0:
192,192,135790,1,0,0:0:0:0:
320,192,135790,1,0,0:0:0:0:
320,192,136165,1,0,0:0:0:0:
448,192,136165,1,0,0:0:0:0:
320,192,136352,1,0,0:0:0:0:
192,192,136352,1,0,0:0:0:0:
192,192,136540,1,0,0:0:0:0:
64,192,136540,1,0,0:0:0:0:
192,192,136727,1,0,0:0:0:0:
320,192,136727,1,0,0:0:0:0:
192,192,136915,1,0,0:0:0:0:
64,192,136915,1,0,0:0:0:0:
320,192,137102,1,0,0:0:0:0:
448,192,137102,1,0,0:0:0:0:
320,192,137290,1,0,0:0:0:0:
64,192,137290,1,0,0:0:0:0:
192,192,137477,1,0,0:0:0:0:
320,192,137477,1,0,0:0:0:0:
64,192,137665,1,0,0:0:0:0:
448,192,137665,1,0,0:0:0:0:
192,192,137852,1,0,0:0:0:0:
448,192,137852,1,0,0:0:0:0:
320,192,138040,1,0,0:0:0:0:
448,192,138040,1,0,0:0:0:0:
64,192,138040,1,0,0:0:0:0:
320,192,138227,1,0,0:0:0:0:
192,192,138227,1,0,0:0:0:0:
64,192,138415,1,0,0:0:0:0:
192,192,138415,1,0,0:0:0:0:
320,192,138415,1,0,0:0:0:0:
448,192,138602,1,0,0:0:0:0:
64,192,138602,1,0,0:0:0:0:
192,192,138790,1,0,0:0:0:0:
320,192,138790,1,0,0:0:0:0:
448,192,138790,1,0,0:0:0:0:
64,192,138977,1,0,0:0:0:0:
192,192,138977,1,0,0:0:0:0:
64,192,139165,1,0,0:0:0:0:
192,192,139165,1,0,0:0:0:0:
448,192,139165,1,0,0:0:0:0:
320,192,139352,1,0,0:0:0:0:
448,192,139352,1,0,0:0:0:0:
192,192,139540,1,0,0:0:0:0:
64,192,139540,1,0,0:0:0:0:
448,192,139540,1,0,0:0:0:0:
320,192,139633,1,0,0:0:0:0:
192,192,139727,1,0,0:0:0:0:
448,192,139727,1,0,0:0:0:0:
64,192,139821,1,0,0:0:0:0:
320,192,139915,1,0,0:0:0:0:
448,192,139915,1,0,0:0:0:0:
64,192,140008,1,0,0:0:0:0:
192,192,140102,1,0,0:0:0:0:
320,192,140102,1,0,0:0:0:0:
448,192,140196,1,0,0:0:0:0:
192,192,140290,1,0,0:0:0:0:
64,192,140290,1,0,0:0:0:0:
320,192,140383,1,0,0:0:0:0:
448,192,140477,1,0,0:0:0:0:
192,192,140477,1,0,0:0:0:0:
64,192,140571,1,0,0:0:0:0:
320,192,140665,1,0,0:0:0:0:
448,192,140665,1,0,0:0:0:0:
192,192,140758,1,0,0:0:0:0:
64,192,140852,1,0,0:0:0:0:
320,192,140946,1,0,0:0:0:0:
448,192,141040,1,0,0:0:0:0:
192,192,141415,1,0,0:0:0:0:
320,192,141790,1,0,0:0:0:0:
64,192,142165,1,0,0:0:0:0:
320,192,142540,1,0,0:0:0:0:
448,192,142540,1,0,0:0:0:0:
192,192,142540,1,0,0:0:0:0:
320,192,142915,1,0,0:0:0:0:
192,192,142915,1,0,0:0:0:0:
64,192,142915,1,0,0:0:0:0:
320,192,143290,1,0,0:0:0:0:
448,192,143290,1,0,0:0:0:0:
64,192,143290,1,0,0:0:0:0:
320,192,143477,1,0,0:0:0:0:
192,192,143477,1,0,0:0:0:0:
448,192,143665,1,0,0:0:0:0:
320,192,143665,1,0,0:0:0:0:
192,192,143665,1,0,0:0:0:0:
320,192,144040,1,0,0:0:0:0:
192,192,144040,1,0,0:0:0:0:
64,192,144040,1,0,0:0:0:0:
320,192,144415,1,0,0:0:0:0:
448,192,144415,1,0,0:0:0:0:
64,192,144415,1,0,0:0:0:0:
448,192,144790,1,0,0:0:0:0:
64,192,144790,1,0,0:0:0:0:
192,192,144790,1,0,0:0:0:0:
320,192,144790,1,0,0:0:0:0:
320,192,145165,1,0,0:0:0:0:
64,192,145165,1,0,0:0:0:0:
448,192,145165,1,0,0:0:0:0:
448,192,145540,1,0,0:0:0:0:
192,192,145540,1,0,0:0:0:0:
64,192,145540,1,0,0:0:0:0:
320,192,145915,1,0,0:0:0:0:
192,192,145915,1,0,0:0:0:0:
64,192,145915,1,0,0:0:0:0:
320,192,146290,1,0,0:0:0:0:
448,192,146290,1,0,0:0:0:0:
192,192,146290,1,0,0:0:0:0:
64,192,146290,1,0,0:0:0:0:
64,192,146665,1,0,0:0:0:0:
448,192,146665,1,0,0:0:0:0:
192,192,146665,1,0,0:0:0:0:
64,192,146852,1,0,0:0:0:0:
320,192,146852,1,0,0:0:0:0:
320,192,147040,1,0,0:0:0:0:
448,192,147040,1,0,0:0:0:0:
64,192,147040,1,0,0:0:0:0:
448,192,147415,1,0,0:0:0:0:
320,192,147415,1,0,0:0:0:0:
192,192,147415,1,0,0:0:0:0:
320,192,147790,1,0,0:0:0:0:
192,192,147790,1,0,0:0:0:0:
64,192,147790,1,0,0:0:0:0:
448,192,147790,1,0,0:0:0:0:
192,192,148165,1,0,0:0:0:0:
64,192,148165,1,0,0:0:0:0:
320,192,148165,1,0,0:0:0:0:
320,192,148352,1,0,0:0:0:0:
64,192,148352,1,0,0:0:0:0:
448,192,148540,1,0,0:0:0:0:
192,192,148540,1,0,0:0:0:0:
64,192,148540,1,0,0:0:0:0:
320,192,148915,1,0,0:0:0:0:
64,192,148915,1,0,0:0:0:0:
192,192,148915,1,0,0:0:0:0:
448,192,149290,1,0,0:0:0:0:
320,192,149290,1,0,0:0:0:0:
64,192,149290,1,0,0:0:0:0:
192,192,149290,1,0,0:0:0:0:
192,192,149477,1,0,0:0:0:0:
320,192,149477,1,0,0:0:0:0:
320,192,149665,1,0,0:0:0:0:
192,192,149665,1,0,0:0:0:0:
64,192,149665,1,0,0:0:0:0:
448,192,150040,1,0,0:0:0:0:
320,192,150040,1,0,0:0:0:0:
192,192,150040,1,0,0:0:0:0:
448,192,150415,1,0,0:0:0:0:
64,192,150415,1,0,0:0:0:0:
192,192,150415,1,0,0:0:0:0:
320,192,150790,1,0,0:0:0:0:
192,192,150790,1,0,0:0:0:0:
64,192,150790,1,0,0:0:0:0:
448,192,150790,1,0,0:0:0:0:
64,192,151165,1,0,0:0:0:0:
448,192,151165,1,0,0:0:0:0:
192,192,151165,1,0,0:0:0:0:
448,192,151540,1,0,0:0:0:0:
320,192,151540,1,0,0:0:0:0:
64,192,151540,1,0,0:0:0:0:
448,192,151915,1,0,0:0:0:0:
320,192,151915,1,0,0:0:0:0:
192,192,151915,1,0,0:0:0:0:
320,192,152290,1,0,0:0:0:0:
448,192,152290,1,0,0:0:0:0:
192,192,152290,1,0,0:0:0:0:
64,192,152290,1,0,0:0:0:0:
320,192,152665,1,0,0:0:0:0:
64,192,152665,1,0,0:0:0:0:
448,192,152665,1,0,0:0:0:0:
448,192,152852,1,0,0:0:0:0:
320,192,152852,1,0,0:0:0:0:
448,192,153040,1,0,0:0:0:0:
64,192,153040,1,0,0:0:0:0:
192,192,153040,1,0,0:0:0:0:
320,192,153227,1,0,0:0:0:0:
320,192,153415,1,0,0:0:0:0:
192,192,153415,1,0,0:0:0:0:
64,192,153415,1,0,0:0:0:0:
448,192,153602,1,0,0:0:0:0:
448,192,153790,1,0,0:0:0:0:
64,192,153790,1,0,0:0:0:0:
192,192,153790,1,0,0:0:0:0:
320,192,153790,1,0,0:0:0:0:
192,192,153977,1,0,0:0:0:0:
192,192,154165,1,0,0:0:0:0:
448,192,154165,1,0,0:0:0:0:
320,192,154165,1,0,0:0:0:0:
448,192,154352,1,0,0:0:0:0:
64,192,154540,1,0,0:0:0:0:
192,192,154540,1,0,0:0:0:0:
320,192,154540,1,0,0:0:0:0:
192,192,154915,1,0,0:0:0:0:
64,192,154915,1,0,0:0:0:0:
448,192,154915,1,0,0:0:0:0:
448,192,155290,1,0,0:0:0:0:
320,192,155290,1,0,0:0:0:0:
64,192,155290,1,0,0:0:0:0:
192,192,155290,1,0,0:0:0:0:
192,192,155477,1,0,0:0:0:0:
320,192,155477,1,0,0:0:0:0:
192,192,155665,1,0,0:0:0:0:
64,192,155665,1,0,0:0:0:0:
448,192,155665,1,0,0:0:0:0:
320,192,156040,1,0,0:0:0:0:
448,192,156040,1,0,0:0:0:0:
192,192,156040,1,0,0:0:0:0:
320,192,156415,1,0,0:0:0:0:
192,192,156415,1,0,0:0:0:0:
64,192,156415,1,0,0:0:0:0:
448,192,156790,1,0,0:0:0:0:
192,192,156790,1,0,0:0:0:0:
64,192,156790,1,0,0:0:0:0:
320,192,156790,1,0,0:0:0:0:
448,192,157165,1,0,0:0:0:0:
192,192,157165,1,0,0:0:0:0:
64,192,157165,1,0,0:0:0:0:
448,192,157540,1,0,0:0:0:0:
320,192,157540,1,0,0:0:0:0:
64,192,157540,1,0,0:0:0:0:
320,192,157915,1,0,0:0:0:0:
448,192,157915,1,0,0:0:0:0:
64,192,157915,1,0,0:0:0:0:
320,192,158290,1,0,0:0:0:0:
448,192,158290,1,0,0:0:0:0:
192,192,158290,1,0,0:0:0:0:
64,192,158290,1,0,0:0:0:0:
192,192,158665,1,0,0:0:0:0:
320,192,158665,1,0,0:0:0:0:
64,192,158665,1,0,0:0:0:0:
448,192,158852,1,0,0:0:0:0:
192,192,158852,1,0,0:0:0:0:
192,192,159040,1,0,0:0:0:0:
448,192,159040,1,0,0:0:0:0:
64,192,159040,1,0,0:0:0:0:
320,192,159415,1,0,0:0:0:0:
448,192,159415,1,0,0:0:0:0:
192,192,159415,1,0,0:0:0:0:
320,192,159790,1,0,0:0:0:0:
192,192,159790,1,0,0:0:0:0:
448,192,159790,1,0,0:0:0:0:
64,192,159790,1,0,0:0:0:0:
64,192,160165,1,0,0:0:0:0:
192,192,160165,1,0,0:0:0:0:
320,192,160258,1,0,0:0:0:0:
448,192,160258,1,0,0:0:0:0:
192,192,160352,1,0,0:0:0:0:
64,192,160352,1,0,0:0:0:0:
320,192,160540,1,0,0:0:0:0:
448,192,160540,1,0,0:0:0:0:
320,192,160727,1,0,0:0:0:0:
64,192,160915,1,0,0:0:0:0:
448,192,160915,1,0,0:0:0:0:
192,192,161102,1,0,0:0:0:0:
320,192,161290,1,0,0:0:0:0:
448,192,161290,1,0,0:0:0:0:
192,192,161477,1,0,0:0:0:0:
64,192,161477,1,0,0:0:0:0:
320,192,161665,1,0,0:0:0:0:
448,192,161665,1,0,0:0:0:0:
192,192,161852,1,0,0:0:0:0:
64,192,162040,1,0,0:0:0:0:
320,192,162040,1,0,0:0:0:0:
448,192,162227,1,0,0:0:0:0:
320,192,162415,1,0,0:0:0:0:
192,192,162415,1,0,0:0:0:0:
192,192,162602,1,0,0:0:0:0:
64,192,162790,1,0,0:0:0:0:
320,192,162790,1,0,0:0:0:0:
448,192,162977,1,0,0:0:0:0:
320,192,163165,1,0,0:0:0:0:
448,192,163165,1,0,0:0:0:0:
192,192,163352,1,0,0:0:0:0:
64,192,163540,1,0,0:0:0:0:
320,192,163540,1,0,0:0:0:0:
448,192,163727,1,0,0:0:0:0:
320,192,163727,1,0,0:0:0:0:
192,192,163915,1,0,0:0:0:0:
320,192,163915,1,0,0:0:0:0:
192,192,164102,1,0,0:0:0:0:
448,192,164102,1,0,0:0:0:0:
320,192,164290,1,0,0:0:0:0:
64,192,164290,1,0,0:0:0:0:
192,192,164477,1,0,0:0:0:0:
320,192,164477,1,0,0:0:0:0:
448,192,164665,1,0,0:0:0:0:
64,192,164665,1,0,0:0:0:0:
320,192,164852,1,0,0:0:0:0:
448,192,164852,1,0,0:0:0:0:
192,192,164946,1,0,0:0:0:0:
64,192,164946,1,0,0:0:0:0:
320,192,165040,1,0,0:0:0:0:
448,192,165040,1,0,0:0:0:0:
192,192,165040,1,0,0:0:0:0:
448,192,165415,1,0,0:0:0:0:
320,192,165415,1,0,0:0:0:0:
192,192,165415,1,0,0:0:0:0:
448,192,165790,1,0,0:0:0:0:
320,192,165790,1,0,0:0:0:0:
192,192,165790,1,0,0:0:0:0:
64,192,165977,1,0,0:0:0:0:
192,192,166071,1,0,0:0:0:0:
320,192,166165,1,0,0:0:0:0:
448,192,166165,1,0,0:0:0:0:
64,192,166165,1,0,0:0:0:0:
192,192,166352,1,0,0:0:0:0:
64,192,166352,1,0,0:0:0:0:
448,192,166352,1,0,0:0:0:0:
320,192,166540,1,0,0:0:0:0:
192,192,166540,1,0,0:0:0:0:
64,192,166540,1,0,0:0:0:0:
320,192,166915,1,0,0:0:0:0:
448,192,166915,1,0,0:0:0:0:
192,192,166915,1,0,0:0:0:0:
192,192,167290,1,0,0:0:0:0:
448,192,167290,1,0,0:0:0:0:
64,192,167290,1,0,0:0:0:0:
320,192,167290,1,0,0:0:0:0:
192,192,167477,1,0,0:0:0:0:
64,192,167477,1,0,0:0:0:0:
320,192,167665,1,0,0:0:0:0:
448,192,167665,1,0,0:0:0:0:
192,192,167665,1,0,0:0:0:0:
448,192,168040,1,0,0:0:0:0:
192,192,168040,1,0,0:0:0:0:
64,192,168040,1,0,0:0:0:0:
320,192,168415,1,0,0:0:0:0:
448,192,168415,1,0,0:0:0:0:
64,192,168415,1,0,0:0:0:0:
320,192,168790,1,0,0:0:0:0:
448,192,168790,1,0,0:0:0:0:
192,192,168790,1,0,0:0:0:0:
64,192,168790,1,0,0:0:0:0:
192,192,169165,1,0,0:0:0:0:
448,192,169165,1,0,0:0:0:0:
64,192,169165,1,0,0:0:0:0:
320,192,169540,1,0,0:0:0:0:
448,192,169540,1,0,0:0:0:0:
192,192,169540,1,0,0:0:0:0:
320,192,169915,1,0,0:0:0:0:
192,192,169915,1,0,0:0:0:0:
64,192,169915,1,0,0:0:0:0:
64,192,170290,1,0,0:0:0:0:
192,192,170290,1,0,0:0:0:0:
320,192,170290,1,0,0:0:0:0:
448,192,170290,1,0,0:0:0:0:
448,192,170665,1,0,0:0:0:0:
192,192,170665,1,0,0:0:0:0:
64,192,170665,1,0,0:0:0:0:
448,192,170852,1,0,0:0:0:0:
64,192,170852,1,0,0:0:0:0:
320,192,171040,1,0,0:0:0:0:
192,192,171040,1,0,0:0:0:0:
64,192,171040,1,0,0:0:0:0:
448,192,171415,1,0,0:0:0:0:
192,192,171415,1,0,0:0:0:0:
64,192,171415,1,0,0:0:0:0:
320,192,171790,1,0,0:0:0:0:
448,192,171790,1,0,0:0:0:0:
192,192,171790,1,0,0:0:0:0:
64,192,171790,1,0,0:0:0:0:
448,192,172165,1,0,0:0:0:0:
320,192,172165,1,0,0:0:0:0:
192,192,172165,1,0,0:0:0:0:
320,192,172352,1,0,0:0:0:0:
192,192,172352,1,0,0:0:0:0:
192,192,172540,1,0,0:0:0:0:
64,192,172540,1,0,0:0:0:0:
320,192,172540,1,0,0:0:0:0:
448,192,172915,1,0,0:0:0:0:
320,192,172915,1,0,0:0:0:0:
64,192,172915,1,0,0:0:0:0:
320,192,173290,1,0,0:0:0:0:
192,192,173290,1,0,0:0:0:0:
64,192,173290,1,0,0:0:0:0:
448,192,173290,1,0,0:0:0:0:
320,192,173477,1,0,0:0:0:0:
192,192,173477,1,0,0:0:0:0:
448,192,173665,1,0,0:0:0:0:
192,192,173665,1,0,0:0:0:0:
64,192,173665,1,0,0:0:0:0:
320,192,174040,1,0,0:0:0:0:
192,192,174040,1,0,0:0:0:0:
64,192,174040,1,0,0:0:0:0:
64,192,174415,1,0,0:0:0:0:
448,192,174415,1,0,0:0:0:0:
320,192,174415,1,0,0:0:0:0:
320,192,174790,1,0,0:0:0:0:
448,192,174790,1,0,0:0:0:0:
192,192,174790,1,0,0:0:0:0:
64,192,174790,1,0,0:0:0:0:
192,192,175165,1,0,0:0:0:0:
320,192,175165,1,0,0:0:0:0:
448,192,175165,1,0,0:0:0:0:
64,192,175540,1,0,0:0:0:0:
192,192,175540,1,0,0:0:0:0:
448,192,175540,1,0,0:0:0:0:
320,192,175915,1,0,0:0:0:0:
448,192,175915,1,0,0:0:0:0:
64,192,175915,1,0,0:0:0:0:
320,192,176290,1,0,0:0:0:0:
192,192,176290,1,0,0:0:0:0:
64,192,176290,1,0,0:0:0:0:
448,192,176290,1,0,0:0:0:0:
320,192,176665,1,0,0:0:0:0:
192,192,176665,1,0,0:0:0:0:
64,192,176665,1,0,0:0:0:0:
448,192,176852,1,0,0:0:0:0:
192,192,176852,1,0,0:0:0:0:
320,192,177040,1,0,0:0:0:0:
192,192,177040,1,0,0:0:0:0:
64,192,177040,1,0,0:0:0:0:
320,192,177227,1,0,0:0:0:0:
448,192,177415,1,0,0:0:0:0:
192,192,177415,1,0,0:0:0:0:
64,192,177602,1,0,0:0:0:0:
192,192,177602,1,0,0:0:0:0:
320,192,177790,1,0,0:0:0:0:
448,192,177790,1,0,0:0:0:0:
64,192,177790,1,0,0:0:0:0:
192,192,177883,1,0,0:0:0:0:
320,192,177977,1,0,0:0:0:0:
448,192,178165,1,0,0:0:0:0:
64,192,178165,1,0,0:0:0:0:
192,192,178165,1,0,0:0:0:0:
320,192,178258,1,0,0:0:0:0:
192,192,178352,1,0,0:0:0:0:
64,192,178446,1,0,0:0:0:0:
320,192,178540,1,0,0:0:0:0:
448,192,178540,1,0,0:0:0:0:
192,192,178540,1,0,0:0:0:0:
192,192,178915,1,0,0:0:0:0:
64,192,178915,1,0,0:0:0:0:
320,192,178915,1,0,0:0:0:0:
320,192,179290,1,0,0:0:0:0:
448,192,179290,1,0,0:0:0:0:
192,192,179290,1,0,0:0:0:0:
64,192,179290,1,0,0:0:0:0:
320,192,179477,1,0,0:0:0:0:
64,192,179477,1,0,0:0:0:0:
192,192,179665,1,0,0:0:0:0:
64,192,179665,1,0,0:0:0:0:
448,192,179665,1,0,0:0:0:0:
448,192,180040,1,0,0:0:0:0:
320,192,180040,1,0,0:0:0:0:
64,192,180040,1,0,0:0:0:0:
320,192,180415,1,0,0:0:0:0:
192,192,180415,1,0,0:0:0:0:
448,192,180415,1,0,0:0:0:0:
320,192,180790,1,0,0:0:0:0:
192,192,180790,1,0,0:0:0:0:
64,192,180790,1,0,0:0:0:0:
448,192,180790,1,0,0:0:0:0:
320,192,181165,1,0,0:0:0:0:
192,192,181165,1,0,0:0:0:0:
64,192,181165,1,0,0:0:0:0:
448,192,181540,1,0,0:0:0:0:
192,192,181540,1,0,0:0:0:0:
64,192,181540,1,0,0:0:0:0:
448,192,181915,1,0,0:0:0:0:
192,192,181915,1,0,0:0:0:0:
64,192,181915,1,0,0:0:0:0:
320,192,182290,1,0,0:0:0:0:
448,192,182290,1,0,0:0:0:0:
192,192,182290,1,0,0:0:0:0:
64,192,182290,1,0,0:0:0:0:
320,192,182665,1,0,0:0:0:0:
192,192,182665,1,0,0:0:0:0:
64,192,182665,1,0,0:0:0:0:
448,192,182852,1,0,0:0:0:0:
64,192,182852,1,0,0:0:0:0:
320,192,183040,1,0,0:0:0:0:
448,192,183040,1,0,0:0:0:0:
192,192,183040,1,0,0:0:0:0:
192,192,183415,1,0,0:0:0:0:
64,192,183415,1,0,0:0:0:0:
448,192,183415,1,0,0:0:0:0:
448,192,183790,1,0,0:0:0:0:
192,192,183790,1,0,0:0:0:0:
320,192,183790,1,0,0:0:0:0:
64,192,183790,1,0,0:0:0:0:
192,192,184165,1,0,0:0:0:0:
64,192,184165,1,0,0:0:0:0:
320,192,184258,1,0,0:0:0:0:
448,192,184258,1,0,0:0:0:0:
192,192,184352,1,0,0:0:0:0:
64,192,184352,1,0,0:0:0:0:
320,192,184540,1,0,0:0:0:0:
448,192,184540,1,0,0:0:0:0:
192,192,184540,1,0,0:0:0:0:
448,192,184915,1,0,0:0:0:0:
192,192,184915,1,0,0:0:0:0:
64,192,184915,1,0,0:0:0:0:
320,192,185290,1,0,0:0:0:0:
448,192,185290,1,0,0:0:0:0:
192,192,185290,1,0,0:0:0:0:
64,192,185290,1,0,0:0:0:0:
320,192,185477,1,0,0:0:0:0:
64,192,185477,1,0,0:0:0:0:
192,192,185665,1,0,0:0:0:0:
448,192,185665,1,0,0:0:0:0:
64,192,185665,1,0,0:0:0:0:
448,192,186040,1,0,0:0:0:0:
320,192,186040,1,0,0:0:0:0:
192,192,186040,1,0,0:0:0:0:
320,192,186415,1,0,0:0:0:0:
192,192,186415,1,0,0:0:0:0:
64,192,186415,1,0,0:0:0:0:
448,192,186790,1,0,0:0:0:0:
320,192,186790,1,0,0:0:0:0:
192,192,186790,1,0,0:0:0:0:
64,192,186790,1,0,0:0:0:0:
320,192,187165,1,0,0:0:0:0:
448,192,187165,1,0,0:0:0:0:
64,192,187165,1,0,0:0:0:0:
448,192,187540,1,0,0:0:0:0:
192,192,187540,1,0,0:0:0:0:
64,192,187540,1,0,0:0:0:0:
320,192,187915,1,0,0:0:0:0:
448,192,187915,1,0,0:0:0:0:
192,192,187915,1,0,0:0:0:0:
320,192,188290,1,0,0:0:0:0:
192,192,188290,1,0,0:0:0:0:
64,192,188290,1,0,0:0:0:0:
448,192,188290,1,0,0:0:0:0:
448,192,188665,1,0,0:0:0:0:
192,192,188665,1,0,0:0:0:0:
64,192,188665,1,0,0:0:0:0:
320,192,188852,1,0,0:0:0:0:
192,192,188852,1,0,0:0:0:0:
448,192,189040,1,0,0:0:0:0:
320,192,189040,1,0,0:0:0:0:
64,192,189040,1,0,0:0:0:0:
320,192,189415,1,0,0:0:0:0:
448,192,189415,1,0,0:0:0:0:
64,192,189415,1,0,0:0:0:0:
320,192,189790,1,0,0:0:0:0:
64,192,189790,1,0,0:0:0:0:
448,192,189790,1,0,0:0:0:0:
