osu file format v14

[General]
AudioFilename: audio.mp3
AudioLeadIn: 0
PreviewTime: 40476
Countdown: 0
SampleSet: Normal
StackLeniency: 0.7
Mode: 3
LetterboxInBreaks: 0
SpecialStyle: 0
WidescreenStoryboard: 1

[Editor]
Bookmarks: 28476,52476,64476,76476,87726,118476,142476,166476,178476
DistanceSpacing: 0.8
BeatDivisor: 4
GridSize: 32
TimelineZoom: 2

[Metadata]
Title:Stronger
TitleUnicode:Stronger
Artist:TheFatRat, Slaydit & Anjulie
ArtistUnicode:TheFatRat, Slaydit & Anjulie
Creator:[ deleted ]
Version:Entanglement. // SV WARNING //
Source:
Tags:第四屆踩白塊華人盃 ptct 4 piano tiles chinese tournament 4 round of 16 ro16 Monstercat Uncaged vol.7 volume 7 best of 2019 dubstep glitch hop the fat rat futurebass electrohouse edm bass Orchestra trap run away getting stronger everyday TheFatRat sv Electronic english zeraoradabanana melly MocaLoca
BeatmapID:4037770
BeatmapSetID:1950211

[Difficulty]
HPDrainRate:8
CircleSize:4
OverallDifficulty:7
ApproachRate:5
SliderMultiplier:1.4
SliderTickRate:1

[Events]
//Background and Video events
0,0,"bg.jpg",0,0
//Break Periods
2,87972,93276
//Storyboard Layer 0 (Background)
//Storyboard Layer 1 (Fail)
//Storyboard Layer 2 (Pass)
//Storyboard Layer 3 (Foreground)
//Storyboard Layer 4 (Overlay)
//Storyboard Sound Samples

[TimingPoints]
4476,375,4,1,1,15,1,0
4476,-200,4,1,1,15,0,0
16101,-10000,4,1,1,15,0,0
16116,-2016.128974,4,1,1,15,0,0
16131,-1121.076265,4,1,1,15,0,0
16146,-776.3974871,4,1,1,15,0,0
16161,-593.8242121,4,1,1,15,0,0
16176,-480.7692208,4,1,1,15,0,0
16191,-403.8772147,4,1,1,15,0,0
16206,-348.1894104,4,1,1,15,0,0
16221,-305.9975626,4,1,1,15,0,0
16236,-272.9257616,4,1,1,15,0,0
16251,-246.3054258,4,1,1,15,0,0
16266,-224.4165155,4,1,1,15,0,0
16281,-206.1005822,4,1,1,15,0,0
16296,-190.5487796,4,1,1,15,0,0
16311,-177.1793,4,1,1,15,0,0
16326,-165.5629215,4,1,1,15,0,0
16341,-155.3760131,4,1,1,15,0,0
16356,-146.3700231,4,1,1,15,0,0
16371,-138.3508546,4,1,1,15,0,0
16386,-131.1647478,4,1,1,15,0,0
16401,-124.6882815,4,1,1,15,0,0
16416,-118.8212927,4,1,1,15,0,0
16431,-113.481614,4,1,1,15,0,0
16446,-108.6012198,4,1,1,15,0,0
16461,-104.1232836,4,1,1,15,0,0
16476,-100,4,1,1,15,0,0
16491,-104.1232836,4,1,1,15,0,0
16506,-108.6012198,4,1,1,15,0,0
16521,-113.481614,4,1,1,15,0,0
16536,-118.8212927,4,1,1,15,0,0
16551,-124.6882815,4,1,1,15,0,0
16566,-131.1647478,4,1,1,15,0,0
16581,-138.3508546,4,1,1,15,0,0
16596,-146.3700231,4,1,1,15,0,0
16611,-155.3760131,4,1,1,15,0,0
16626,-165.5629215,4,1,1,15,0,0
16641,-177.1793,4,1,1,15,0,0
16656,-190.5487796,4,1,1,15,0,0
16671,-206.1005822,4,1,1,15,0,0
16686,-224.4165155,4,1,1,15,0,0
16701,-246.3054258,4,1,1,15,0,0
16716,-272.9257616,4,1,1,15,0,0
16731,-305.9975626,4,1,1,15,0,0
16746,-348.1894104,4,1,1,15,0,0
16761,-403.8772147,4,1,1,15,0,0
16776,-480.7692208,4,1,1,15,0,0
16791,-593.8242121,4,1,1,15,0,0
16806,-776.3974871,4,1,1,15,0,0
16821,-1121.076265,4,1,1,15,0,0
16836,-2016.128974,4,1,1,15,0,0
16851,-10000,4,1,1,15,0,0
16866,-2016.128974,4,1,1,15,0,0
16881,-1121.076265,4,1,1,15,0,0
16896,-776.3974871,4,1,1,15,0,0
16911,-593.8242121,4,1,1,15,0,0
16926,-480.7692208,4,1,1,15,0,0
16941,-403.8772147,4,1,1,15,0,0
16956,-348.1894104,4,1,1,15,0,0
16971,-305.9975626,4,1,1,15,0,0
16986,-272.9257616,4,1,1,15,0,0
17001,-246.3054258,4,1,1,15,0,0
17016,-224.4165155,4,1,1,15,0,0
17031,-206.1005822,4,1,1,15,0,0
17046,-190.5487796,4,1,1,15,0,0
17061,-177.1793,4,1,1,15,0,0
17076,-165.5629215,4,1,1,15,0,0
17091,-155.3760131,4,1,1,15,0,0
17106,-146.3700231,4,1,1,15,0,0
17121,-138.3508546,4,1,1,15,0,0
17136,-131.1647478,4,1,1,15,0,0
17151,-124.6882815,4,1,1,15,0,0
17166,-118.8212927,4,1,1,15,0,0
17181,-113.481614,4,1,1,15,0,0
17196,-108.6012198,4,1,1,15,0,0
17211,-104.1232836,4,1,1,15,0,0
17226,-19.96007984,4,1,1,15,0,0
17244.326,-10000,4,1,1,15,0,0
17413,-200,4,1,1,15,0,0
18726,-19.96007984,4,1,1,15,0,0
18744.326,-10000,4,1,1,15,0,0
18913,-200,4,1,1,15,0,0
20226,-19.96007984,4,1,1,15,0,0
20244.326,-10000,4,1,1,15,0,0
20413,-200,4,1,1,15,0,0
21726,-19.96007984,4,1,1,15,0,0
21744.326,-10000,4,1,1,15,0,0
21913,-200,4,1,1,15,0,0
23226,-19.96007984,4,1,1,15,0,0
23244.326,-10000,4,1,1,15,0,0
23413,-200,4,1,1,15,0,0
24726,-19.96007984,4,1,1,15,0,0
24744.326,-10000,4,1,1,15,0,0
24913,-200,4,1,1,15,0,0
26226,-19.96007984,4,1,1,15,0,0
26244.326,-10000,4,1,1,15,0,0
26413,-200,4,1,1,15,0,0
27726,-19.96007984,4,1,1,15,0,0
27744.326,-10000,4,1,1,15,0,0
27913,-200,4,1,1,15,0,0
28476,-33.33333333,4,1,1,15,0,0
28482.72266,-35.56857211,4,1,1,15,0,0
28490.13477,-38.04182429,4,1,1,15,0,0
28498.23828,-40.78894534,4,1,1,15,0,0
28507.0293,-43.85296374,4,1,1,15,0,0
28516.51172,-47.28590783,4,1,1,15,0,0
28526.68359,-51.15125583,4,1,1,15,0,0
28537.54492,-55.52712692,4,1,1,15,0,0
28549.0957,-60.51067365,4,1,1,15,0,0
28561.33594,-66.22408375,4,1,1,15,0,0
28574.26758,-72.82301193,4,1,1,15,0,0
28587.88672,-80.50855298,4,1,1,15,0,0
28602.19727,-89.54475323,4,1,1,15,0,0
28617.19727,-100.2848071,4,1,1,15,0,0
28632.88672,-113.2112914,4,1,1,15,0,0
28649.26758,-129.000246,4,1,1,15,0,0
28666.33594,-148.6271412,4,1,1,15,0,0
28684.0957,-173.5505427,4,1,1,15,0,0
28702.54492,-206.048958,4,1,1,15,0,0
28721.68359,-249.8837096,4,1,1,15,0,0
28741.51172,-311.725673,4,1,1,15,0,0
28762.0293,-404.6163583,4,1,1,15,0,0
28783.23828,-557.8967924,4,1,1,15,0,0
28805.13477,-854.0756778,4,1,1,15,0,0
28827.72266,-1648.240147,4,1,1,15,0,0
28851,-33.33333333,4,1,1,15,0,0
28857.72266,-35.56857211,4,1,1,15,0,0
28865.13477,-38.04182429,4,1,1,15,0,0
28873.23828,-40.78894534,4,1,1,15,0,0
28882.0293,-43.85296374,4,1,1,15,0,0
28891.51172,-47.28590783,4,1,1,15,0,0
28901.68359,-51.15125583,4,1,1,15,0,0
28912.54492,-55.52712692,4,1,1,15,0,0
28924.0957,-60.51067365,4,1,1,15,0,0
28936.33594,-66.22408375,4,1,1,15,0,0
28949.26758,-72.82301193,4,1,1,15,0,0
28962.88672,-80.50855298,4,1,1,15,0,0
28977.19727,-89.54475323,4,1,1,15,0,0
28992.19727,-100.2848071,4,1,1,15,0,0
29007.88672,-113.2112914,4,1,1,15,0,0
29024.26758,-129.000246,4,1,1,15,0,0
29041.33594,-148.6271412,4,1,1,15,0,0
29059.0957,-173.5505427,4,1,1,15,0,0
29077.54492,-206.048958,4,1,1,15,0,0
29096.68359,-249.8837096,4,1,1,15,0,0
29116.51172,-311.725673,4,1,1,15,0,0
29137.0293,-404.6163583,4,1,1,15,0,0
29158.23828,-557.8967924,4,1,1,15,0,0
29180.13477,-854.0756778,4,1,1,15,0,0
29202.72266,-1648.240147,4,1,1,15,0,0
29226,-10,4,1,1,15,0,0
29244.326,-4510,4,1,1,15,0,0
29413,-10000,4,1,1,15,0,0
29424.25586,-1118.282385,4,1,1,15,0,0
29435.20117,-580.7410177,4,1,1,15,0,0
29445.83594,-387.1274679,4,1,1,15,0,0
29456.1582,-287.5381077,4,1,1,15,0,0
29466.16797,-226.9656996,4,1,1,15,0,0
29475.86914,-186.3035092,4,1,1,15,0,0
29485.25586,-157.1659863,4,1,1,15,0,0
29494.33398,-135.2942917,4,1,1,15,0,0
29503.09961,-118.2960039,4,1,1,15,0,0
29511.55273,-104.7237957,4,1,1,15,0,0
29519.69531,-93.6507956,4,1,1,15,0,0
29527.52734,-84.45599752,4,1,1,15,0,0
29535.04688,-76.70778819,4,1,1,15,0,0
29542.25586,-70.09689851,4,1,1,15,0,0
29549.15234,-64.39594525,4,1,1,15,0,0
29555.73828,-59.43405424,4,1,1,15,0,0
29562.01367,-55.08035088,4,1,1,15,0,0
29567.97656,-51.23292115,4,1,1,15,0,0
29573.62891,-47.81123841,4,1,1,15,0,0
29578.96875,-44.75083254,4,1,1,15,0,0
29583.99805,-41.99951254,4,1,1,15,0,0
29588.71484,-39.51455823,4,1,1,15,0,0
29593.12109,-37.26068695,4,1,1,15,0,0
29597.2168,-35.20850503,4,1,1,15,0,0
29601,-33.33333333,4,1,1,15,0,0
29607.72266,-35.56857211,4,1,1,15,0,0
29615.13477,-38.04182429,4,1,1,15,0,0
29623.23828,-40.78894534,4,1,1,15,0,0
29632.0293,-43.85296374,4,1,1,15,0,0
29641.51172,-47.28590783,4,1,1,15,0,0
29651.68359,-51.15125583,4,1,1,15,0,0
29662.54492,-55.52712692,4,1,1,15,0,0
29674.0957,-60.51067365,4,1,1,15,0,0
29686.33594,-66.22408375,4,1,1,15,0,0
29699.26758,-72.82301193,4,1,1,15,0,0
29712.88672,-80.50855298,4,1,1,15,0,0
29727.19727,-89.54475323,4,1,1,15,0,0
29742.19727,-100.2848071,4,1,1,15,0,0
29757.88672,-113.2112914,4,1,1,15,0,0
29774.26758,-129.000246,4,1,1,15,0,0
29791.33594,-148.6271412,4,1,1,15,0,0
29809.0957,-173.5505427,4,1,1,15,0,0
29827.54492,-206.048958,4,1,1,15,0,0
29846.68359,-249.8837096,4,1,1,15,0,0
29866.51172,-311.725673,4,1,1,15,0,0
29887.0293,-404.6163583,4,1,1,15,0,0
29908.23828,-557.8967924,4,1,1,15,0,0
29930.13477,-854.0756778,4,1,1,15,0,0
29952.72266,-1648.240147,4,1,1,15,0,0
29976,-33.33333333,4,1,1,15,0,0
29982.72266,-35.56857211,4,1,1,15,0,0
29990.13477,-38.04182429,4,1,1,15,0,0
29998.23828,-40.78894534,4,1,1,15,0,0
30007.0293,-43.85296374,4,1,1,15,0,0
30016.51172,-47.28590783,4,1,1,15,0,0
30026.68359,-51.15125583,4,1,1,15,0,0
30037.54492,-55.52712692,4,1,1,15,0,0
30049.0957,-60.51067365,4,1,1,15,0,0
30061.33594,-66.22408375,4,1,1,15,0,0
30074.26758,-72.82301193,4,1,1,15,0,0
30087.88672,-80.50855298,4,1,1,15,0,0
30102.19727,-89.54475323,4,1,1,15,0,0
30117.19727,-100.2848071,4,1,1,15,0,0
30132.88672,-113.2112914,4,1,1,15,0,0
30149.26758,-129.000246,4,1,1,15,0,0
30166.33594,-148.6271412,4,1,1,15,0,0
30184.0957,-173.5505427,4,1,1,15,0,0
30202.54492,-206.048958,4,1,1,15,0,0
30221.68359,-249.8837096,4,1,1,15,0,0
30241.51172,-311.725673,4,1,1,15,0,0
30262.0293,-404.6163583,4,1,1,15,0,0
30283.23828,-557.8967924,4,1,1,15,0,0
30305.13477,-854.0756778,4,1,1,15,0,0
30327.72266,-1648.240147,4,1,1,15,0,0
30351,-33.33333333,4,1,1,15,0,0
30357.72266,-35.56857211,4,1,1,15,0,0
30365.13477,-38.04182429,4,1,1,15,0,0
30373.23828,-40.78894534,4,1,1,15,0,0
30382.0293,-43.85296374,4,1,1,15,0,0
30391.51172,-47.28590783,4,1,1,15,0,0
30401.68359,-51.15125583,4,1,1,15,0,0
30412.54492,-55.52712692,4,1,1,15,0,0
30424.0957,-60.51067365,4,1,1,15,0,0
30436.33594,-66.22408375,4,1,1,15,0,0
30449.26758,-72.82301193,4,1,1,15,0,0
30462.88672,-80.50855298,4,1,1,15,0,0
30477.19727,-89.54475323,4,1,1,15,0,0
30492.19727,-100.2848071,4,1,1,15,0,0
30507.88672,-113.2112914,4,1,1,15,0,0
30524.26758,-129.000246,4,1,1,15,0,0
30541.33594,-148.6271412,4,1,1,15,0,0
30559.0957,-173.5505427,4,1,1,15,0,0
30577.54492,-206.048958,4,1,1,15,0,0
30596.68359,-249.8837096,4,1,1,15,0,0
30616.51172,-311.725673,4,1,1,15,0,0
30637.0293,-404.6163583,4,1,1,15,0,0
30658.23828,-557.8967924,4,1,1,15,0,0
30680.13477,-854.0756778,4,1,1,15,0,0
30702.72266,-1648.240147,4,1,1,15,0,0
30726,-33.33333333,4,1,1,15,0,0
30732.72266,-35.56857211,4,1,1,15,0,0
30740.13477,-38.04182429,4,1,1,15,0,0
30748.23828,-40.78894534,4,1,1,15,0,0
30757.0293,-43.85296374,4,1,1,15,0,0
30766.51172,-47.28590783,4,1,1,15,0,0
30776.68359,-51.15125583,4,1,1,15,0,0
30787.54492,-55.52712692,4,1,1,15,0,0
30799.0957,-60.51067365,4,1,1,15,0,0
30811.33594,-66.22408375,4,1,1,15,0,0
30824.26758,-72.82301193,4,1,1,15,0,0
30837.88672,-80.50855298,4,1,1,15,0,0
30852.19727,-89.54475323,4,1,1,15,0,0
30867.19727,-100.2848071,4,1,1,15,0,0
30882.88672,-113.2112914,4,1,1,15,0,0
30899.26758,-129.000246,4,1,1,15,0,0
30916.33594,-148.6271412,4,1,1,15,0,0
30934.0957,-173.5505427,4,1,1,15,0,0
30952.54492,-206.048958,4,1,1,15,0,0
30971.68359,-249.8837096,4,1,1,15,0,0
30991.51172,-311.725673,4,1,1,15,0,0
31012.0293,-404.6163583,4,1,1,15,0,0
31033.23828,-557.8967924,4,1,1,15,0,0
31055.13477,-854.0756778,4,1,1,15,0,0
31077.72266,-1648.240147,4,1,1,15,0,0
31101,-33.33333333,4,1,1,15,0,0
31107.72266,-35.56857211,4,1,1,15,0,0
31115.13477,-38.04182429,4,1,1,15,0,0
31123.23828,-40.78894534,4,1,1,15,0,0
31132.0293,-43.85296374,4,1,1,15,0,0
31141.51172,-47.28590783,4,1,1,15,0,0
31151.68359,-51.15125583,4,1,1,15,0,0
31162.54492,-55.52712692,4,1,1,15,0,0
31174.0957,-60.51067365,4,1,1,15,0,0
31186.33594,-66.22408375,4,1,1,15,0,0
31199.26758,-72.82301193,4,1,1,15,0,0
31212.88672,-80.50855298,4,1,1,15,0,0
31227.19727,-89.54475323,4,1,1,15,0,0
31242.19727,-100.2848071,4,1,1,15,0,0
31257.88672,-113.2112914,4,1,1,15,0,0
31274.26758,-129.000246,4,1,1,15,0,0
31291.33594,-148.6271412,4,1,1,15,0,0
31309.0957,-173.5505427,4,1,1,15,0,0
31327.54492,-206.048958,4,1,1,15,0,0
31346.68359,-249.8837096,4,1,1,15,0,0
31366.51172,-311.725673,4,1,1,15,0,0
31387.0293,-404.6163583,4,1,1,15,0,0
31408.23828,-557.8967924,4,1,1,15,0,0
31430.13477,-854.0756778,4,1,1,15,0,0
31452.72266,-1648.240147,4,1,1,15,0,0
31476,-33.33333333,4,1,1,15,0,0
31482.72266,-35.56857211,4,1,1,15,0,0
31490.13477,-38.04182429,4,1,1,15,0,0
31498.23828,-40.78894534,4,1,1,15,0,0
31507.0293,-43.85296374,4,1,1,15,0,0
31516.51172,-47.28590783,4,1,1,15,0,0
31526.68359,-51.15125583,4,1,1,15,0,0
31537.54492,-55.52712692,4,1,1,15,0,0
31549.0957,-60.51067365,4,1,1,15,0,0
31561.33594,-66.22408375,4,1,1,15,0,0
31574.26758,-72.82301193,4,1,1,15,0,0
31587.88672,-80.50855298,4,1,1,15,0,0
31602.19727,-89.54475323,4,1,1,15,0,0
31617.19727,-100.2848071,4,1,1,15,0,0
31632.88672,-113.2112914,4,1,1,15,0,0
31649.26758,-129.000246,4,1,1,15,0,0
31666.33594,-148.6271412,4,1,1,15,0,0
31684.0957,-173.5505427,4,1,1,15,0,0
31702.54492,-206.048958,4,1,1,15,0,0
31721.68359,-249.8837096,4,1,1,15,0,0
31741.51172,-311.725673,4,1,1,15,0,0
31762.0293,-404.6163583,4,1,1,15,0,0
31783.23828,-557.8967924,4,1,1,15,0,0
31805.13477,-854.0756778,4,1,1,15,0,0
31827.72266,-1648.240147,4,1,1,15,0,0
31851,-33.33333333,4,1,1,15,0,0
31857.72266,-35.56857211,4,1,1,15,0,0
31865.13477,-38.04182429,4,1,1,15,0,0
31873.23828,-40.78894534,4,1,1,15,0,0
31882.0293,-43.85296374,4,1,1,15,0,0
31891.51172,-47.28590783,4,1,1,15,0,0
31901.68359,-51.15125583,4,1,1,15,0,0
31912.54492,-55.52712692,4,1,1,15,0,0
31924.0957,-60.51067365,4,1,1,15,0,0
31936.33594,-66.22408375,4,1,1,15,0,0
31949.26758,-72.82301193,4,1,1,15,0,0
31962.88672,-80.50855298,4,1,1,15,0,0
31977.19727,-89.54475323,4,1,1,15,0,0
31992.19727,-100.2848071,4,1,1,15,0,0
32007.88672,-113.2112914,4,1,1,15,0,0
32024.26758,-129.000246,4,1,1,15,0,0
32041.33594,-148.6271412,4,1,1,15,0,0
32059.0957,-173.5505427,4,1,1,15,0,0
32077.54492,-206.048958,4,1,1,15,0,0
32096.68359,-249.8837096,4,1,1,15,0,0
32116.51172,-311.725673,4,1,1,15,0,0
32137.0293,-404.6163583,4,1,1,15,0,0
32158.23828,-557.8967924,4,1,1,15,0,0
32180.13477,-854.0756778,4,1,1,15,0,0
32202.72266,-1648.240147,4,1,1,15,0,0
32226,-33.33333333,4,1,1,15,0,0
32232.72266,-35.56857211,4,1,1,15,0,0
32240.13477,-38.04182429,4,1,1,15,0,0
32248.23828,-40.78894534,4,1,1,15,0,0
32257.0293,-43.85296374,4,1,1,15,0,0
32266.51172,-47.28590783,4,1,1,15,0,0
32276.68359,-51.15125583,4,1,1,15,0,0
32287.54492,-55.52712692,4,1,1,15,0,0
32299.0957,-60.51067365,4,1,1,15,0,0
32311.33594,-66.22408375,4,1,1,15,0,0
32324.26758,-72.82301193,4,1,1,15,0,0
32337.88672,-80.50855298,4,1,1,15,0,0
32352.19727,-89.54475323,4,1,1,15,0,0
32367.19727,-100.2848071,4,1,1,15,0,0
32382.88672,-113.2112914,4,1,1,15,0,0
32399.26758,-129.000246,4,1,1,15,0,0
32416.33594,-148.6271412,4,1,1,15,0,0
32434.0957,-173.5505427,4,1,1,15,0,0
32452.54492,-206.048958,4,1,1,15,0,0
32471.68359,-249.8837096,4,1,1,15,0,0
32491.51172,-311.725673,4,1,1,15,0,0
32512.0293,-404.6163583,4,1,1,15,0,0
32533.23828,-557.8967924,4,1,1,15,0,0
32555.13477,-854.0756778,4,1,1,15,0,0
32577.72266,-1648.240147,4,1,1,15,0,0
32601,-10,4,1,1,15,0,0
32619.326,-4510,4,1,1,15,0,0
32788,-10000,4,1,1,15,0,0
32799.25586,-1118.282385,4,1,1,15,0,0
32810.20117,-580.7410177,4,1,1,15,0,0
32820.83594,-387.1274679,4,1,1,15,0,0
32831.1582,-287.5381077,4,1,1,15,0,0
32841.16797,-226.9656996,4,1,1,15,0,0
32850.86914,-186.3035092,4,1,1,15,0,0
32860.25586,-157.1659863,4,1,1,15,0,0
32869.33398,-135.2942917,4,1,1,15,0,0
32878.09961,-118.2960039,4,1,1,15,0,0
32886.55273,-104.7237957,4,1,1,15,0,0
32894.69531,-93.6507956,4,1,1,15,0,0
32902.52734,-84.45599752,4,1,1,15,0,0
32910.04688,-76.70778819,4,1,1,15,0,0
32917.25586,-70.09689851,4,1,1,15,0,0
32924.15234,-64.39594525,4,1,1,15,0,0
32930.73828,-59.43405424,4,1,1,15,0,0
32937.01367,-55.08035088,4,1,1,15,0,0
32942.97656,-51.23292115,4,1,1,15,0,0
32948.62891,-47.81123841,4,1,1,15,0,0
32953.96875,-44.75083254,4,1,1,15,0,0
32958.99805,-41.99951254,4,1,1,15,0,0
32963.71484,-39.51455823,4,1,1,15,0,0
32968.12109,-37.26068695,4,1,1,15,0,0
32972.2168,-35.20850503,4,1,1,15,0,0
32976,-33.33333333,4,1,1,15,0,0
32982.72266,-35.56857211,4,1,1,15,0,0
32990.13477,-38.04182429,4,1,1,15,0,0
32998.23828,-40.78894534,4,1,1,15,0,0
33007.0293,-43.85296374,4,1,1,15,0,0
33016.51172,-47.28590783,4,1,1,15,0,0
33026.68359,-51.15125583,4,1,1,15,0,0
33037.54492,-55.52712692,4,1,1,15,0,0
33049.0957,-60.51067365,4,1,1,15,0,0
33061.33594,-66.22408375,4,1,1,15,0,0
33074.26758,-72.82301193,4,1,1,15,0,0
33087.88672,-80.50855298,4,1,1,15,0,0
33102.19727,-89.54475323,4,1,1,15,0,0
33117.19727,-100.2848071,4,1,1,15,0,0
33132.88672,-113.2112914,4,1,1,15,0,0
33149.26758,-129.000246,4,1,1,15,0,0
33166.33594,-148.6271412,4,1,1,15,0,0
33184.0957,-173.5505427,4,1,1,15,0,0
33202.54492,-206.048958,4,1,1,15,0,0
33221.68359,-249.8837096,4,1,1,15,0,0
33241.51172,-311.725673,4,1,1,15,0,0
33262.0293,-404.6163583,4,1,1,15,0,0
33283.23828,-557.8967924,4,1,1,15,0,0
33305.13477,-854.0756778,4,1,1,15,0,0
33327.72266,-1648.240147,4,1,1,15,0,0
33351,-33.33333333,4,1,1,15,0,0
33357.72266,-35.56857211,4,1,1,15,0,0
33365.13477,-38.04182429,4,1,1,15,0,0
33373.23828,-40.78894534,4,1,1,15,0,0
33382.0293,-43.85296374,4,1,1,15,0,0
33391.51172,-47.28590783,4,1,1,15,0,0
33401.68359,-51.15125583,4,1,1,15,0,0
33412.54492,-55.52712692,4,1,1,15,0,0
33424.0957,-60.51067365,4,1,1,15,0,0
33436.33594,-66.22408375,4,1,1,15,0,0
33449.26758,-72.82301193,4,1,1,15,0,0
33462.88672,-80.50855298,4,1,1,15,0,0
33477.19727,-89.54475323,4,1,1,15,0,0
33492.19727,-100.2848071,4,1,1,15,0,0
33507.88672,-113.2112914,4,1,1,15,0,0
33524.26758,-129.000246,4,1,1,15,0,0
33541.33594,-148.6271412,4,1,1,15,0,0
33559.0957,-173.5505427,4,1,1,15,0,0
33577.54492,-206.048958,4,1,1,15,0,0
33596.68359,-249.8837096,4,1,1,15,0,0
33616.51172,-311.725673,4,1,1,15,0,0
33637.0293,-404.6163583,4,1,1,15,0,0
33658.23828,-557.8967924,4,1,1,15,0,0
33680.13477,-854.0756778,4,1,1,15,0,0
33702.72266,-1648.240147,4,1,1,15,0,0
33726,-33.33333333,4,1,1,15,0,0
33732.72266,-35.56857211,4,1,1,15,0,0
33740.13477,-38.04182429,4,1,1,15,0,0
33748.23828,-40.78894534,4,1,1,15,0,0
33757.0293,-43.85296374,4,1,1,15,0,0
33766.51172,-47.28590783,4,1,1,15,0,0
33776.68359,-51.15125583,4,1,1,15,0,0
33787.54492,-55.52712692,4,1,1,15,0,0
33799.0957,-60.51067365,4,1,1,15,0,0
33811.33594,-66.22408375,4,1,1,15,0,0
33824.26758,-72.82301193,4,1,1,15,0,0
33837.88672,-80.50855298,4,1,1,15,0,0
33852.19727,-89.54475323,4,1,1,15,0,0
33867.19727,-100.2848071,4,1,1,15,0,0
33882.88672,-113.2112914,4,1,1,15,0,0
33899.26758,-129.000246,4,1,1,15,0,0
33916.33594,-148.6271412,4,1,1,15,0,0
33934.0957,-173.5505427,4,1,1,15,0,0
33952.54492,-206.048958,4,1,1,15,0,0
33971.68359,-249.8837096,4,1,1,15,0,0
33991.51172,-311.725673,4,1,1,15,0,0
34012.0293,-404.6163583,4,1,1,15,0,0
34033.23828,-557.8967924,4,1,1,15,0,0
34055.13477,-854.0756778,4,1,1,15,0,0
34077.72266,-1648.240147,4,1,1,15,0,0
34101,-10,4,1,1,15,0,0
34119.326,-4510,4,1,1,15,0,0
34288,-10000,4,1,1,15,0,0
34299.25586,-1118.282385,4,1,1,15,0,0
34310.20117,-580.7410177,4,1,1,15,0,0
34320.83594,-387.1274679,4,1,1,15,0,0
34331.1582,-287.5381077,4,1,1,15,0,0
34341.16797,-226.9656996,4,1,1,15,0,0
34350.86914,-186.3035092,4,1,1,15,0,0
34360.25586,-157.1659863,4,1,1,15,0,0
34369.33398,-135.2942917,4,1,1,15,0,0
34378.09961,-118.2960039,4,1,1,15,0,0
34386.55273,-104.7237957,4,1,1,15,0,0
34394.69531,-93.6507956,4,1,1,15,0,0
34402.52734,-84.45599752,4,1,1,15,0,0
34410.04688,-76.70778819,4,1,1,15,0,0
34417.25586,-70.09689851,4,1,1,15,0,0
34424.15234,-64.39594525,4,1,1,15,0,0
34430.73828,-59.43405424,4,1,1,15,0,0
34437.01367,-55.08035088,4,1,1,15,0,0
34442.97656,-51.23292115,4,1,1,15,0,0
34448.62891,-47.81123841,4,1,1,15,0,0
34453.96875,-44.75083254,4,1,1,15,0,0
34458.99805,-41.99951254,4,1,1,15,0,0
34463.71484,-39.51455823,4,1,1,15,0,0
34468.12109,-37.26068695,4,1,1,15,0,0
34472.2168,-35.20850503,4,1,1,15,0,0
34476,-33.33333333,4,1,1,15,0,0
34522.75,-300,4,1,1,15,0,0
34662,-100,4,1,1,15,0,0
34851,-33.33333333,4,1,1,15,0,0
34897.75,-300,4,1,1,15,0,0
35037,-100,4,1,1,15,0,0
35226,-33.33333333,4,1,1,15,0,0
35272.75,-300,4,1,1,15,0,0
35412,-100,4,1,1,15,0,0
35413,-33.33333333,4,1,1,15,0,0
35459.75,-300,4,1,1,15,0,0
35599,-100,4,1,1,15,0,0
35601,-33.33333333,4,1,1,15,0,0
35647.75,-300,4,1,1,15,0,0
35787,-100,4,1,1,15,0,0
35976,-33.33333333,4,1,1,15,0,0
36022.75,-300,4,1,1,15,0,0
36162,-100,4,1,1,15,0,0
36351,-33.33333333,4,1,1,15,0,0
36397.75,-300,4,1,1,15,0,0
36537,-100,4,1,1,15,0,0
36726,-33.33333333,4,1,1,15,0,0
36772.75,-300,4,1,1,15,0,0
36912,-100,4,1,1,15,0,0
37101,-33.33333333,4,1,1,15,0,0
37147.75,-300,4,1,1,15,0,0
37287,-100,4,1,1,15,0,0
37476,-100,4,1,1,15,0,0
37569,-80,4,1,1,15,0,0
37577.836,-102.6628895,4,1,1,15,0,0
37663,-53.19148936,4,1,1,15,0,0
37671.836,-110.0476144,4,1,1,15,0,0
37757,-40,4,1,1,15,0,0
37765.836,-118.4313725,4,1,1,15,0,0
37851,-31.94888179,4,1,1,15,0,0
37859.742,-128.3686134,4,1,1,15,0,0
37944,-26.66666667,4,1,1,15,0,0
37952.836,-139.9227799,4,1,1,15,0,0
38038,-22.83105023,4,1,1,15,0,0
38046.836,-154.0082954,4,1,1,15,0,0
38132,-20,4,1,1,15,0,0
38140.836,-170.9433962,4,1,1,15,0,0
38226,-17.79359431,4,1,1,15,0,0
38234.742,-192.0630883,4,1,1,15,0,0
38319,-16.02564103,4,1,1,15,0,0
38327.836,-219.1369969,4,1,1,15,0,0
38413,-14.55604076,4,1,1,15,0,0
38421.836,-255.7732483,4,1,1,15,0,0
38507,-13.35113485,4,1,1,15,0,0
38515.836,-306.1431371,4,1,1,15,0,0
38601,-12.31527094,4,1,1,15,0,0
38609.742,-382.7306522,4,1,1,15,0,0
38694,-11.4416476,4,1,1,15,0,0
38702.836,-507.733692,4,1,1,15,0,0
38788,-10.67235859,4,1,1,15,0,0
38796.836,-759.9396075,4,1,1,15,0,0
38882,-10,4,1,1,15,0,0
38890.836,-1510,4,1,1,15,0,0
38976,-20,4,1,1,15,0,0
38977.02734,-22.91022944,4,1,1,15,0,0
38979.6875,-26.50456201,4,1,1,15,0,0
38983.98047,-31.015269,4,1,1,15,0,0
38989.91016,-36.78213496,4,1,1,15,0,0
38997.47266,-44.31810017,4,1,1,15,0,0
39006.67188,-54.42687875,4,1,1,15,0,0
39017.50391,-68.42516157,4,1,1,15,0,0
39029.96875,-88.5909037,4,1,1,15,0,0
39044.07031,-119.1430108,4,1,1,15,0,0
39059.80469,-168.6110336,4,1,1,15,0,0
39077.17578,-256.3809371,4,1,1,15,0,0
39096.17969,-434.3703229,4,1,1,15,0,0
39116.82031,-880.2654037,4,1,1,15,0,0
39139.09375,-2487.809407,4,1,1,15,0,0
39163,-33.33333333,4,1,1,15,0,0
39210,-300,4,1,1,15,0,0
39351,-10,4,1,1,15,0,0
39369.326,-4510,4,1,1,15,0,0
39538,-20,4,1,1,15,0,0
39539.02734,-22.91022944,4,1,1,15,0,0
39541.6875,-26.50456201,4,1,1,15,0,0
39545.98047,-31.015269,4,1,1,15,0,0
39551.91016,-36.78213496,4,1,1,15,0,0
39559.47266,-44.31810017,4,1,1,15,0,0
39568.67188,-54.42687875,4,1,1,15,0,0
39579.50391,-68.42516157,4,1,1,15,0,0
39591.96875,-88.5909037,4,1,1,15,0,0
39606.07031,-119.1430108,4,1,1,15,0,0
39621.80469,-168.6110336,4,1,1,15,0,0
39639.17578,-256.3809371,4,1,1,15,0,0
39658.17969,-434.3703229,4,1,1,15,0,0
39678.82031,-880.2654037,4,1,1,15,0,0
39701.09375,-2487.809407,4,1,1,15,0,0
39726,-10,4,1,1,15,0,0
39735.114,-4510,4,1,1,15,0,0
39819,-100,4,1,1,15,0,0
39913,-20,4,1,1,15,0,0
39914.02734,-22.91022944,4,1,1,15,0,0
39916.6875,-26.50456201,4,1,1,15,0,0
39920.98047,-31.015269,4,1,1,15,0,0
39926.91016,-36.78213496,4,1,1,15,0,0
39934.47266,-44.31810017,4,1,1,15,0,0
39943.67188,-54.42687875,4,1,1,15,0,0
39954.50391,-68.42516157,4,1,1,15,0,0
39966.96875,-88.5909037,4,1,1,15,0,0
39981.07031,-119.1430108,4,1,1,15,0,0
39996.80469,-168.6110336,4,1,1,15,0,0
40014.17578,-256.3809371,4,1,1,15,0,0
40033.17969,-434.3703229,4,1,1,15,0,0
40053.82031,-880.2654037,4,1,1,15,0,0
40076.09375,-2487.809407,4,1,1,15,0,0
40101,-25,4,1,1,15,0,0
40102.02734,-28.62252775,4,1,1,15,0,0
40104.6875,-33.09259179,4,1,1,15,0,0
40108.98047,-38.69642182,4,1,1,15,0,0
40114.91016,-45.85192585,4,1,1,15,0,0
40122.47266,-55.18855545,4,1,1,15,0,0
40131.67188,-67.68979952,4,1,1,15,0,0
40142.50391,-84.96131644,4,1,1,15,0,0
40154.96875,-109.7687284,4,1,1,15,0,0
40169.07031,-147.2044199,4,1,1,15,0,0
40184.80469,-207.4818524,4,1,1,15,0,0
40202.17578,-313.5449995,4,1,1,15,0,0
40221.17969,-525.7117753,4,1,1,15,0,0
40241.82031,-1043.576291,4,1,1,15,0,0
40264.09375,-2797.080542,4,1,1,15,0,0
40288,-28.57142857,4,1,1,15,0,0
40289.03125,-32.6990153,4,1,1,15,0,0
40291.70703,-37.78905541,4,1,1,15,0,0
40296.02344,-44.16535219,4,1,1,15,0,0
40301.98438,-52.30003405,4,1,1,15,0,0
40309.58594,-62.90306446,4,1,1,15,0,0
40318.83203,-77.08154476,4,1,1,15,0,0
40329.72266,-96.63851819,4,1,1,15,0,0
40342.25781,-124.6700377,4,1,1,15,0,0
40356.43359,-166.8536971,4,1,1,15,0,0
40372.25391,-234.5137052,4,1,1,15,0,0
40389.71484,-352.8856502,4,1,1,15,0,0
40408.82422,-587.4808864,4,1,1,15,0,0
40429.57031,-1150.278897,4,1,1,15,0,0
40451.96484,-2982.462747,4,1,1,15,0,0
40476,-10000,4,1,1,15,0,1
40495.23047,-10000,4,1,1,15,0,1
40512.48828,-10000,4,1,1,15,0,1
40528.00781,-9896.781648,4,1,1,15,0,1
40542.03906,-9179.234076,4,1,1,15,0,1
40554.83594,-8102.263867,4,1,1,15,0,1
40566.64063,-6722.039945,4,1,1,15,0,1
40577.70313,-5219.012193,4,1,1,15,0,1
40588.26563,-3825.553517,4,1,1,15,0,1
40598.55859,-2696.487405,4,1,1,15,0,1
40608.80469,-1864.331902,4,1,1,15,0,1
40619.21484,-1284.39443,4,1,1,15,0,1
40629.98828,-890.7745861,4,1,1,15,0,1
40641.30078,-625.4849105,4,1,1,15,0,1
40653.3125,-445.8789945,4,1,1,15,0,1
40666.16406,-322.9616688,4,1,1,15,0,1
40679.96484,-237.663154,4,1,1,15,0,1
40694.80859,-177.5684517,4,1,1,15,0,1
40710.75391,-134.5781066,4,1,1,15,0,1
40727.82422,-103.3624747,4,1,1,15,0,1
40746.01563,-80.37236112,4,1,1,15,0,1
40765.29297,-63.21211999,4,1,1,15,0,1
40785.57031,-50.24185977,4,1,1,15,0,1
40806.72656,-40.32322772,4,1,1,15,0,1
40828.60938,-32.65518908,4,1,1,15,0,1
40851,-10000,4,1,1,15,0,1
40870.23047,-10000,4,1,1,15,0,1
40887.48828,-10000,4,1,1,15,0,1
40903.00781,-9896.781648,4,1,1,15,0,1
40917.03906,-9179.234076,4,1,1,15,0,1
40929.83594,-8102.263867,4,1,1,15,0,1
40941.64063,-6722.039945,4,1,1,15,0,1
40952.70313,-5219.012193,4,1,1,15,0,1
40963.26563,-3825.553517,4,1,1,15,0,1
40973.55859,-2696.487405,4,1,1,15,0,1
40983.80469,-1864.331902,4,1,1,15,0,1
40994.21484,-1284.39443,4,1,1,15,0,1
41004.98828,-890.7745861,4,1,1,15,0,1
41016.30078,-625.4849105,4,1,1,15,0,1
41028.3125,-445.8789945,4,1,1,15,0,1
41041.16406,-322.9616688,4,1,1,15,0,1
41054.96484,-237.663154,4,1,1,15,0,1
41069.80859,-177.5684517,4,1,1,15,0,1
41085.75391,-134.5781066,4,1,1,15,0,1
41102.82422,-103.3624747,4,1,1,15,0,1
41121.01563,-80.37236112,4,1,1,15,0,1
41140.29297,-63.21211999,4,1,1,15,0,1
41160.57031,-50.24185977,4,1,1,15,0,1
41181.72656,-40.32322772,4,1,1,15,0,1
41203.60938,-32.65518908,4,1,1,15,0,1
41226,-14.20454545,4,1,1,15,0,1
41244.326,-1501.331558,4,1,1,15,0,1
41413,-10000,4,1,1,15,0,1
41581.824,-13.76481067,4,1,1,15,0,1
41601,-10000,4,1,1,15,0,1
41620.23047,-10000,4,1,1,15,0,1
41637.48828,-10000,4,1,1,15,0,1
41653.00781,-9896.781648,4,1,1,15,0,1
41667.03906,-9179.234076,4,1,1,15,0,1
41679.83594,-8102.263867,4,1,1,15,0,1
41691.64063,-6722.039945,4,1,1,15,0,1
41702.70313,-5219.012193,4,1,1,15,0,1
41713.26563,-3825.553517,4,1,1,15,0,1
41723.55859,-2696.487405,4,1,1,15,0,1
41733.80469,-1864.331902,4,1,1,15,0,1
41744.21484,-1284.39443,4,1,1,15,0,1
41754.98828,-890.7745861,4,1,1,15,0,1
41766.30078,-625.4849105,4,1,1,15,0,1
41778.3125,-445.8789945,4,1,1,15,0,1
41791.16406,-322.9616688,4,1,1,15,0,1
41804.96484,-237.663154,4,1,1,15,0,1
41819.80859,-177.5684517,4,1,1,15,0,1
41835.75391,-134.5781066,4,1,1,15,0,1
41852.82422,-103.3624747,4,1,1,15,0,1
41871.01563,-80.37236112,4,1,1,15,0,1
41890.29297,-63.21211999,4,1,1,15,0,1
41910.57031,-50.24185977,4,1,1,15,0,1
41931.72656,-40.32322772,4,1,1,15,0,1
41953.60938,-32.65518908,4,1,1,15,0,1
41976,-10000,4,1,1,15,0,1
41995.23047,-10000,4,1,1,15,0,1
42012.48828,-10000,4,1,1,15,0,1
42028.00781,-9896.781648,4,1,1,15,0,1
42042.03906,-9179.234076,4,1,1,15,0,1
42054.83594,-8102.263867,4,1,1,15,0,1
42066.64063,-6722.039945,4,1,1,15,0,1
42077.70313,-5219.012193,4,1,1,15,0,1
42088.26563,-3825.553517,4,1,1,15,0,1
42098.55859,-2696.487405,4,1,1,15,0,1
42108.80469,-1864.331902,4,1,1,15,0,1
42119.21484,-1284.39443,4,1,1,15,0,1
42129.98828,-890.7745861,4,1,1,15,0,1
42141.30078,-625.4849105,4,1,1,15,0,1
42153.3125,-445.8789945,4,1,1,15,0,1
42166.16406,-322.9616688,4,1,1,15,0,1
42179.96484,-237.663154,4,1,1,15,0,1
42194.80859,-177.5684517,4,1,1,15,0,1
42210.75391,-134.5781066,4,1,1,15,0,1
42227.82422,-103.3624747,4,1,1,15,0,1
42246.01563,-80.37236112,4,1,1,15,0,1
42265.29297,-63.21211999,4,1,1,15,0,1
42285.57031,-50.24185977,4,1,1,15,0,1
42306.72656,-40.32322772,4,1,1,15,0,1
42328.60938,-32.65518908,4,1,1,15,0,1
42351,-10000,4,1,1,15,0,1
42370.23047,-10000,4,1,1,15,0,1
42387.48828,-10000,4,1,1,15,0,1
42403.00781,-9896.781648,4,1,1,15,0,1
42417.03906,-9179.234076,4,1,1,15,0,1
42429.83594,-8102.263867,4,1,1,15,0,1
42441.64063,-6722.039945,4,1,1,15,0,1
42452.70313,-5219.012193,4,1,1,15,0,1
42463.26563,-3825.553517,4,1,1,15,0,1
42473.55859,-2696.487405,4,1,1,15,0,1
42483.80469,-1864.331902,4,1,1,15,0,1
42494.21484,-1284.39443,4,1,1,15,0,1
42504.98828,-890.7745861,4,1,1,15,0,1
42516.30078,-625.4849105,4,1,1,15,0,1
42528.3125,-445.8789945,4,1,1,15,0,1
42541.16406,-322.9616688,4,1,1,15,0,1
42554.96484,-237.663154,4,1,1,15,0,1
42569.80859,-177.5684517,4,1,1,15,0,1
42585.75391,-134.5781066,4,1,1,15,0,1
42602.82422,-103.3624747,4,1,1,15,0,1
42621.01563,-80.37236112,4,1,1,15,0,1
42640.29297,-63.21211999,4,1,1,15,0,1
42660.57031,-50.24185977,4,1,1,15,0,1
42681.72656,-40.32322772,4,1,1,15,0,1
42703.60938,-32.65518908,4,1,1,15,0,1
42726,-10000,4,1,1,15,0,1
42745.23047,-10000,4,1,1,15,0,1
42762.48828,-10000,4,1,1,15,0,1
42778.00781,-9896.781648,4,1,1,15,0,1
42792.03906,-9179.234076,4,1,1,15,0,1
42804.83594,-8102.263867,4,1,1,15,0,1
42816.64063,-6722.039945,4,1,1,15,0,1
42827.70313,-5219.012193,4,1,1,15,0,1
42838.26563,-3825.553517,4,1,1,15,0,1
42848.55859,-2696.487405,4,1,1,15,0,1
42858.80469,-1864.331902,4,1,1,15,0,1
42869.21484,-1284.39443,4,1,1,15,0,1
42879.98828,-890.7745861,4,1,1,15,0,1
42891.30078,-625.4849105,4,1,1,15,0,1
42903.3125,-445.8789945,4,1,1,15,0,1
42916.16406,-322.9616688,4,1,1,15,0,1
42929.96484,-237.663154,4,1,1,15,0,1
42944.80859,-177.5684517,4,1,1,15,0,1
42960.75391,-134.5781066,4,1,1,15,0,1
42977.82422,-103.3624747,4,1,1,15,0,1
42996.01563,-80.37236112,4,1,1,15,0,1
43015.29297,-63.21211999,4,1,1,15,0,1
43035.57031,-50.24185977,4,1,1,15,0,1
43056.72656,-40.32322772,4,1,1,15,0,1
43078.60938,-32.65518908,4,1,1,15,0,1
43101,-10000,4,1,1,15,0,1
43120.23047,-10000,4,1,1,15,0,1
43137.48828,-10000,4,1,1,15,0,1
43153.00781,-9896.781648,4,1,1,15,0,1
43167.03906,-9179.234076,4,1,1,15,0,1
43179.83594,-8102.263867,4,1,1,15,0,1
43191.64063,-6722.039945,4,1,1,15,0,1
43202.70313,-5219.012193,4,1,1,15,0,1
43213.26563,-3825.553517,4,1,1,15,0,1
43223.55859,-2696.487405,4,1,1,15,0,1
43233.80469,-1864.331902,4,1,1,15,0,1
43244.21484,-1284.39443,4,1,1,15,0,1
43254.98828,-890.7745861,4,1,1,15,0,1
43266.30078,-625.4849105,4,1,1,15,0,1
43278.3125,-445.8789945,4,1,1,15,0,1
43291.16406,-322.9616688,4,1,1,15,0,1
43304.96484,-237.663154,4,1,1,15,0,1
43319.80859,-177.5684517,4,1,1,15,0,1
43335.75391,-134.5781066,4,1,1,15,0,1
43352.82422,-103.3624747,4,1,1,15,0,1
43371.01563,-80.37236112,4,1,1,15,0,1
43390.29297,-63.21211999,4,1,1,15,0,1
43410.57031,-50.24185977,4,1,1,15,0,1
43431.72656,-40.32322772,4,1,1,15,0,1
43453.60938,-32.65518908,4,1,1,15,0,1
43476,-10000,4,1,1,15,0,1
43495.23047,-10000,4,1,1,15,0,1
43512.48828,-10000,4,1,1,15,0,1
43528.00781,-9896.781648,4,1,1,15,0,1
43542.03906,-9179.234076,4,1,1,15,0,1
43554.83594,-8102.263867,4,1,1,15,0,1
43566.64063,-6722.039945,4,1,1,15,0,1
43577.70313,-5219.012193,4,1,1,15,0,1
43588.26563,-3825.553517,4,1,1,15,0,1
43598.55859,-2696.487405,4,1,1,15,0,1
43608.80469,-1864.331902,4,1,1,15,0,1
43619.21484,-1284.39443,4,1,1,15,0,1
43629.98828,-890.7745861,4,1,1,15,0,1
43641.30078,-625.4849105,4,1,1,15,0,1
43653.3125,-445.8789945,4,1,1,15,0,1
43666.16406,-322.9616688,4,1,1,15,0,1
43679.96484,-237.663154,4,1,1,15,0,1
43694.80859,-177.5684517,4,1,1,15,0,1
43710.75391,-134.5781066,4,1,1,15,0,1
43727.82422,-103.3624747,4,1,1,15,0,1
43746.01563,-80.37236112,4,1,1,15,0,1
43765.29297,-63.21211999,4,1,1,15,0,1
43785.57031,-50.24185977,4,1,1,15,0,1
43806.72656,-40.32322772,4,1,1,15,0,1
43828.60938,-32.65518908,4,1,1,15,0,1
43851,-10000,4,1,1,15,0,1
43870.23047,-10000,4,1,1,15,0,1
43887.48828,-10000,4,1,1,15,0,1
43903.00781,-9896.781648,4,1,1,15,0,1
43917.03906,-9179.234076,4,1,1,15,0,1
43929.83594,-8102.263867,4,1,1,15,0,1
43941.64063,-6722.039945,4,1,1,15,0,1
43952.70313,-5219.012193,4,1,1,15,0,1
43963.26563,-3825.553517,4,1,1,15,0,1
43973.55859,-2696.487405,4,1,1,15,0,1
43983.80469,-1864.331902,4,1,1,15,0,1
43994.21484,-1284.39443,4,1,1,15,0,1
44004.98828,-890.7745861,4,1,1,15,0,1
44016.30078,-625.4849105,4,1,1,15,0,1
44028.3125,-445.8789945,4,1,1,15,0,1
44041.16406,-322.9616688,4,1,1,15,0,1
44054.96484,-237.663154,4,1,1,15,0,1
44069.80859,-177.5684517,4,1,1,15,0,1
44085.75391,-134.5781066,4,1,1,15,0,1
44102.82422,-103.3624747,4,1,1,15,0,1
44121.01563,-80.37236112,4,1,1,15,0,1
44140.29297,-63.21211999,4,1,1,15,0,1
44160.57031,-50.24185977,4,1,1,15,0,1
44181.72656,-40.32322772,4,1,1,15,0,1
44203.60938,-32.65518908,4,1,1,15,0,1
44226,-10000,4,1,1,15,0,1
44245.23047,-10000,4,1,1,15,0,1
44262.48828,-10000,4,1,1,15,0,1
44278.00781,-9896.781648,4,1,1,15,0,1
44292.03906,-9179.234076,4,1,1,15,0,1
44304.83594,-8102.263867,4,1,1,15,0,1
44316.64063,-6722.039945,4,1,1,15,0,1
44327.70313,-5219.012193,4,1,1,15,0,1
44338.26563,-3825.553517,4,1,1,15,0,1
44348.55859,-2696.487405,4,1,1,15,0,1
44358.80469,-1864.331902,4,1,1,15,0,1
44369.21484,-1284.39443,4,1,1,15,0,1
44379.98828,-890.7745861,4,1,1,15,0,1
44391.30078,-625.4849105,4,1,1,15,0,1
44403.3125,-445.8789945,4,1,1,15,0,1
44416.16406,-322.9616688,4,1,1,15,0,1
44429.96484,-237.663154,4,1,1,15,0,1
44444.80859,-177.5684517,4,1,1,15,0,1
44460.75391,-134.5781066,4,1,1,15,0,1
44477.82422,-103.3624747,4,1,1,15,0,1
44496.01563,-80.37236112,4,1,1,15,0,1
44515.29297,-63.21211999,4,1,1,15,0,1
44535.57031,-50.24185977,4,1,1,15,0,1
44556.72656,-40.32322772,4,1,1,15,0,1
44578.60938,-32.65518908,4,1,1,15,0,1
44601,-14.20454545,4,1,1,15,0,1
44619.326,-1501.331558,4,1,1,15,0,1
44788,-10000,4,1,1,15,0,1
44797.64063,-10000,4,1,1,15,0,1
44806.29297,-10000,4,1,1,15,0,1
44814.07031,-9896.781648,4,1,1,15,0,1
44821.10547,-9179.234076,4,1,1,15,0,1
44827.52344,-8102.263867,4,1,1,15,0,1
44833.44141,-6722.039945,4,1,1,15,0,1
44838.98828,-5219.012193,4,1,1,15,0,1
44844.28125,-3825.553517,4,1,1,15,0,1
44849.44141,-2696.487405,4,1,1,15,0,1
44854.57813,-1864.331902,4,1,1,15,0,1
44859.79688,-1284.39443,4,1,1,15,0,1
44865.19922,-890.7745861,4,1,1,15,0,1
44870.87109,-625.4849105,4,1,1,15,0,1
44876.89063,-445.8789945,4,1,1,15,0,1
44883.33594,-322.9616688,4,1,1,15,0,1
44890.25391,-237.663154,4,1,1,15,0,1
44897.69531,-177.5684517,4,1,1,15,0,1
44905.69141,-134.5781066,4,1,1,15,0,1
44914.24609,-103.3624747,4,1,1,15,0,1
44923.36719,-80.37236112,4,1,1,15,0,1
44933.03125,-63.21211999,4,1,1,15,0,1
44943.19531,-50.24185977,4,1,1,15,0,1
44953.80469,-40.32322772,4,1,1,15,0,1
44964.77344,-32.65518908,4,1,1,15,0,1
44976,-10000,4,1,1,15,0,1
44995.23047,-10000,4,1,1,15,0,1
45012.48828,-10000,4,1,1,15,0,1
45028.00781,-9896.781648,4,1,1,15,0,1
45042.03906,-9179.234076,4,1,1,15,0,1
45054.83594,-8102.263867,4,1,1,15,0,1
45066.64063,-6722.039945,4,1,1,15,0,1
45077.70313,-5219.012193,4,1,1,15,0,1
45088.26563,-3825.553517,4,1,1,15,0,1
45098.55859,-2696.487405,4,1,1,15,0,1
45108.80469,-1864.331902,4,1,1,15,0,1
45119.21484,-1284.39443,4,1,1,15,0,1
45129.98828,-890.7745861,4,1,1,15,0,1
45141.30078,-625.4849105,4,1,1,15,0,1
45153.3125,-445.8789945,4,1,1,15,0,1
45166.16406,-322.9616688,4,1,1,15,0,1
45179.96484,-237.663154,4,1,1,15,0,1
45194.80859,-177.5684517,4,1,1,15,0,1
45210.75391,-134.5781066,4,1,1,15,0,1
45227.82422,-103.3624747,4,1,1,15,0,1
45246.01563,-80.37236112,4,1,1,15,0,1
45265.29297,-63.21211999,4,1,1,15,0,1
45285.57031,-50.24185977,4,1,1,15,0,1
45306.72656,-40.32322772,4,1,1,15,0,1
45328.60938,-32.65518908,4,1,1,15,0,1
45351,-10000,4,1,1,15,0,1
45370.23047,-10000,4,1,1,15,0,1
45387.48828,-10000,4,1,1,15,0,1
45403.00781,-9896.781648,4,1,1,15,0,1
45417.03906,-9179.234076,4,1,1,15,0,1
45429.83594,-8102.263867,4,1,1,15,0,1
45441.64063,-6722.039945,4,1,1,15,0,1
45452.70313,-5219.012193,4,1,1,15,0,1
45463.26563,-3825.553517,4,1,1,15,0,1
45473.55859,-2696.487405,4,1,1,15,0,1
45483.80469,-1864.331902,4,1,1,15,0,1
45494.21484,-1284.39443,4,1,1,15,0,1
45504.98828,-890.7745861,4,1,1,15,0,1
45516.30078,-625.4849105,4,1,1,15,0,1
45528.3125,-445.8789945,4,1,1,15,0,1
45541.16406,-322.9616688,4,1,1,15,0,1
45554.96484,-237.663154,4,1,1,15,0,1
45569.80859,-177.5684517,4,1,1,15,0,1
45585.75391,-134.5781066,4,1,1,15,0,1
45602.82422,-103.3624747,4,1,1,15,0,1
45621.01563,-80.37236112,4,1,1,15,0,1
45640.29297,-63.21211999,4,1,1,15,0,1
45660.57031,-50.24185977,4,1,1,15,0,1
45681.72656,-40.32322772,4,1,1,15,0,1
45703.60938,-32.65518908,4,1,1,15,0,1
45726,-10000,4,1,1,15,0,1
45745.23047,-10000,4,1,1,15,0,1
45762.48828,-10000,4,1,1,15,0,1
45778.00781,-9896.781648,4,1,1,15,0,1
45792.03906,-9179.234076,4,1,1,15,0,1
45804.83594,-8102.263867,4,1,1,15,0,1
45816.64063,-6722.039945,4,1,1,15,0,1
45827.70313,-5219.012193,4,1,1,15,0,1
45838.26563,-3825.553517,4,1,1,15,0,1
45848.55859,-2696.487405,4,1,1,15,0,1
45858.80469,-1864.331902,4,1,1,15,0,1
45869.21484,-1284.39443,4,1,1,15,0,1
45879.98828,-890.7745861,4,1,1,15,0,1
45891.30078,-625.4849105,4,1,1,15,0,1
45903.3125,-445.8789945,4,1,1,15,0,1
45916.16406,-322.9616688,4,1,1,15,0,1
45929.96484,-237.663154,4,1,1,15,0,1
45944.80859,-177.5684517,4,1,1,15,0,1
45960.75391,-134.5781066,4,1,1,15,0,1
45977.82422,-103.3624747,4,1,1,15,0,1
45996.01563,-80.37236112,4,1,1,15,0,1
46015.29297,-63.21211999,4,1,1,15,0,1
46035.57031,-50.24185977,4,1,1,15,0,1
46056.72656,-40.32322772,4,1,1,15,0,1
46078.60938,-32.65518908,4,1,1,15,0,1
46101,-69.44444168,4,1,1,15,0,1
46108.48047,-72.31703255,4,1,1,15,0,1
46115.96094,-75.43753612,4,1,1,15,0,1
46123.44141,-78.83947827,4,1,1,15,0,1
46130.92188,-82.56274777,4,1,1,15,0,1
46138.39844,-86.65510936,4,1,1,15,0,1
46145.87891,-91.17431792,4,1,1,15,0,1
46153.35938,-96.19084127,4,1,1,15,0,1
46160.83984,-101.7915248,4,1,1,15,0,1
46168.32031,-108.0847332,4,1,1,15,0,1
46175.80078,-115.2073692,4,1,1,15,0,1
46183.28125,-123.3349754,4,1,1,15,0,1
46190.76172,-132.6963904,4,1,1,15,0,1
46198.23828,-143.5956251,4,1,1,15,0,1
46205.71875,-156.4455492,4,1,1,15,0,1
46213.19922,-171.8213008,4,1,1,15,0,1
46220.67969,-190.5487796,4,1,1,15,0,1
46228.16016,-213.8579902,4,1,1,15,0,1
46235.64063,-243.6647155,4,1,1,15,0,1
46243.12109,-283.1256931,4,1,1,15,0,1
46250.60156,-337.8378335,4,1,1,15,0,1
46258.07813,-418.7604618,4,1,1,15,0,1
46265.55859,-550.6607795,4,1,1,15,0,1
46273.03906,-803.8584902,4,1,1,15,0,1
46280.51953,-1488.095126,4,1,1,15,0,1
46288,-10000,4,1,1,15,0,1
46297.64063,-10000,4,1,1,15,0,1
46306.29297,-10000,4,1,1,15,0,1
46314.07031,-9896.781648,4,1,1,15,0,1
46321.10547,-9179.234076,4,1,1,15,0,1
46327.52344,-8102.263867,4,1,1,15,0,1
46333.44141,-6722.039945,4,1,1,15,0,1
46338.98828,-5219.012193,4,1,1,15,0,1
46344.28125,-3825.553517,4,1,1,15,0,1
46349.44141,-2696.487405,4,1,1,15,0,1
46354.57813,-1864.331902,4,1,1,15,0,1
46359.79688,-1284.39443,4,1,1,15,0,1
46365.19922,-890.7745861,4,1,1,15,0,1
46370.87109,-625.4849105,4,1,1,15,0,1
46376.89063,-445.8789945,4,1,1,15,0,1
46383.33594,-322.9616688,4,1,1,15,0,1
46390.25391,-237.663154,4,1,1,15,0,1
46397.69531,-177.5684517,4,1,1,15,0,1
46405.69141,-134.5781066,4,1,1,15,0,1
46414.24609,-103.3624747,4,1,1,15,0,1
46423.36719,-80.37236112,4,1,1,15,0,1
46433.03125,-63.21211999,4,1,1,15,0,1
46443.19531,-50.24185977,4,1,1,15,0,1
46453.80469,-40.32322772,4,1,1,15,0,1
46464.77344,-32.65518908,4,1,1,15,0,1
46476,-10000,4,1,1,15,0,1
46495.23047,-10000,4,1,1,15,0,1
46512.48828,-10000,4,1,1,15,0,1
46528.00781,-9896.781648,4,1,1,15,0,1
46542.03906,-9179.234076,4,1,1,15,0,1
46554.83594,-8102.263867,4,1,1,15,0,1
46566.64063,-6722.039945,4,1,1,15,0,1
46577.70313,-5219.012193,4,1,1,15,0,1
46588.26563,-3825.553517,4,1,1,15,0,1
46598.55859,-2696.487405,4,1,1,15,0,1
46608.80469,-1864.331902,4,1,1,15,0,1
46619.21484,-1284.39443,4,1,1,15,0,1
46629.98828,-890.7745861,4,1,1,15,0,1
46641.30078,-625.4849105,4,1,1,15,0,1
46653.3125,-445.8789945,4,1,1,15,0,1
46666.16406,-322.9616688,4,1,1,15,0,1
46679.96484,-237.663154,4,1,1,15,0,1
46694.80859,-177.5684517,4,1,1,15,0,1
46710.75391,-134.5781066,4,1,1,15,0,1
46727.82422,-103.3624747,4,1,1,15,0,1
46746.01563,-80.37236112,4,1,1,15,0,1
46765.29297,-63.21211999,4,1,1,15,0,1
46785.57031,-50.24185977,4,1,1,15,0,1
46806.72656,-40.32322772,4,1,1,15,0,1
46828.60938,-32.65518908,4,1,1,15,0,1
46851,-10000,4,1,1,15,0,1
46870.23047,-10000,4,1,1,15,0,1
46887.48828,-10000,4,1,1,15,0,1
46903.00781,-9896.781648,4,1,1,15,0,1
46917.03906,-9179.234076,4,1,1,15,0,1
46929.83594,-8102.263867,4,1,1,15,0,1
46941.64063,-6722.039945,4,1,1,15,0,1
46952.70313,-5219.012193,4,1,1,15,0,1
46963.26563,-3825.553517,4,1,1,15,0,1
46973.55859,-2696.487405,4,1,1,15,0,1
46983.80469,-1864.331902,4,1,1,15,0,1
46994.21484,-1284.39443,4,1,1,15,0,1
47004.98828,-890.7745861,4,1,1,15,0,1
47016.30078,-625.4849105,4,1,1,15,0,1
47028.3125,-445.8789945,4,1,1,15,0,1
47041.16406,-322.9616688,4,1,1,15,0,1
47054.96484,-237.663154,4,1,1,15,0,1
47069.80859,-177.5684517,4,1,1,15,0,1
47085.75391,-134.5781066,4,1,1,15,0,1
47102.82422,-103.3624747,4,1,1,15,0,1
47121.01563,-80.37236112,4,1,1,15,0,1
47140.29297,-63.21211999,4,1,1,15,0,1
47160.57031,-50.24185977,4,1,1,15,0,1
47181.72656,-40.32322772,4,1,1,15,0,1
47203.60938,-32.65518908,4,1,1,15,0,1
47226,-14.20454545,4,1,1,15,0,1
47244.326,-1501.331558,4,1,1,15,0,1
47413,-10000,4,1,1,15,0,1
47581.824,-13.76481067,4,1,1,15,0,1
47601,-10000,4,1,1,15,0,1
47620.23047,-10000,4,1,1,15,0,1
47637.48828,-10000,4,1,1,15,0,1
47653.00781,-9896.781648,4,1,1,15,0,1
47667.03906,-9179.234076,4,1,1,15,0,1
47679.83594,-8102.263867,4,1,1,15,0,1
47691.64063,-6722.039945,4,1,1,15,0,1
47702.70313,-5219.012193,4,1,1,15,0,1
47713.26563,-3825.553517,4,1,1,15,0,1
47723.55859,-2696.487405,4,1,1,15,0,1
47733.80469,-1864.331902,4,1,1,15,0,1
47744.21484,-1284.39443,4,1,1,15,0,1
47754.98828,-890.7745861,4,1,1,15,0,1
47766.30078,-625.4849105,4,1,1,15,0,1
47778.3125,-445.8789945,4,1,1,15,0,1
47791.16406,-322.9616688,4,1,1,15,0,1
47804.96484,-237.663154,4,1,1,15,0,1
47819.80859,-177.5684517,4,1,1,15,0,1
47835.75391,-134.5781066,4,1,1,15,0,1
47852.82422,-103.3624747,4,1,1,15,0,1
47871.01563,-80.37236112,4,1,1,15,0,1
47890.29297,-63.21211999,4,1,1,15,0,1
47910.57031,-50.24185977,4,1,1,15,0,1
47931.72656,-40.32322772,4,1,1,15,0,1
47953.60938,-32.65518908,4,1,1,15,0,1
47976,-10000,4,1,1,15,0,1
47995.23047,-10000,4,1,1,15,0,1
48012.48828,-10000,4,1,1,15,0,1
48028.00781,-9896.781648,4,1,1,15,0,1
48042.03906,-9179.234076,4,1,1,15,0,1
48054.83594,-8102.263867,4,1,1,15,0,1
48066.64063,-6722.039945,4,1,1,15,0,1
48077.70313,-5219.012193,4,1,1,15,0,1
48088.26563,-3825.553517,4,1,1,15,0,1
48098.55859,-2696.487405,4,1,1,15,0,1
48108.80469,-1864.331902,4,1,1,15,0,1
48119.21484,-1284.39443,4,1,1,15,0,1
48129.98828,-890.7745861,4,1,1,15,0,1
48141.30078,-625.4849105,4,1,1,15,0,1
48153.3125,-445.8789945,4,1,1,15,0,1
48166.16406,-322.9616688,4,1,1,15,0,1
48179.96484,-237.663154,4,1,1,15,0,1
48194.80859,-177.5684517,4,1,1,15,0,1
48210.75391,-134.5781066,4,1,1,15,0,1
48227.82422,-103.3624747,4,1,1,15,0,1
48246.01563,-80.37236112,4,1,1,15,0,1
48265.29297,-63.21211999,4,1,1,15,0,1
48285.57031,-50.24185977,4,1,1,15,0,1
48306.72656,-40.32322772,4,1,1,15,0,1
48328.60938,-32.65518908,4,1,1,15,0,1
48351,-10000,4,1,1,15,0,1
48370.23047,-10000,4,1,1,15,0,1
48387.48828,-10000,4,1,1,15,0,1
48403.00781,-9896.781648,4,1,1,15,0,1
48417.03906,-9179.234076,4,1,1,15,0,1
48429.83594,-8102.263867,4,1,1,15,0,1
48441.64063,-6722.039945,4,1,1,15,0,1
48452.70313,-5219.012193,4,1,1,15,0,1
48463.26563,-3825.553517,4,1,1,15,0,1
48473.55859,-2696.487405,4,1,1,15,0,1
48483.80469,-1864.331902,4,1,1,15,0,1
48494.21484,-1284.39443,4,1,1,15,0,1
48504.98828,-890.7745861,4,1,1,15,0,1
48516.30078,-625.4849105,4,1,1,15,0,1
48528.3125,-445.8789945,4,1,1,15,0,1
48541.16406,-322.9616688,4,1,1,15,0,1
48554.96484,-237.663154,4,1,1,15,0,1
48569.80859,-177.5684517,4,1,1,15,0,1
48585.75391,-134.5781066,4,1,1,15,0,1
48602.82422,-103.3624747,4,1,1,15,0,1
48621.01563,-80.37236112,4,1,1,15,0,1
48640.29297,-63.21211999,4,1,1,15,0,1
48660.57031,-50.24185977,4,1,1,15,0,1
48681.72656,-40.32322772,4,1,1,15,0,1
48703.60938,-32.65518908,4,1,1,15,0,1
48726,-10000,4,1,1,15,0,1
48745.23047,-10000,4,1,1,15,0,1
48762.48828,-10000,4,1,1,15,0,1
48778.00781,-9896.781648,4,1,1,15,0,1
48792.03906,-9179.234076,4,1,1,15,0,1
48804.83594,-8102.263867,4,1,1,15,0,1
48816.64063,-6722.039945,4,1,1,15,0,1
48827.70313,-5219.012193,4,1,1,15,0,1
48838.26563,-3825.553517,4,1,1,15,0,1
48848.55859,-2696.487405,4,1,1,15,0,1
48858.80469,-1864.331902,4,1,1,15,0,1
48869.21484,-1284.39443,4,1,1,15,0,1
48879.98828,-890.7745861,4,1,1,15,0,1
48891.30078,-625.4849105,4,1,1,15,0,1
48903.3125,-445.8789945,4,1,1,15,0,1
48916.16406,-322.9616688,4,1,1,15,0,1
48929.96484,-237.663154,4,1,1,15,0,1
48944.80859,-177.5684517,4,1,1,15,0,1
48960.75391,-134.5781066,4,1,1,15,0,1
48977.82422,-103.3624747,4,1,1,15,0,1
48996.01563,-80.37236112,4,1,1,15,0,1
49015.29297,-63.21211999,4,1,1,15,0,1
49035.57031,-50.24185977,4,1,1,15,0,1
49056.72656,-40.32322772,4,1,1,15,0,1
49078.60938,-32.65518908,4,1,1,15,0,1
49101,-10000,4,1,1,15,0,1
49120.23047,-10000,4,1,1,15,0,1
49137.48828,-10000,4,1,1,15,0,1
49153.00781,-9896.781648,4,1,1,15,0,1
49167.03906,-9179.234076,4,1,1,15,0,1
49179.83594,-8102.263867,4,1,1,15,0,1
49191.64063,-6722.039945,4,1,1,15,0,1
49202.70313,-5219.012193,4,1,1,15,0,1
49213.26563,-3825.553517,4,1,1,15,0,1
49223.55859,-2696.487405,4,1,1,15,0,1
49233.80469,-1864.331902,4,1,1,15,0,1
49244.21484,-1284.39443,4,1,1,15,0,1
49254.98828,-890.7745861,4,1,1,15,0,1
49266.30078,-625.4849105,4,1,1,15,0,1
49278.3125,-445.8789945,4,1,1,15,0,1
49291.16406,-322.9616688,4,1,1,15,0,1
49304.96484,-237.663154,4,1,1,15,0,1
49319.80859,-177.5684517,4,1,1,15,0,1
49335.75391,-134.5781066,4,1,1,15,0,1
49352.82422,-103.3624747,4,1,1,15,0,1
49371.01563,-80.37236112,4,1,1,15,0,1
49390.29297,-63.21211999,4,1,1,15,0,1
49410.57031,-50.24185977,4,1,1,15,0,1
49431.72656,-40.32322772,4,1,1,15,0,1
49453.60938,-32.65518908,4,1,1,15,0,1
49476,-10000,4,1,1,15,0,1
49495.23047,-10000,4,1,1,15,0,1
49512.48828,-10000,4,1,1,15,0,1
49528.00781,-9896.781648,4,1,1,15,0,1
49542.03906,-9179.234076,4,1,1,15,0,1
49554.83594,-8102.263867,4,1,1,15,0,1
49566.64063,-6722.039945,4,1,1,15,0,1
49577.70313,-5219.012193,4,1,1,15,0,1
49588.26563,-3825.553517,4,1,1,15,0,1
49598.55859,-2696.487405,4,1,1,15,0,1
49608.80469,-1864.331902,4,1,1,15,0,1
49619.21484,-1284.39443,4,1,1,15,0,1
49629.98828,-890.7745861,4,1,1,15,0,1
49641.30078,-625.4849105,4,1,1,15,0,1
49653.3125,-445.8789945,4,1,1,15,0,1
49666.16406,-322.9616688,4,1,1,15,0,1
49679.96484,-237.663154,4,1,1,15,0,1
49694.80859,-177.5684517,4,1,1,15,0,1
49710.75391,-134.5781066,4,1,1,15,0,1
49727.82422,-103.3624747,4,1,1,15,0,1
49746.01563,-80.37236112,4,1,1,15,0,1
49765.29297,-63.21211999,4,1,1,15,0,1
49785.57031,-50.24185977,4,1,1,15,0,1
49806.72656,-40.32322772,4,1,1,15,0,1
49828.60938,-32.65518908,4,1,1,15,0,1
49851,-10000,4,1,1,15,0,1
49870.23047,-10000,4,1,1,15,0,1
49887.48828,-10000,4,1,1,15,0,1
49903.00781,-9896.781648,4,1,1,15,0,1
49917.03906,-9179.234076,4,1,1,15,0,1
49929.83594,-8102.263867,4,1,1,15,0,1
49941.64063,-6722.039945,4,1,1,15,0,1
49952.70313,-5219.012193,4,1,1,15,0,1
49963.26563,-3825.553517,4,1,1,15,0,1
49973.55859,-2696.487405,4,1,1,15,0,1
49983.80469,-1864.331902,4,1,1,15,0,1
49994.21484,-1284.39443,4,1,1,15,0,1
50004.98828,-890.7745861,4,1,1,15,0,1
50016.30078,-625.4849105,4,1,1,15,0,1
50028.3125,-445.8789945,4,1,1,15,0,1
50041.16406,-322.9616688,4,1,1,15,0,1
50054.96484,-237.663154,4,1,1,15,0,1
50069.80859,-177.5684517,4,1,1,15,0,1
50085.75391,-134.5781066,4,1,1,15,0,1
50102.82422,-103.3624747,4,1,1,15,0,1
50121.01563,-80.37236112,4,1,1,15,0,1
50140.29297,-63.21211999,4,1,1,15,0,1
50160.57031,-50.24185977,4,1,1,15,0,1
50181.72656,-40.32322772,4,1,1,15,0,1
50203.60938,-32.65518908,4,1,1,15,0,1
50226,-10000,4,1,1,15,0,1
50245.23047,-10000,4,1,1,15,0,1
50262.48828,-10000,4,1,1,15,0,1
50278.00781,-9896.781648,4,1,1,15,0,1
50292.03906,-9179.234076,4,1,1,15,0,1
50304.83594,-8102.263867,4,1,1,15,0,1
50316.64063,-6722.039945,4,1,1,15,0,1
50327.70313,-5219.012193,4,1,1,15,0,1
50338.26563,-3825.553517,4,1,1,15,0,1
50348.55859,-2696.487405,4,1,1,15,0,1
50358.80469,-1864.331902,4,1,1,15,0,1
50369.21484,-1284.39443,4,1,1,15,0,1
50379.98828,-890.7745861,4,1,1,15,0,1
50391.30078,-625.4849105,4,1,1,15,0,1
50403.3125,-445.8789945,4,1,1,15,0,1
50416.16406,-322.9616688,4,1,1,15,0,1
50429.96484,-237.663154,4,1,1,15,0,1
50444.80859,-177.5684517,4,1,1,15,0,1
50460.75391,-134.5781066,4,1,1,15,0,1
50477.82422,-103.3624747,4,1,1,15,0,1
50496.01563,-80.37236112,4,1,1,15,0,1
50515.29297,-63.21211999,4,1,1,15,0,1
50535.57031,-50.24185977,4,1,1,15,0,1
50556.72656,-40.32322772,4,1,1,15,0,1
50578.60938,-32.65518908,4,1,1,15,0,1
50601,-14.20454545,4,1,1,15,0,1
50619.326,-1501.331558,4,1,1,15,0,1
50788,-10000,4,1,1,15,0,1
50797.64063,-10000,4,1,1,15,0,1
50806.29297,-10000,4,1,1,15,0,1
50814.07031,-9896.781648,4,1,1,15,0,1
50821.10547,-9179.234076,4,1,1,15,0,1
50827.52344,-8102.263867,4,1,1,15,0,1
50833.44141,-6722.039945,4,1,1,15,0,1
50838.98828,-5219.012193,4,1,1,15,0,1
50844.28125,-3825.553517,4,1,1,15,0,1
50849.44141,-2696.487405,4,1,1,15,0,1
50854.57813,-1864.331902,4,1,1,15,0,1
50859.79688,-1284.39443,4,1,1,15,0,1
50865.19922,-890.7745861,4,1,1,15,0,1
50870.87109,-625.4849105,4,1,1,15,0,1
50876.89063,-445.8789945,4,1,1,15,0,1
50883.33594,-322.9616688,4,1,1,15,0,1
50890.25391,-237.663154,4,1,1,15,0,1
50897.69531,-177.5684517,4,1,1,15,0,1
50905.69141,-134.5781066,4,1,1,15,0,1
50914.24609,-103.3624747,4,1,1,15,0,1
50923.36719,-80.37236112,4,1,1,15,0,1
50933.03125,-63.21211999,4,1,1,15,0,1
50943.19531,-50.24185977,4,1,1,15,0,1
50953.80469,-40.32322772,4,1,1,15,0,1
50964.77344,-32.65518908,4,1,1,15,0,1
50976,-33.33333333,4,1,1,15,0,1
50980.20703,-36.31381415,4,1,1,15,0,1
50984.47656,-39.68844651,4,1,1,15,0,1
50988.83594,-43.52829253,4,1,1,15,0,1
50993.30859,-47.92098113,4,1,1,15,0,1
50997.92969,-52.97557414,4,1,1,15,0,1
51002.71875,-58.82912164,4,1,1,15,0,1
51007.71484,-65.65566771,4,1,1,15,0,1
51012.93359,-73.67887404,4,1,1,15,0,1
51018.41406,-83.18985578,4,1,1,15,0,1
51024.17969,-94.57303112,4,1,1,15,0,1
51030.25781,-108.3441276,4,1,1,15,0,1
51036.67969,-125.2075895,4,1,1,15,0,1
51043.46875,-146.1452498,4,1,1,15,0,1
51050.65625,-172.5573833,4,1,1,15,0,1
51058.26953,-206.4945942,4,1,1,15,0,1
51066.33594,-251.053064,4,1,1,15,0,1
51074.88281,-311.0786095,4,1,1,15,0,1
51083.94141,-394.4850399,4,1,1,15,0,1
51093.53906,-514.875552,4,1,1,15,0,1
51103.70313,-697.1410086,4,1,1,15,0,1
51114.46094,-990.4928785,4,1,1,15,0,1
51125.84375,-1502.108752,4,1,1,15,0,1
51137.875,-2494.786,4,1,1,15,0,1
51150.58203,-4696.537811,4,1,1,15,0,1
51163,-40.16064257,4,1,1,15,0,1
51219.024,-8796.992481,4,1,1,15,0,1
51351,-13.22751323,4,1,1,15,0,1
51369.326,-9890.350877,4,1,1,15,0,1
51538,-33.33333333,4,1,1,15,0,1
51542.20703,-36.31381415,4,1,1,15,0,1
51546.47656,-39.68844651,4,1,1,15,0,1
51550.83594,-43.52829253,4,1,1,15,0,1
51555.30859,-47.92098113,4,1,1,15,0,1
51559.92969,-52.97557414,4,1,1,15,0,1
51564.71875,-58.82912164,4,1,1,15,0,1
51569.71484,-65.65566771,4,1,1,15,0,1
51574.93359,-73.67887404,4,1,1,15,0,1
51580.41406,-83.18985578,4,1,1,15,0,1
51586.17969,-94.57303112,4,1,1,15,0,1
51592.25781,-108.3441276,4,1,1,15,0,1
51598.67969,-125.2075895,4,1,1,15,0,1
51605.46875,-146.1452498,4,1,1,15,0,1
51612.65625,-172.5573833,4,1,1,15,0,1
51620.26953,-206.4945942,4,1,1,15,0,1
51628.33594,-251.053064,4,1,1,15,0,1
51636.88281,-311.0786095,4,1,1,15,0,1
51645.94141,-394.4850399,4,1,1,15,0,1
51655.53906,-514.875552,4,1,1,15,0,1
51665.70313,-697.1410086,4,1,1,15,0,1
51676.46094,-990.4928785,4,1,1,15,0,1
51687.84375,-1502.108752,4,1,1,15,0,1
51699.875,-2494.786,4,1,1,15,0,1
51712.58203,-4696.537811,4,1,1,15,0,1
51726,-10,4,1,1,15,0,1
51735.114,-4510,4,1,1,15,0,1
51819,-100,4,1,1,15,0,1
51913,-33.33333333,4,1,1,15,0,1
51917.20703,-36.31381415,4,1,1,15,0,1
51921.47656,-39.68844651,4,1,1,15,0,1
51925.83594,-43.52829253,4,1,1,15,0,1
51930.30859,-47.92098113,4,1,1,15,0,1
51934.92969,-52.97557414,4,1,1,15,0,1
51939.71875,-58.82912164,4,1,1,15,0,1
51944.71484,-65.65566771,4,1,1,15,0,1
51949.93359,-73.67887404,4,1,1,15,0,1
51955.41406,-83.18985578,4,1,1,15,0,1
51961.17969,-94.57303112,4,1,1,15,0,1
51967.25781,-108.3441276,4,1,1,15,0,1
51973.67969,-125.2075895,4,1,1,15,0,1
51980.46875,-146.1452498,4,1,1,15,0,1
51987.65625,-172.5573833,4,1,1,15,0,1
51995.26953,-206.4945942,4,1,1,15,0,1
52003.33594,-251.053064,4,1,1,15,0,1
52011.88281,-311.0786095,4,1,1,15,0,1
52020.94141,-394.4850399,4,1,1,15,0,1
52030.53906,-514.875552,4,1,1,15,0,1
52040.70313,-697.1410086,4,1,1,15,0,1
52051.46094,-990.4928785,4,1,1,15,0,1
52062.84375,-1502.108752,4,1,1,15,0,1
52074.875,-2494.786,4,1,1,15,0,1
52087.58203,-4696.537811,4,1,1,15,0,1
52101,-10000,4,1,1,15,0,1
52116,-771.6049183,4,1,1,15,0,1
52131,-401.284107,4,1,1,15,0,1
52146,-271.1496641,4,1,1,15,0,1
52161,-204.7501996,4,1,1,15,0,1
52176,-164.4736895,4,1,1,15,0,1
52191,-137.4381569,4,1,1,15,0,1
52206,-118.0358862,4,1,1,15,0,1
52221,-103.4340118,4,1,1,15,0,1
52236,-92.04712541,4,1,1,15,0,1
52251,-82.91874167,4,1,1,15,0,1
52266,-75.43753612,4,1,1,15,0,1
52281,-69.19457675,4,1,1,15,0,1
52296,-63.90592949,4,1,1,15,0,1
52311,-59.36832239,4,1,1,15,0,1
52326,-55.43237189,4,1,1,15,0,1
52341,-51.98586097,4,1,1,15,0,1
52356,-48.94283439,4,1,1,15,0,1
52371,-46.2363587,4,1,1,15,0,1
52386,-43.81353168,4,1,1,15,0,1
52401,-41.63197422,4,1,1,15,0,1
52416,-39.65736028,4,1,1,15,0,1
52431,-37.86157713,4,1,1,15,0,1
52446,-36.22138662,4,1,1,15,0,1
52461,-34.71740106,4,1,1,15,0,1
52476,-13.22751323,4,1,1,15,0,1
52480.508,-9890.350877,4,1,1,15,0,1
52522,-13.22751323,4,1,1,15,0,1
52526.606,-9890.350877,4,1,1,15,0,1
52569,-13.22751323,4,1,1,15,0,1
52573.606,-9890.350877,4,1,1,15,0,1
52616,-13.22751323,4,1,1,15,0,1
52620.606,-9890.350877,4,1,1,15,0,1
52663,-10000,4,1,1,15,0,1
52672.64063,-10000,4,1,1,15,0,1
52681.29297,-10000,4,1,1,15,0,1
52689.07031,-9896.781648,4,1,1,15,0,1
52696.10547,-9179.234076,4,1,1,15,0,1
52702.52344,-8102.263867,4,1,1,15,0,1
52708.44141,-6722.039945,4,1,1,15,0,1
52713.98828,-5219.012193,4,1,1,15,0,1
52719.28125,-3825.553517,4,1,1,15,0,1
52724.44141,-2696.487405,4,1,1,15,0,1
52729.57813,-1864.331902,4,1,1,15,0,1
52734.79688,-1284.39443,4,1,1,15,0,1
52740.19922,-890.7745861,4,1,1,15,0,1
52745.87109,-625.4849105,4,1,1,15,0,1
52751.89063,-445.8789945,4,1,1,15,0,1
52758.33594,-322.9616688,4,1,1,15,0,1
52765.25391,-237.663154,4,1,1,15,0,1
52772.69531,-177.5684517,4,1,1,15,0,1
52780.69141,-134.5781066,4,1,1,15,0,1
52789.24609,-103.3624747,4,1,1,15,0,1
52798.36719,-80.37236112,4,1,1,15,0,1
52808.03125,-63.21211999,4,1,1,15,0,1
52818.19531,-50.24185977,4,1,1,15,0,1
52828.80469,-40.32322772,4,1,1,15,0,1
52839.77344,-32.65518908,4,1,1,15,0,1
52851,-13.22751323,4,1,1,15,0,1
52855.508,-9890.350877,4,1,1,15,0,1
52897,-13.22751323,4,1,1,15,0,1
52901.606,-9890.350877,4,1,1,15,0,1
52944,-13.22751323,4,1,1,15,0,1
52948.606,-9890.350877,4,1,1,15,0,1
52991,-13.22751323,4,1,1,15,0,1
52995.606,-9890.350877,4,1,1,15,0,1
53038,-10000,4,1,1,15,0,1
53047.64063,-10000,4,1,1,15,0,1
53056.29297,-10000,4,1,1,15,0,1
53064.07031,-9896.781648,4,1,1,15,0,1
53071.10547,-9179.234076,4,1,1,15,0,1
53077.52344,-8102.263867,4,1,1,15,0,1
53083.44141,-6722.039945,4,1,1,15,0,1
53088.98828,-5219.012193,4,1,1,15,0,1
53094.28125,-3825.553517,4,1,1,15,0,1
53099.44141,-2696.487405,4,1,1,15,0,1
53104.57813,-1864.331902,4,1,1,15,0,1
53109.79688,-1284.39443,4,1,1,15,0,1
53115.19922,-890.7745861,4,1,1,15,0,1
53120.87109,-625.4849105,4,1,1,15,0,1
53126.89063,-445.8789945,4,1,1,15,0,1
53133.33594,-322.9616688,4,1,1,15,0,1
53140.25391,-237.663154,4,1,1,15,0,1
53147.69531,-177.5684517,4,1,1,15,0,1
53155.69141,-134.5781066,4,1,1,15,0,1
53164.24609,-103.3624747,4,1,1,15,0,1
53173.36719,-80.37236112,4,1,1,15,0,1
53183.03125,-63.21211999,4,1,1,15,0,1
53193.19531,-50.24185977,4,1,1,15,0,1
53203.80469,-40.32322772,4,1,1,15,0,1
53214.77344,-32.65518908,4,1,1,15,0,1
53226,-69.44444168,4,1,1,15,0,1
53233.48047,-72.31703255,4,1,1,15,0,1
53240.96094,-75.43753612,4,1,1,15,0,1
53248.44141,-78.83947827,4,1,1,15,0,1
53255.92188,-82.56274777,4,1,1,15,0,1
53263.39844,-86.65510936,4,1,1,15,0,1
53270.87891,-91.17431792,4,1,1,15,0,1
53278.35938,-96.19084127,4,1,1,15,0,1
53285.83984,-101.7915248,4,1,1,15,0,1
53293.32031,-108.0847332,4,1,1,15,0,1
53300.80078,-115.2073692,4,1,1,15,0,1
53308.28125,-123.3349754,4,1,1,15,0,1
53315.76172,-132.6963904,4,1,1,15,0,1
53323.23828,-143.5956251,4,1,1,15,0,1
53330.71875,-156.4455492,4,1,1,15,0,1
53338.19922,-171.8213008,4,1,1,15,0,1
53345.67969,-190.5487796,4,1,1,15,0,1
53353.16016,-213.8579902,4,1,1,15,0,1
53360.64063,-243.6647155,4,1,1,15,0,1
53368.12109,-283.1256931,4,1,1,15,0,1
53375.60156,-337.8378335,4,1,1,15,0,1
53383.07813,-418.7604618,4,1,1,15,0,1
53390.55859,-550.6607795,4,1,1,15,0,1
53398.03906,-803.8584902,4,1,1,15,0,1
53405.51953,-1488.095126,4,1,1,15,0,1
53413,-13.22751323,4,1,1,15,0,1
53417.606,-9890.350877,4,1,1,15,0,1
53460,-13.22751323,4,1,1,15,0,1
53464.606,-9890.350877,4,1,1,15,0,1
53507,-13.22751323,4,1,1,15,0,1
53511.606,-9890.350877,4,1,1,15,0,1
53554,-13.22751323,4,1,1,15,0,1
53558.606,-9890.350877,4,1,1,15,0,1
53601,-13.22751323,4,1,1,15,0,1
53619.326,-9890.350877,4,1,1,15,0,1
53788,-10000,4,1,1,15,0,1
53797.64063,-10000,4,1,1,15,0,1
53806.29297,-10000,4,1,1,15,0,1
53814.07031,-9896.781648,4,1,1,15,0,1
53821.10547,-9179.234076,4,1,1,15,0,1
53827.52344,-8102.263867,4,1,1,15,0,1
53833.44141,-6722.039945,4,1,1,15,0,1
53838.98828,-5219.012193,4,1,1,15,0,1
53844.28125,-3825.553517,4,1,1,15,0,1
53849.44141,-2696.487405,4,1,1,15,0,1
53854.57813,-1864.331902,4,1,1,15,0,1
53859.79688,-1284.39443,4,1,1,15,0,1
53865.19922,-890.7745861,4,1,1,15,0,1
53870.87109,-625.4849105,4,1,1,15,0,1
53876.89063,-445.8789945,4,1,1,15,0,1
53883.33594,-322.9616688,4,1,1,15,0,1
53890.25391,-237.663154,4,1,1,15,0,1
53897.69531,-177.5684517,4,1,1,15,0,1
53905.69141,-134.5781066,4,1,1,15,0,1
53914.24609,-103.3624747,4,1,1,15,0,1
53923.36719,-80.37236112,4,1,1,15,0,1
53933.03125,-63.21211999,4,1,1,15,0,1
53943.19531,-50.24185977,4,1,1,15,0,1
53953.80469,-40.32322772,4,1,1,15,0,1
53964.77344,-32.65518908,4,1,1,15,0,1
53976,-13.22751323,4,1,1,15,0,1
53980.508,-9890.350877,4,1,1,15,0,1
54022,-13.22751323,4,1,1,15,0,1
54026.606,-9890.350877,4,1,1,15,0,1
54069,-13.22751323,4,1,1,15,0,1
54073.606,-9890.350877,4,1,1,15,0,1
54116,-13.22751323,4,1,1,15,0,1
54120.606,-9890.350877,4,1,1,15,0,1
54163,-10000,4,1,1,15,0,1
54172.64063,-10000,4,1,1,15,0,1
54181.29297,-10000,4,1,1,15,0,1
54189.07031,-9896.781648,4,1,1,15,0,1
54196.10547,-9179.234076,4,1,1,15,0,1
54202.52344,-8102.263867,4,1,1,15,0,1
54208.44141,-6722.039945,4,1,1,15,0,1
54213.98828,-5219.012193,4,1,1,15,0,1
54219.28125,-3825.553517,4,1,1,15,0,1
54224.44141,-2696.487405,4,1,1,15,0,1
54229.57813,-1864.331902,4,1,1,15,0,1
54234.79688,-1284.39443,4,1,1,15,0,1
54240.19922,-890.7745861,4,1,1,15,0,1
54245.87109,-625.4849105,4,1,1,15,0,1
54251.89063,-445.8789945,4,1,1,15,0,1
54258.33594,-322.9616688,4,1,1,15,0,1
54265.25391,-237.663154,4,1,1,15,0,1
54272.69531,-177.5684517,4,1,1,15,0,1
54280.69141,-134.5781066,4,1,1,15,0,1
54289.24609,-103.3624747,4,1,1,15,0,1
54298.36719,-80.37236112,4,1,1,15,0,1
54308.03125,-63.21211999,4,1,1,15,0,1
54318.19531,-50.24185977,4,1,1,15,0,1
54328.80469,-40.32322772,4,1,1,15,0,1
54339.77344,-32.65518908,4,1,1,15,0,1
54351,-13.22751323,4,1,1,15,0,1
54369.326,-9890.350877,4,1,1,15,0,1
54538,-10000,4,1,1,15,0,1
54547.64063,-10000,4,1,1,15,0,1
54556.29297,-10000,4,1,1,15,0,1
54564.07031,-9896.781648,4,1,1,15,0,1
54571.10547,-9179.234076,4,1,1,15,0,1
54577.52344,-8102.263867,4,1,1,15,0,1
54583.44141,-6722.039945,4,1,1,15,0,1
54588.98828,-5219.012193,4,1,1,15,0,1
54594.28125,-3825.553517,4,1,1,15,0,1
54599.44141,-2696.487405,4,1,1,15,0,1
54604.57813,-1864.331902,4,1,1,15,0,1
54609.79688,-1284.39443,4,1,1,15,0,1
54615.19922,-890.7745861,4,1,1,15,0,1
54620.87109,-625.4849105,4,1,1,15,0,1
54626.89063,-445.8789945,4,1,1,15,0,1
54633.33594,-322.9616688,4,1,1,15,0,1
54640.25391,-237.663154,4,1,1,15,0,1
54647.69531,-177.5684517,4,1,1,15,0,1
54655.69141,-134.5781066,4,1,1,15,0,1
54664.24609,-103.3624747,4,1,1,15,0,1
54673.36719,-80.37236112,4,1,1,15,0,1
54683.03125,-63.21211999,4,1,1,15,0,1
54693.19531,-50.24185977,4,1,1,15,0,1
54703.80469,-40.32322772,4,1,1,15,0,1
54714.77344,-32.65518908,4,1,1,15,0,1
54726,-13.22751323,4,1,1,15,0,1
54730.508,-9890.350877,4,1,1,15,0,1
54772,-13.22751323,4,1,1,15,0,1
54776.606,-9890.350877,4,1,1,15,0,1
54819,-13.22751323,4,1,1,15,0,1
54823.606,-9890.350877,4,1,1,15,0,1
54866,-13.22751323,4,1,1,15,0,1
54870.606,-9890.350877,4,1,1,15,0,1
54913,-10000,4,1,1,15,0,1
54922.64063,-10000,4,1,1,15,0,1
54931.29297,-10000,4,1,1,15,0,1
54939.07031,-9896.781648,4,1,1,15,0,1
54946.10547,-9179.234076,4,1,1,15,0,1
54952.52344,-8102.263867,4,1,1,15,0,1
54958.44141,-6722.039945,4,1,1,15,0,1
54963.98828,-5219.012193,4,1,1,15,0,1
54969.28125,-3825.553517,4,1,1,15,0,1
54974.44141,-2696.487405,4,1,1,15,0,1
54979.57813,-1864.331902,4,1,1,15,0,1
54984.79688,-1284.39443,4,1,1,15,0,1
54990.19922,-890.7745861,4,1,1,15,0,1
54995.87109,-625.4849105,4,1,1,15,0,1
55001.89063,-445.8789945,4,1,1,15,0,1
55008.33594,-322.9616688,4,1,1,15,0,1
55015.25391,-237.663154,4,1,1,15,0,1
55022.69531,-177.5684517,4,1,1,15,0,1
55030.69141,-134.5781066,4,1,1,15,0,1
55039.24609,-103.3624747,4,1,1,15,0,1
55048.36719,-80.37236112,4,1,1,15,0,1
55058.03125,-63.21211999,4,1,1,15,0,1
55068.19531,-50.24185977,4,1,1,15,0,1
55078.80469,-40.32322772,4,1,1,15,0,1
55089.77344,-32.65518908,4,1,1,15,0,1
55101,-13.22751323,4,1,1,15,0,1
55105.508,-9890.350877,4,1,1,15,0,1
55147,-13.22751323,4,1,1,15,0,1
55151.606,-9890.350877,4,1,1,15,0,1
55194,-13.22751323,4,1,1,15,0,1
55198.606,-9890.350877,4,1,1,15,0,1
55241,-13.22751323,4,1,1,15,0,1
55245.606,-9890.350877,4,1,1,15,0,1
55288,-10000,4,1,1,15,0,1
55297.64063,-10000,4,1,1,15,0,1
55306.29297,-10000,4,1,1,15,0,1
55314.07031,-9896.781648,4,1,1,15,0,1
55321.10547,-9179.234076,4,1,1,15,0,1
55327.52344,-8102.263867,4,1,1,15,0,1
55333.44141,-6722.039945,4,1,1,15,0,1
55338.98828,-5219.012193,4,1,1,15,0,1
55344.28125,-3825.553517,4,1,1,15,0,1
55349.44141,-2696.487405,4,1,1,15,0,1
55354.57813,-1864.331902,4,1,1,15,0,1
55359.79688,-1284.39443,4,1,1,15,0,1
55365.19922,-890.7745861,4,1,1,15,0,1
55370.87109,-625.4849105,4,1,1,15,0,1
55376.89063,-445.8789945,4,1,1,15,0,1
55383.33594,-322.9616688,4,1,1,15,0,1
55390.25391,-237.663154,4,1,1,15,0,1
55397.69531,-177.5684517,4,1,1,15,0,1
55405.69141,-134.5781066,4,1,1,15,0,1
55414.24609,-103.3624747,4,1,1,15,0,1
55423.36719,-80.37236112,4,1,1,15,0,1
55433.03125,-63.21211999,4,1,1,15,0,1
55443.19531,-50.24185977,4,1,1,15,0,1
55453.80469,-40.32322772,4,1,1,15,0,1
55464.77344,-32.65518908,4,1,1,15,0,1
55476,-13.22751323,4,1,1,15,0,1
55494.326,-9890.350877,4,1,1,15,0,1
55663,-10000,4,1,1,15,0,1
55672.64063,-10000,4,1,1,15,0,1
55681.29297,-10000,4,1,1,15,0,1
55689.07031,-9896.781648,4,1,1,15,0,1
55696.10547,-9179.234076,4,1,1,15,0,1
55702.52344,-8102.263867,4,1,1,15,0,1
55708.44141,-6722.039945,4,1,1,15,0,1
55713.98828,-5219.012193,4,1,1,15,0,1
55719.28125,-3825.553517,4,1,1,15,0,1
55724.44141,-2696.487405,4,1,1,15,0,1
55729.57813,-1864.331902,4,1,1,15,0,1
55734.79688,-1284.39443,4,1,1,15,0,1
55740.19922,-890.7745861,4,1,1,15,0,1
55745.87109,-625.4849105,4,1,1,15,0,1
55751.89063,-445.8789945,4,1,1,15,0,1
55758.33594,-322.9616688,4,1,1,15,0,1
55765.25391,-237.663154,4,1,1,15,0,1
55772.69531,-177.5684517,4,1,1,15,0,1
55780.69141,-134.5781066,4,1,1,15,0,1
55789.24609,-103.3624747,4,1,1,15,0,1
55798.36719,-80.37236112,4,1,1,15,0,1
55808.03125,-63.21211999,4,1,1,15,0,1
55818.19531,-50.24185977,4,1,1,15,0,1
55828.80469,-40.32322772,4,1,1,15,0,1
55839.77344,-32.65518908,4,1,1,15,0,1
55851,-13.22751323,4,1,1,15,0,1
55869.326,-9890.350877,4,1,1,15,0,1
56038,-10000,4,1,1,15,0,1
56047.64063,-10000,4,1,1,15,0,1
56056.29297,-10000,4,1,1,15,0,1
56064.07031,-9896.781648,4,1,1,15,0,1
56071.10547,-9179.234076,4,1,1,15,0,1
56077.52344,-8102.263867,4,1,1,15,0,1
56083.44141,-6722.039945,4,1,1,15,0,1
56088.98828,-5219.012193,4,1,1,15,0,1
56094.28125,-3825.553517,4,1,1,15,0,1
56099.44141,-2696.487405,4,1,1,15,0,1
56104.57813,-1864.331902,4,1,1,15,0,1
56109.79688,-1284.39443,4,1,1,15,0,1
56115.19922,-890.7745861,4,1,1,15,0,1
56120.87109,-625.4849105,4,1,1,15,0,1
56126.89063,-445.8789945,4,1,1,15,0,1
56133.33594,-322.9616688,4,1,1,15,0,1
56140.25391,-237.663154,4,1,1,15,0,1
56147.69531,-177.5684517,4,1,1,15,0,1
56155.69141,-134.5781066,4,1,1,15,0,1
56164.24609,-103.3624747,4,1,1,15,0,1
56173.36719,-80.37236112,4,1,1,15,0,1
56183.03125,-63.21211999,4,1,1,15,0,1
56193.19531,-50.24185977,4,1,1,15,0,1
56203.80469,-40.32322772,4,1,1,15,0,1
56214.77344,-32.65518908,4,1,1,15,0,1
56226,-13.22751323,4,1,1,15,0,1
56230.508,-9890.350877,4,1,1,15,0,1
56272,-13.22751323,4,1,1,15,0,1
56276.606,-9890.350877,4,1,1,15,0,1
56319,-13.22751323,4,1,1,15,0,1
56323.606,-9890.350877,4,1,1,15,0,1
56366,-13.22751323,4,1,1,15,0,1
56370.606,-9890.350877,4,1,1,15,0,1
56413,-10000,4,1,1,15,0,1
56422.64063,-10000,4,1,1,15,0,1
56431.29297,-10000,4,1,1,15,0,1
56439.07031,-9896.781648,4,1,1,15,0,1
56446.10547,-9179.234076,4,1,1,15,0,1
56452.52344,-8102.263867,4,1,1,15,0,1
56458.44141,-6722.039945,4,1,1,15,0,1
56463.98828,-5219.012193,4,1,1,15,0,1
56469.28125,-3825.553517,4,1,1,15,0,1
56474.44141,-2696.487405,4,1,1,15,0,1
56479.57813,-1864.331902,4,1,1,15,0,1
56484.79688,-1284.39443,4,1,1,15,0,1
56490.19922,-890.7745861,4,1,1,15,0,1
56495.87109,-625.4849105,4,1,1,15,0,1
56501.89063,-445.8789945,4,1,1,15,0,1
56508.33594,-322.9616688,4,1,1,15,0,1
56515.25391,-237.663154,4,1,1,15,0,1
56522.69531,-177.5684517,4,1,1,15,0,1
56530.69141,-134.5781066,4,1,1,15,0,1
56539.24609,-103.3624747,4,1,1,15,0,1
56548.36719,-80.37236112,4,1,1,15,0,1
56558.03125,-63.21211999,4,1,1,15,0,1
56568.19531,-50.24185977,4,1,1,15,0,1
56578.80469,-40.32322772,4,1,1,15,0,1
56589.77344,-32.65518908,4,1,1,15,0,1
56601,-13.22751323,4,1,1,15,0,1
56619.326,-9890.350877,4,1,1,15,0,1
56788,-13.22751323,4,1,1,15,0,1
56792.606,-9890.350877,4,1,1,15,0,1
56835,-13.22751323,4,1,1,15,0,1
56839.606,-9890.350877,4,1,1,15,0,1
56882,-13.22751323,4,1,1,15,0,1
56886.606,-9890.350877,4,1,1,15,0,1
56929,-13.22751323,4,1,1,15,0,1
56933.606,-9890.350877,4,1,1,15,0,1
56976,-13.22751323,4,1,1,15,0,1
56980.508,-9890.350877,4,1,1,15,0,1
57022,-13.22751323,4,1,1,15,0,1
57026.606,-9890.350877,4,1,1,15,0,1
57069,-13.22751323,4,1,1,15,0,1
57073.606,-9890.350877,4,1,1,15,0,1
57116,-13.22751323,4,1,1,15,0,1
57120.606,-9890.350877,4,1,1,15,0,1
57163,-10000,4,1,1,15,0,1
57172.64063,-10000,4,1,1,15,0,1
57181.29297,-10000,4,1,1,15,0,1
57189.07031,-9896.781648,4,1,1,15,0,1
57196.10547,-9179.234076,4,1,1,15,0,1
57202.52344,-8102.263867,4,1,1,15,0,1
57208.44141,-6722.039945,4,1,1,15,0,1
57213.98828,-5219.012193,4,1,1,15,0,1
57219.28125,-3825.553517,4,1,1,15,0,1
57224.44141,-2696.487405,4,1,1,15,0,1
57229.57813,-1864.331902,4,1,1,15,0,1
57234.79688,-1284.39443,4,1,1,15,0,1
57240.19922,-890.7745861,4,1,1,15,0,1
57245.87109,-625.4849105,4,1,1,15,0,1
57251.89063,-445.8789945,4,1,1,15,0,1
57258.33594,-322.9616688,4,1,1,15,0,1
57265.25391,-237.663154,4,1,1,15,0,1
57272.69531,-177.5684517,4,1,1,15,0,1
57280.69141,-134.5781066,4,1,1,15,0,1
57289.24609,-103.3624747,4,1,1,15,0,1
57298.36719,-80.37236112,4,1,1,15,0,1
57308.03125,-63.21211999,4,1,1,15,0,1
57318.19531,-50.24185977,4,1,1,15,0,1
57328.80469,-40.32322772,4,1,1,15,0,1
57339.77344,-32.65518908,4,1,1,15,0,1
57351,-13.22751323,4,1,1,15,0,1
57369.326,-9890.350877,4,1,1,15,0,1
57538,-10000,4,1,1,15,0,1
57547.64063,-10000,4,1,1,15,0,1
57556.29297,-10000,4,1,1,15,0,1
57564.07031,-9896.781648,4,1,1,15,0,1
57571.10547,-9179.234076,4,1,1,15,0,1
57577.52344,-8102.263867,4,1,1,15,0,1
57583.44141,-6722.039945,4,1,1,15,0,1
57588.98828,-5219.012193,4,1,1,15,0,1
57594.28125,-3825.553517,4,1,1,15,0,1
57599.44141,-2696.487405,4,1,1,15,0,1
57604.57813,-1864.331902,4,1,1,15,0,1
57609.79688,-1284.39443,4,1,1,15,0,1
57615.19922,-890.7745861,4,1,1,15,0,1
57620.87109,-625.4849105,4,1,1,15,0,1
57626.89063,-445.8789945,4,1,1,15,0,1
57633.33594,-322.9616688,4,1,1,15,0,1
57640.25391,-237.663154,4,1,1,15,0,1
57647.69531,-177.5684517,4,1,1,15,0,1
57655.69141,-134.5781066,4,1,1,15,0,1
57664.24609,-103.3624747,4,1,1,15,0,1
57673.36719,-80.37236112,4,1,1,15,0,1
57683.03125,-63.21211999,4,1,1,15,0,1
57693.19531,-50.24185977,4,1,1,15,0,1
57703.80469,-40.32322772,4,1,1,15,0,1
57714.77344,-32.65518908,4,1,1,15,0,1
57726,-13.22751323,4,1,1,15,0,1
57730.508,-9890.350877,4,1,1,15,0,1
57772,-13.22751323,4,1,1,15,0,1
57776.606,-9890.350877,4,1,1,15,0,1
57819,-13.22751323,4,1,1,15,0,1
57823.606,-9890.350877,4,1,1,15,0,1
57866,-13.22751323,4,1,1,15,0,1
57870.606,-9890.350877,4,1,1,15,0,1
57913,-10000,4,1,1,15,0,1
57922.64063,-10000,4,1,1,15,0,1
57931.29297,-10000,4,1,1,15,0,1
57939.07031,-9896.781648,4,1,1,15,0,1
57946.10547,-9179.234076,4,1,1,15,0,1
57952.52344,-8102.263867,4,1,1,15,0,1
57958.44141,-6722.039945,4,1,1,15,0,1
57963.98828,-5219.012193,4,1,1,15,0,1
57969.28125,-3825.553517,4,1,1,15,0,1
57974.44141,-2696.487405,4,1,1,15,0,1
57979.57813,-1864.331902,4,1,1,15,0,1
57984.79688,-1284.39443,4,1,1,15,0,1
57990.19922,-890.7745861,4,1,1,15,0,1
57995.87109,-625.4849105,4,1,1,15,0,1
58001.89063,-445.8789945,4,1,1,15,0,1
58008.33594,-322.9616688,4,1,1,15,0,1
58015.25391,-237.663154,4,1,1,15,0,1
58022.69531,-177.5684517,4,1,1,15,0,1
58030.69141,-134.5781066,4,1,1,15,0,1
58039.24609,-103.3624747,4,1,1,15,0,1
58048.36719,-80.37236112,4,1,1,15,0,1
58058.03125,-63.21211999,4,1,1,15,0,1
58068.19531,-50.24185977,4,1,1,15,0,1
58078.80469,-40.32322772,4,1,1,15,0,1
58089.77344,-32.65518908,4,1,1,15,0,1
58101,-13.22751323,4,1,1,15,0,1
58110.114,-9890.350877,4,1,1,15,0,1
58194,-13.22751323,4,1,1,15,0,1
58203.212,-9890.350877,4,1,1,15,0,1
58288,-10000,4,1,1,15,0,1
58297.64063,-10000,4,1,1,15,0,1
58306.424,-9890.350877,4,1,1,15,0,1
58314.07031,-9896.781648,4,1,1,15,0,1
58321.10547,-9179.234076,4,1,1,15,0,1
58327.52344,-8102.263867,4,1,1,15,0,1
58333.44141,-6722.039945,4,1,1,15,0,1
58338.98828,-5219.012193,4,1,1,15,0,1
58344.28125,-3825.553517,4,1,1,15,0,1
58349.44141,-2696.487405,4,1,1,15,0,1
58354.57813,-1864.331902,4,1,1,15,0,1
58359.79688,-1284.39443,4,1,1,15,0,1
58365.19922,-890.7745861,4,1,1,15,0,1
58370.87109,-625.4849105,4,1,1,15,0,1
58376.89063,-445.8789945,4,1,1,15,0,1
58383.33594,-322.9616688,4,1,1,15,0,1
58390.25391,-237.663154,4,1,1,15,0,1
58397.69531,-177.5684517,4,1,1,15,0,1
58405.69141,-134.5781066,4,1,1,15,0,1
58414.24609,-103.3624747,4,1,1,15,0,1
58423.36719,-80.37236112,4,1,1,15,0,1
58433.03125,-63.21211999,4,1,1,15,0,1
58443.19531,-50.24185977,4,1,1,15,0,1
58453.80469,-40.32322772,4,1,1,15,0,1
58464.77344,-32.65518908,4,1,1,15,0,1
58476,-13.22751323,4,1,1,15,0,1
58492.45675,-9890.350877,4,1,1,15,0,1
58663,-133.333333333333,4,1,1,15,0,1
58851,-33.33333333,4,1,1,15,0,1
58855.1875,-36.31381415,4,1,1,15,0,1
58859.42969,-39.68844651,4,1,1,15,0,1
58863.76563,-43.52829253,4,1,1,15,0,1
58868.21484,-47.92098113,4,1,1,15,0,1
58872.80859,-52.97557414,4,1,1,15,0,1
58877.57813,-58.82912164,4,1,1,15,0,1
58882.54297,-65.65566771,4,1,1,15,0,1
58887.73828,-73.67887404,4,1,1,15,0,1
58893.1875,-83.18985578,4,1,1,15,0,1
58898.92188,-94.57303112,4,1,1,15,0,1
58904.96875,-108.3441276,4,1,1,15,0,1
58911.35547,-125.2075895,4,1,1,15,0,1
58918.10938,-146.1452498,4,1,1,15,0,1
58925.25781,-172.5573833,4,1,1,15,0,1
58932.82813,-206.4945942,4,1,1,15,0,1
58940.85156,-251.053064,4,1,1,15,0,1
58949.35547,-311.0786095,4,1,1,15,0,1
58958.36719,-394.4850399,4,1,1,15,0,1
58967.91406,-514.875552,4,1,1,15,0,1
58978.02344,-697.1410086,4,1,1,15,0,1
58988.72656,-990.4928785,4,1,1,15,0,1
59000.04688,-1502.108752,4,1,1,15,0,1
59012.01172,-2494.786,4,1,1,15,0,1
59024.65625,-4696.537811,4,1,1,15,0,1
59038,-133.333333333333,4,1,1,15,0,1
59226,-33.33333333,4,1,1,15,0,1
59230.1875,-36.31381415,4,1,1,15,0,1
59234.42969,-39.68844651,4,1,1,15,0,1
59238.76563,-43.52829253,4,1,1,15,0,1
59243.21484,-47.92098113,4,1,1,15,0,1
59247.80859,-52.97557414,4,1,1,15,0,1
59252.57813,-58.82912164,4,1,1,15,0,1
59257.54297,-65.65566771,4,1,1,15,0,1
59262.73828,-73.67887404,4,1,1,15,0,1
59268.1875,-83.18985578,4,1,1,15,0,1
59273.92188,-94.57303112,4,1,1,15,0,1
59279.96875,-108.3441276,4,1,1,15,0,1
59286.35547,-125.2075895,4,1,1,15,0,1
59293.10938,-146.1452498,4,1,1,15,0,1
59300.25781,-172.5573833,4,1,1,15,0,1
59307.82813,-206.4945942,4,1,1,15,0,1
59315.85156,-251.053064,4,1,1,15,0,1
59324.35547,-311.0786095,4,1,1,15,0,1
59333.36719,-394.4850399,4,1,1,15,0,1
59342.91406,-514.875552,4,1,1,15,0,1
59353.02344,-697.1410086,4,1,1,15,0,1
59363.72656,-990.4928785,4,1,1,15,0,1
59375.04688,-1502.108752,4,1,1,15,0,1
59387.01172,-2494.786,4,1,1,15,0,1
59399.65625,-4696.537811,4,1,1,15,0,1
59413,-33.33333333,4,1,1,15,0,1
59417.1875,-36.31381415,4,1,1,15,0,1
59421.42969,-39.68844651,4,1,1,15,0,1
59425.76563,-43.52829253,4,1,1,15,0,1
59430.21484,-47.92098113,4,1,1,15,0,1
59434.80859,-52.97557414,4,1,1,15,0,1
59439.57813,-58.82912164,4,1,1,15,0,1
59444.54297,-65.65566771,4,1,1,15,0,1
59449.73828,-73.67887404,4,1,1,15,0,1
59455.1875,-83.18985578,4,1,1,15,0,1
59460.92188,-94.57303112,4,1,1,15,0,1
59466.96875,-108.3441276,4,1,1,15,0,1
59473.35547,-125.2075895,4,1,1,15,0,1
59480.10938,-146.1452498,4,1,1,15,0,1
59487.25781,-172.5573833,4,1,1,15,0,1
59494.82813,-206.4945942,4,1,1,15,0,1
59502.85156,-251.053064,4,1,1,15,0,1
59511.35547,-311.0786095,4,1,1,15,0,1
59520.36719,-394.4850399,4,1,1,15,0,1
59529.91406,-514.875552,4,1,1,15,0,1
59540.02344,-697.1410086,4,1,1,15,0,1
59550.72656,-990.4928785,4,1,1,15,0,1
59562.04688,-1502.108752,4,1,1,15,0,1
59574.01172,-2494.786,4,1,1,15,0,1
59586.65625,-4696.537811,4,1,1,15,0,1
59601,-33.33333333,4,1,1,15,0,1
59605.1875,-36.31381415,4,1,1,15,0,1
59609.42969,-39.68844651,4,1,1,15,0,1
59613.76563,-43.52829253,4,1,1,15,0,1
59618.21484,-47.92098113,4,1,1,15,0,1
59622.80859,-52.97557414,4,1,1,15,0,1
59627.57813,-58.82912164,4,1,1,15,0,1
59632.54297,-65.65566771,4,1,1,15,0,1
59637.73828,-73.67887404,4,1,1,15,0,1
59643.1875,-83.18985578,4,1,1,15,0,1
59648.92188,-94.57303112,4,1,1,15,0,1
59654.96875,-108.3441276,4,1,1,15,0,1
59661.35547,-125.2075895,4,1,1,15,0,1
59668.10938,-146.1452498,4,1,1,15,0,1
59675.25781,-172.5573833,4,1,1,15,0,1
59682.82813,-206.4945942,4,1,1,15,0,1
59690.85156,-251.053064,4,1,1,15,0,1
59699.35547,-311.0786095,4,1,1,15,0,1
59708.36719,-394.4850399,4,1,1,15,0,1
59717.91406,-514.875552,4,1,1,15,0,1
59728.02344,-697.1410086,4,1,1,15,0,1
59738.72656,-990.4928785,4,1,1,15,0,1
59750.04688,-1502.108752,4,1,1,15,0,1
59762.01172,-2494.786,4,1,1,15,0,1
59774.65625,-4696.537811,4,1,1,15,0,1
59788,-133.3333333,4,1,1,15,0,1
59976,-33.33333333,4,1,1,15,0,1
59980.1875,-36.31381415,4,1,1,15,0,1
59984.42969,-39.68844651,4,1,1,15,0,1
59988.76563,-43.52829253,4,1,1,15,0,1
59993.21484,-47.92098113,4,1,1,15,0,1
59997.80859,-52.97557414,4,1,1,15,0,1
60002.57813,-58.82912164,4,1,1,15,0,1
60007.54297,-65.65566771,4,1,1,15,0,1
60012.73828,-73.67887404,4,1,1,15,0,1
60018.1875,-83.18985578,4,1,1,15,0,1
60023.92188,-94.57303112,4,1,1,15,0,1
60029.96875,-108.3441276,4,1,1,15,0,1
60036.35547,-125.2075895,4,1,1,15,0,1
60043.10938,-146.1452498,4,1,1,15,0,1
60050.25781,-172.5573833,4,1,1,15,0,1
60057.82813,-206.4945942,4,1,1,15,0,1
60065.85156,-251.053064,4,1,1,15,0,1
60074.35547,-311.0786095,4,1,1,15,0,1
60083.36719,-394.4850399,4,1,1,15,0,1
60092.91406,-514.875552,4,1,1,15,0,1
60103.02344,-697.1410086,4,1,1,15,0,1
60113.72656,-990.4928785,4,1,1,15,0,1
60125.04688,-1502.108752,4,1,1,15,0,1
60137.01172,-2494.786,4,1,1,15,0,1
60149.65625,-4696.537811,4,1,1,15,0,1
60163,-133.3333333,4,1,1,15,0,1
60351,-33.33333333,4,1,1,15,0,1
60355.1875,-36.31381415,4,1,1,15,0,1
60359.42969,-39.68844651,4,1,1,15,0,1
60363.76563,-43.52829253,4,1,1,15,0,1
60368.21484,-47.92098113,4,1,1,15,0,1
60372.80859,-52.97557414,4,1,1,15,0,1
60377.57813,-58.82912164,4,1,1,15,0,1
60382.54297,-65.65566771,4,1,1,15,0,1
60387.73828,-73.67887404,4,1,1,15,0,1
60393.1875,-83.18985578,4,1,1,15,0,1
60398.92188,-94.57303112,4,1,1,15,0,1
60404.96875,-108.3441276,4,1,1,15,0,1
60411.35547,-125.2075895,4,1,1,15,0,1
60418.10938,-146.1452498,4,1,1,15,0,1
60425.25781,-172.5573833,4,1,1,15,0,1
60432.82813,-206.4945942,4,1,1,15,0,1
60440.85156,-251.053064,4,1,1,15,0,1
60449.35547,-311.0786095,4,1,1,15,0,1
60458.36719,-394.4850399,4,1,1,15,0,1
60467.91406,-514.875552,4,1,1,15,0,1
60478.02344,-697.1410086,4,1,1,15,0,1
60488.72656,-990.4928785,4,1,1,15,0,1
60500.04688,-1502.108752,4,1,1,15,0,1
60512.01172,-2494.786,4,1,1,15,0,1
60524.65625,-4696.537811,4,1,1,15,0,1
60538,-133.3333333,4,1,1,15,0,1
60726,-33.33333333,4,1,1,15,0,1
60730.1875,-36.31381415,4,1,1,15,0,1
60734.42969,-39.68844651,4,1,1,15,0,1
60738.76563,-43.52829253,4,1,1,15,0,1
60743.21484,-47.92098113,4,1,1,15,0,1
60747.80859,-52.97557414,4,1,1,15,0,1
60752.57813,-58.82912164,4,1,1,15,0,1
60757.54297,-65.65566771,4,1,1,15,0,1
60762.73828,-73.67887404,4,1,1,15,0,1
60768.1875,-83.18985578,4,1,1,15,0,1
60773.92188,-94.57303112,4,1,1,15,0,1
60779.96875,-108.3441276,4,1,1,15,0,1
60786.35547,-125.2075895,4,1,1,15,0,1
60793.10938,-146.1452498,4,1,1,15,0,1
60800.25781,-172.5573833,4,1,1,15,0,1
60807.82813,-206.4945942,4,1,1,15,0,1
60815.85156,-251.053064,4,1,1,15,0,1
60824.35547,-311.0786095,4,1,1,15,0,1
60833.36719,-394.4850399,4,1,1,15,0,1
60842.91406,-514.875552,4,1,1,15,0,1
60853.02344,-697.1410086,4,1,1,15,0,1
60863.72656,-990.4928785,4,1,1,15,0,1
60875.04688,-1502.108752,4,1,1,15,0,1
60887.01172,-2494.786,4,1,1,15,0,1
60899.65625,-4696.537811,4,1,1,15,0,1
60913,-133.3333333,4,1,1,15,0,1
61101,-10000,4,1,1,15,0,1
61120.23438,-10000,4,1,1,15,0,1
61137.48828,-10000,4,1,1,15,0,1
61153.00781,-9896.781648,4,1,1,15,0,1
61167.03906,-9179.234076,4,1,1,15,0,1
61179.83594,-8102.263867,4,1,1,15,0,1
61191.64453,-6722.039945,4,1,1,15,0,1
61202.70703,-5219.012193,4,1,1,15,0,1
61213.26953,-3825.553517,4,1,1,15,0,1
61223.55859,-2696.487405,4,1,1,15,0,1
61233.80469,-1864.331902,4,1,1,15,0,1
61244.21484,-1284.39443,4,1,1,15,0,1
61254.98828,-890.7745861,4,1,1,15,0,1
61266.30078,-625.4849105,4,1,1,15,0,1
61278.3125,-445.8789945,4,1,1,15,0,1
61291.16016,-322.9616688,4,1,1,15,0,1
61304.96484,-237.663154,4,1,1,15,0,1
61319.80859,-177.5684517,4,1,1,15,0,1
61335.75,-134.5781066,4,1,1,15,0,1
61352.82031,-103.3624747,4,1,1,15,0,1
61371.01563,-80.37236112,4,1,1,15,0,1
61390.28906,-63.21211999,4,1,1,15,0,1
61410.56641,-50.24185977,4,1,1,15,0,1
61431.72656,-40.32322772,4,1,1,15,0,1
61453.60547,-32.65518908,4,1,1,15,0,1
61476,-33.33333333,4,1,1,15,0,1
61480.1875,-36.31381415,4,1,1,15,0,1
61484.42969,-39.68844651,4,1,1,15,0,1
61488.76563,-43.52829253,4,1,1,15,0,1
61493.21484,-47.92098113,4,1,1,15,0,1
61497.80859,-52.97557414,4,1,1,15,0,1
61502.57813,-58.82912164,4,1,1,15,0,1
61507.54297,-65.65566771,4,1,1,15,0,1
61512.73828,-73.67887404,4,1,1,15,0,1
61518.1875,-83.18985578,4,1,1,15,0,1
61523.92188,-94.57303112,4,1,1,15,0,1
61529.96875,-108.3441276,4,1,1,15,0,1
61536.35547,-125.2075895,4,1,1,15,0,1
61543.10938,-146.1452498,4,1,1,15,0,1
61550.25781,-172.5573833,4,1,1,15,0,1
61557.82813,-206.4945942,4,1,1,15,0,1
61565.85156,-251.053064,4,1,1,15,0,1
61574.35547,-311.0786095,4,1,1,15,0,1
61583.36719,-394.4850399,4,1,1,15,0,1
61592.91406,-514.875552,4,1,1,15,0,1
61603.02344,-697.1410086,4,1,1,15,0,1
61613.72656,-990.4928785,4,1,1,15,0,1
61625.04688,-1502.108752,4,1,1,15,0,1
61637.01172,-2494.786,4,1,1,15,0,1
61649.65625,-4696.537811,4,1,1,15,0,1
61663,-40.16064257,4,1,1,15,0,1
61719.024,-8796.992481,4,1,1,15,0,1
61851,-33.33333333,4,1,1,15,0,1
61855.1875,-36.31381415,4,1,1,15,0,1
61859.42969,-39.68844651,4,1,1,15,0,1
61863.76563,-43.52829253,4,1,1,15,0,1
61868.21484,-47.92098113,4,1,1,15,0,1
61872.80859,-52.97557414,4,1,1,15,0,1
61877.57813,-58.82912164,4,1,1,15,0,1
61882.54297,-65.65566771,4,1,1,15,0,1
61887.73828,-73.67887404,4,1,1,15,0,1
61893.1875,-83.18985578,4,1,1,15,0,1
61898.92188,-94.57303112,4,1,1,15,0,1
61904.96875,-108.3441276,4,1,1,15,0,1
61911.35547,-125.2075895,4,1,1,15,0,1
61918.10938,-146.1452498,4,1,1,15,0,1
61925.25781,-172.5573833,4,1,1,15,0,1
61932.82813,-206.4945942,4,1,1,15,0,1
61940.85156,-251.053064,4,1,1,15,0,1
61949.35547,-311.0786095,4,1,1,15,0,1
61958.36719,-394.4850399,4,1,1,15,0,1
61967.91406,-514.875552,4,1,1,15,0,1
61978.02344,-697.1410086,4,1,1,15,0,1
61988.72656,-990.4928785,4,1,1,15,0,1
62000.04688,-1502.108752,4,1,1,15,0,1
62012.01172,-2494.786,4,1,1,15,0,1
62024.65625,-4696.537811,4,1,1,15,0,1
62038,-33.33333333,4,1,1,15,0,1
62042.1875,-36.31381415,4,1,1,15,0,1
62046.42969,-39.68844651,4,1,1,15,0,1
62050.76563,-43.52829253,4,1,1,15,0,1
62055.21484,-47.92098113,4,1,1,15,0,1
62059.80859,-52.97557414,4,1,1,15,0,1
62064.57813,-58.82912164,4,1,1,15,0,1
62069.54297,-65.65566771,4,1,1,15,0,1
62074.73828,-73.67887404,4,1,1,15,0,1
62080.1875,-83.18985578,4,1,1,15,0,1
62085.92188,-94.57303112,4,1,1,15,0,1
62091.96875,-108.3441276,4,1,1,15,0,1
62098.35547,-125.2075895,4,1,1,15,0,1
62105.10938,-146.1452498,4,1,1,15,0,1
62112.25781,-172.5573833,4,1,1,15,0,1
62119.82813,-206.4945942,4,1,1,15,0,1
62127.85156,-251.053064,4,1,1,15,0,1
62136.35547,-311.0786095,4,1,1,15,0,1
62145.36719,-394.4850399,4,1,1,15,0,1
62154.91406,-514.875552,4,1,1,15,0,1
62165.02344,-697.1410086,4,1,1,15,0,1
62175.72656,-990.4928785,4,1,1,15,0,1
62187.04688,-1502.108752,4,1,1,15,0,1
62199.01172,-2494.786,4,1,1,15,0,1
62211.65625,-4696.537811,4,1,1,15,0,1
62226,-33.33333333,4,1,1,15,0,1
62230.1875,-36.31381415,4,1,1,15,0,1
62234.42969,-39.68844651,4,1,1,15,0,1
62238.76563,-43.52829253,4,1,1,15,0,1
62243.21484,-47.92098113,4,1,1,15,0,1
62247.80859,-52.97557414,4,1,1,15,0,1
62252.57813,-58.82912164,4,1,1,15,0,1
62257.54297,-65.65566771,4,1,1,15,0,1
62262.73828,-73.67887404,4,1,1,15,0,1
62268.1875,-83.18985578,4,1,1,15,0,1
62273.92188,-94.57303112,4,1,1,15,0,1
62279.96875,-108.3441276,4,1,1,15,0,1
62286.35547,-125.2075895,4,1,1,15,0,1
62293.10938,-146.1452498,4,1,1,15,0,1
62300.25781,-172.5573833,4,1,1,15,0,1
62307.82813,-206.4945942,4,1,1,15,0,1
62315.85156,-251.053064,4,1,1,15,0,1
62324.35547,-311.0786095,4,1,1,15,0,1
62333.36719,-394.4850399,4,1,1,15,0,1
62342.91406,-514.875552,4,1,1,15,0,1
62353.02344,-697.1410086,4,1,1,15,0,1
62363.72656,-990.4928785,4,1,1,15,0,1
62375.04688,-1502.108752,4,1,1,15,0,1
62387.01172,-2494.786,4,1,1,15,0,1
62399.65625,-4696.537811,4,1,1,15,0,1
62413,-40.16064257,4,1,1,15,0,1
62469.024,-8796.992481,4,1,1,15,0,1
62601,-33.33333333,4,1,1,15,0,1
62605.1875,-36.31381415,4,1,1,15,0,1
62609.42969,-39.68844651,4,1,1,15,0,1
62613.76563,-43.52829253,4,1,1,15,0,1
62618.21484,-47.92098113,4,1,1,15,0,1
62622.80859,-52.97557414,4,1,1,15,0,1
62627.57813,-58.82912164,4,1,1,15,0,1
62632.54297,-65.65566771,4,1,1,15,0,1
62637.73828,-73.67887404,4,1,1,15,0,1
62643.1875,-83.18985578,4,1,1,15,0,1
62648.92188,-94.57303112,4,1,1,15,0,1
62654.96875,-108.3441276,4,1,1,15,0,1
62661.35547,-125.2075895,4,1,1,15,0,1
62668.10938,-146.1452498,4,1,1,15,0,1
62675.25781,-172.5573833,4,1,1,15,0,1
62682.82813,-206.4945942,4,1,1,15,0,1
62690.85156,-251.053064,4,1,1,15,0,1
62699.35547,-311.0786095,4,1,1,15,0,1
62708.36719,-394.4850399,4,1,1,15,0,1
62717.91406,-514.875552,4,1,1,15,0,1
62728.02344,-697.1410086,4,1,1,15,0,1
62738.72656,-990.4928785,4,1,1,15,0,1
62750.04688,-1502.108752,4,1,1,15,0,1
62762.01172,-2494.786,4,1,1,15,0,1
62774.65625,-4696.537811,4,1,1,15,0,1
62788,-13.22751323,4,1,1,15,0,1
62797.212,-9890.350877,4,1,1,15,0,1
62882,-13.22751323,4,1,1,15,0,1
62891.212,-9890.350877,4,1,1,15,0,1
62976,-20,4,1,1,15,0,1
63022,-10000,4,1,1,15,0,1
63038.875,-10000,4,1,1,15,0,1
63054.01172,-10000,4,1,1,15,0,1
63067.62891,-9896.781648,4,1,1,15,0,1
63079.9375,-9179.234076,4,1,1,15,0,1
63091.16406,-8102.263867,4,1,1,15,0,1
63101.52344,-6722.039945,4,1,1,15,0,1
63111.23047,-5219.012193,4,1,1,15,0,1
63120.49609,-3825.553517,4,1,1,15,0,1
63129.52344,-2696.487405,4,1,1,15,0,1
63138.51563,-1864.331902,4,1,1,15,0,1
63147.64844,-1284.39443,4,1,1,15,0,1
63157.09766,-890.7745861,4,1,1,15,0,1
63167.02344,-625.4849105,4,1,1,15,0,1
63177.5625,-445.8789945,4,1,1,15,0,1
63188.83594,-322.9616688,4,1,1,15,0,1
63200.94531,-237.663154,4,1,1,15,0,1
63213.96875,-177.5684517,4,1,1,15,0,1
63227.95703,-134.5781066,4,1,1,15,0,1
63242.93359,-103.3624747,4,1,1,15,0,1
63258.89453,-80.37236112,4,1,1,15,0,1
63275.80469,-63.21211999,4,1,1,15,0,1
63293.59375,-50.24185977,4,1,1,15,0,1
63312.15625,-40.32322772,4,1,1,15,0,1
63331.35547,-32.65518908,4,1,1,15,0,1
63351,-25,4,1,1,15,0,1
63397,-10000,4,1,1,15,0,1
63413.875,-10000,4,1,1,15,0,1
63429.01172,-10000,4,1,1,15,0,1
63442.62891,-9896.781648,4,1,1,15,0,1
63454.9375,-9179.234076,4,1,1,15,0,1
63466.16406,-8102.263867,4,1,1,15,0,1
63476.52344,-6722.039945,4,1,1,15,0,1
63486.23047,-5219.012193,4,1,1,15,0,1
63495.49609,-3825.553517,4,1,1,15,0,1
63504.52344,-2696.487405,4,1,1,15,0,1
63513.51563,-1864.331902,4,1,1,15,0,1
63522.64844,-1284.39443,4,1,1,15,0,1
63532.09766,-890.7745861,4,1,1,15,0,1
63542.02344,-625.4849105,4,1,1,15,0,1
63552.5625,-445.8789945,4,1,1,15,0,1
63563.83594,-322.9616688,4,1,1,15,0,1
63575.94531,-237.663154,4,1,1,15,0,1
63588.96875,-177.5684517,4,1,1,15,0,1
63602.95703,-134.5781066,4,1,1,15,0,1
63617.93359,-103.3624747,4,1,1,15,0,1
63633.89453,-80.37236112,4,1,1,15,0,1
63650.80469,-63.21211999,4,1,1,15,0,1
63668.59375,-50.24185977,4,1,1,15,0,1
63687.15625,-40.32322772,4,1,1,15,0,1
63706.35547,-32.65518908,4,1,1,15,0,1
63726,-40,4,1,1,15,0,1
63772,-133.333333333333,4,1,1,15,0,1
63913,-13.22751323,4,1,1,15,0,1
63922.212,-9890.350877,4,1,1,15,0,1
64007,-13.22751323,4,1,1,15,0,1
64016.212,-9890.350877,4,1,1,15,0,1
64101,-13.22751323,4,1,1,15,0,1
64119.326,-9890.350877,4,1,1,15,0,1
64288,-33.33333333,4,1,1,15,0,1
64292.20703,-36.31381415,4,1,1,15,0,1
64296.47656,-39.68844651,4,1,1,15,0,1
64300.83594,-43.52829253,4,1,1,15,0,1
64305.30859,-47.92098113,4,1,1,15,0,1
64309.92969,-52.97557414,4,1,1,15,0,1
64314.71875,-58.82912164,4,1,1,15,0,1
64319.71484,-65.65566771,4,1,1,15,0,1
64324.93359,-73.67887404,4,1,1,15,0,1
64330.41406,-83.18985578,4,1,1,15,0,1
64336.17969,-94.57303112,4,1,1,15,0,1
64342.25781,-108.3441276,4,1,1,15,0,1
64348.67969,-125.2075895,4,1,1,15,0,1
64355.46875,-146.1452498,4,1,1,15,0,1
64362.65625,-172.5573833,4,1,1,15,0,1
64370.26953,-206.4945942,4,1,1,15,0,1
64378.33594,-251.053064,4,1,1,15,0,1
64386.88281,-311.0786095,4,1,1,15,0,1
64395.94141,-394.4850399,4,1,1,15,0,1
64405.53906,-514.875552,4,1,1,15,0,1
64415.70313,-697.1410086,4,1,1,15,0,1
64426.46094,-990.4928785,4,1,1,15,0,1
64437.84375,-1502.108752,4,1,1,15,0,1
64449.875,-2494.786,4,1,1,15,0,1
64462.58203,-4696.537811,4,1,1,15,0,1
64476,-10000,4,1,1,15,0,1
64516.66406,-1642.764496,4,1,1,15,0,1
64551.29688,-1076.127211,4,1,1,15,0,1
64580.75781,-897.2148101,4,1,1,15,0,1
64605.82813,-824.0388139,4,1,1,15,0,1
64627.21484,-786.7397812,4,1,1,15,0,1
64645.54688,-752.893703,4,1,1,15,0,1
64661.38281,-703.0086788,4,1,1,15,0,1
64675.21484,-629.655306,4,1,1,15,0,1
64687.47266,-538.4817046,4,1,1,15,0,1
64698.51953,-442.6954574,4,1,1,15,0,1
64708.66797,-354.3485336,4,1,1,15,0,1
64718.17969,-279.7436336,4,1,1,15,0,1
64727.27344,-220.0042631,4,1,1,15,0,1
64736.12109,-173.4807523,4,1,1,15,0,1
64744.87109,-137.6524654,4,1,1,15,0,1
64753.64453,-110.0882867,4,1,1,15,0,1
64762.54297,-88.77883238,4,1,1,15,0,1
64771.65234,-72.17341081,4,1,1,15,0,1
64781.06641,-59.11237796,4,1,1,15,0,1
64790.88281,-48.73943779,4,1,1,15,0,1
64801.20703,-40.4236952,4,1,1,15,0,1
64812.18359,-33.69861083,4,1,1,15,0,1
64823.98438,-28.21667843,4,1,1,15,0,1
64836.83203,-23.71664318,4,1,1,15,0,1
64851,-10000,4,1,1,15,0,1
64891.66406,-1642.764496,4,1,1,15,0,1
64926.29688,-1076.127211,4,1,1,15,0,1
64955.75781,-897.2148101,4,1,1,15,0,1
64980.82813,-824.0388139,4,1,1,15,0,1
65002.21484,-786.7397812,4,1,1,15,0,1
65020.54688,-752.893703,4,1,1,15,0,1
65036.38281,-703.0086788,4,1,1,15,0,1
65050.21484,-629.655306,4,1,1,15,0,1
65062.47266,-538.4817046,4,1,1,15,0,1
65073.51953,-442.6954574,4,1,1,15,0,1
65083.66797,-354.3485336,4,1,1,15,0,1
65093.17969,-279.7436336,4,1,1,15,0,1
65102.27344,-220.0042631,4,1,1,15,0,1
65111.12109,-173.4807523,4,1,1,15,0,1
65119.87109,-137.6524654,4,1,1,15,0,1
65128.64453,-110.0882867,4,1,1,15,0,1
65137.54297,-88.77883238,4,1,1,15,0,1
65146.65234,-72.17341081,4,1,1,15,0,1
65156.06641,-59.11237796,4,1,1,15,0,1
65165.88281,-48.73943779,4,1,1,15,0,1
65176.20703,-40.4236952,4,1,1,15,0,1
65187.18359,-33.69861083,4,1,1,15,0,1
65198.98438,-28.21667843,4,1,1,15,0,1
65211.83203,-23.71664318,4,1,1,15,0,1
65226,-14.20454545,4,1,1,15,0,1
65244.326,-1501.331558,4,1,1,15,0,1
65413,-10000,4,1,1,15,0,1
65581.824,-13.76481067,4,1,1,15,0,1
65601,-10000,4,1,1,15,0,1
65641.66406,-1642.764496,4,1,1,15,0,1
65676.29688,-1076.127211,4,1,1,15,0,1
65705.75781,-897.2148101,4,1,1,15,0,1
65730.82813,-824.0388139,4,1,1,15,0,1
65752.21484,-786.7397812,4,1,1,15,0,1
65770.54688,-752.893703,4,1,1,15,0,1
65786.38281,-703.0086788,4,1,1,15,0,1
65800.21484,-629.655306,4,1,1,15,0,1
65812.47266,-538.4817046,4,1,1,15,0,1
65823.51953,-442.6954574,4,1,1,15,0,1
65833.66797,-354.3485336,4,1,1,15,0,1
65843.17969,-279.7436336,4,1,1,15,0,1
65852.27344,-220.0042631,4,1,1,15,0,1
65861.12109,-173.4807523,4,1,1,15,0,1
65869.87109,-137.6524654,4,1,1,15,0,1
65878.64453,-110.0882867,4,1,1,15,0,1
65887.54297,-88.77883238,4,1,1,15,0,1
65896.65234,-72.17341081,4,1,1,15,0,1
65906.06641,-59.11237796,4,1,1,15,0,1
65915.88281,-48.73943779,4,1,1,15,0,1
65926.20703,-40.4236952,4,1,1,15,0,1
65937.18359,-33.69861083,4,1,1,15,0,1
65948.98438,-28.21667843,4,1,1,15,0,1
65961.83203,-23.71664318,4,1,1,15,0,1
65976,-10000,4,1,1,15,0,1
66016.66406,-1642.764496,4,1,1,15,0,1
66051.29688,-1076.127211,4,1,1,15,0,1
66080.75781,-897.2148101,4,1,1,15,0,1
66105.82813,-824.0388139,4,1,1,15,0,1
66127.21484,-786.7397812,4,1,1,15,0,1
66145.54688,-752.893703,4,1,1,15,0,1
66161.38281,-703.0086788,4,1,1,15,0,1
66175.21484,-629.655306,4,1,1,15,0,1
66187.47266,-538.4817046,4,1,1,15,0,1
66198.51953,-442.6954574,4,1,1,15,0,1
66208.66797,-354.3485336,4,1,1,15,0,1
66218.17969,-279.7436336,4,1,1,15,0,1
66227.27344,-220.0042631,4,1,1,15,0,1
66236.12109,-173.4807523,4,1,1,15,0,1
66244.87109,-137.6524654,4,1,1,15,0,1
66253.64453,-110.0882867,4,1,1,15,0,1
66262.54297,-88.77883238,4,1,1,15,0,1
66271.65234,-72.17341081,4,1,1,15,0,1
66281.06641,-59.11237796,4,1,1,15,0,1
66290.88281,-48.73943779,4,1,1,15,0,1
66301.20703,-40.4236952,4,1,1,15,0,1
66312.18359,-33.69861083,4,1,1,15,0,1
66323.98438,-28.21667843,4,1,1,15,0,1
66336.83203,-23.71664318,4,1,1,15,0,1
66351,-10000,4,1,1,15,0,1
66391.66406,-1642.764496,4,1,1,15,0,1
66426.29688,-1076.127211,4,1,1,15,0,1
66455.75781,-897.2148101,4,1,1,15,0,1
66480.82813,-824.0388139,4,1,1,15,0,1
66502.21484,-786.7397812,4,1,1,15,0,1
66520.54688,-752.893703,4,1,1,15,0,1
66536.38281,-703.0086788,4,1,1,15,0,1
66550.21484,-629.655306,4,1,1,15,0,1
66562.47266,-538.4817046,4,1,1,15,0,1
66573.51953,-442.6954574,4,1,1,15,0,1
66583.66797,-354.3485336,4,1,1,15,0,1
66593.17969,-279.7436336,4,1,1,15,0,1
66602.27344,-220.0042631,4,1,1,15,0,1
66611.12109,-173.4807523,4,1,1,15,0,1
66619.87109,-137.6524654,4,1,1,15,0,1
66628.64453,-110.0882867,4,1,1,15,0,1
66637.54297,-88.77883238,4,1,1,15,0,1
66646.65234,-72.17341081,4,1,1,15,0,1
66656.06641,-59.11237796,4,1,1,15,0,1
66665.88281,-48.73943779,4,1,1,15,0,1
66676.20703,-40.4236952,4,1,1,15,0,1
66687.18359,-33.69861083,4,1,1,15,0,1
66698.98438,-28.21667843,4,1,1,15,0,1
66711.83203,-23.71664318,4,1,1,15,0,1
66726,-10000,4,1,1,15,0,1
66766.66406,-1642.764496,4,1,1,15,0,1
66801.29688,-1076.127211,4,1,1,15,0,1
66830.75781,-897.2148101,4,1,1,15,0,1
66855.82813,-824.0388139,4,1,1,15,0,1
66877.21484,-786.7397812,4,1,1,15,0,1
66895.54688,-752.893703,4,1,1,15,0,1
66911.38281,-703.0086788,4,1,1,15,0,1
66925.21484,-629.655306,4,1,1,15,0,1
66937.47266,-538.4817046,4,1,1,15,0,1
66948.51953,-442.6954574,4,1,1,15,0,1
66958.66797,-354.3485336,4,1,1,15,0,1
66968.17969,-279.7436336,4,1,1,15,0,1
66977.27344,-220.0042631,4,1,1,15,0,1
66986.12109,-173.4807523,4,1,1,15,0,1
66994.87109,-137.6524654,4,1,1,15,0,1
67003.64453,-110.0882867,4,1,1,15,0,1
67012.54297,-88.77883238,4,1,1,15,0,1
67021.65234,-72.17341081,4,1,1,15,0,1
67031.06641,-59.11237796,4,1,1,15,0,1
67040.88281,-48.73943779,4,1,1,15,0,1
67051.20703,-40.4236952,4,1,1,15,0,1
67062.18359,-33.69861083,4,1,1,15,0,1
67073.98438,-28.21667843,4,1,1,15,0,1
67086.83203,-23.71664318,4,1,1,15,0,1
67101,-10000,4,1,1,15,0,1
67141.66406,-1642.764496,4,1,1,15,0,1
67176.29688,-1076.127211,4,1,1,15,0,1
67205.75781,-897.2148101,4,1,1,15,0,1
67230.82813,-824.0388139,4,1,1,15,0,1
67252.21484,-786.7397812,4,1,1,15,0,1
67270.54688,-752.893703,4,1,1,15,0,1
67286.38281,-703.0086788,4,1,1,15,0,1
67300.21484,-629.655306,4,1,1,15,0,1
67312.47266,-538.4817046,4,1,1,15,0,1
67323.51953,-442.6954574,4,1,1,15,0,1
67333.66797,-354.3485336,4,1,1,15,0,1
67343.17969,-279.7436336,4,1,1,15,0,1
67352.27344,-220.0042631,4,1,1,15,0,1
67361.12109,-173.4807523,4,1,1,15,0,1
67369.87109,-137.6524654,4,1,1,15,0,1
67378.64453,-110.0882867,4,1,1,15,0,1
67387.54297,-88.77883238,4,1,1,15,0,1
67396.65234,-72.17341081,4,1,1,15,0,1
67406.06641,-59.11237796,4,1,1,15,0,1
67415.88281,-48.73943779,4,1,1,15,0,1
67426.20703,-40.4236952,4,1,1,15,0,1
67437.18359,-33.69861083,4,1,1,15,0,1
67448.98438,-28.21667843,4,1,1,15,0,1
67461.83203,-23.71664318,4,1,1,15,0,1
67476,-10000,4,1,1,15,0,1
67516.66406,-1642.764496,4,1,1,15,0,1
67551.29688,-1076.127211,4,1,1,15,0,1
67580.75781,-897.2148101,4,1,1,15,0,1
67605.82813,-824.0388139,4,1,1,15,0,1
67627.21484,-786.7397812,4,1,1,15,0,1
67645.54688,-752.893703,4,1,1,15,0,1
67661.38281,-703.0086788,4,1,1,15,0,1
67675.21484,-629.655306,4,1,1,15,0,1
67687.47266,-538.4817046,4,1,1,15,0,1
67698.51953,-442.6954574,4,1,1,15,0,1
67708.66797,-354.3485336,4,1,1,15,0,1
67718.17969,-279.7436336,4,1,1,15,0,1
67727.27344,-220.0042631,4,1,1,15,0,1
67736.12109,-173.4807523,4,1,1,15,0,1
67744.87109,-137.6524654,4,1,1,15,0,1
67753.64453,-110.0882867,4,1,1,15,0,1
67762.54297,-88.77883238,4,1,1,15,0,1
67771.65234,-72.17341081,4,1,1,15,0,1
67781.06641,-59.11237796,4,1,1,15,0,1
67790.88281,-48.73943779,4,1,1,15,0,1
67801.20703,-40.4236952,4,1,1,15,0,1
67812.18359,-33.69861083,4,1,1,15,0,1
67823.98438,-28.21667843,4,1,1,15,0,1
67836.83203,-23.71664318,4,1,1,15,0,1
67851,-10000,4,1,1,15,0,1
67891.66406,-1642.764496,4,1,1,15,0,1
67926.29688,-1076.127211,4,1,1,15,0,1
67955.75781,-897.2148101,4,1,1,15,0,1
67980.82813,-824.0388139,4,1,1,15,0,1
68002.21484,-786.7397812,4,1,1,15,0,1
68020.54688,-752.893703,4,1,1,15,0,1
68036.38281,-703.0086788,4,1,1,15,0,1
68050.21484,-629.655306,4,1,1,15,0,1
68062.47266,-538.4817046,4,1,1,15,0,1
68073.51953,-442.6954574,4,1,1,15,0,1
68083.66797,-354.3485336,4,1,1,15,0,1
68093.17969,-279.7436336,4,1,1,15,0,1
68102.27344,-220.0042631,4,1,1,15,0,1
68111.12109,-173.4807523,4,1,1,15,0,1
68119.87109,-137.6524654,4,1,1,15,0,1
68128.64453,-110.0882867,4,1,1,15,0,1
68137.54297,-88.77883238,4,1,1,15,0,1
68146.65234,-72.17341081,4,1,1,15,0,1
68156.06641,-59.11237796,4,1,1,15,0,1
68165.88281,-48.73943779,4,1,1,15,0,1
68176.20703,-40.4236952,4,1,1,15,0,1
68187.18359,-33.69861083,4,1,1,15,0,1
68198.98438,-28.21667843,4,1,1,15,0,1
68211.83203,-23.71664318,4,1,1,15,0,1
68226,-10000,4,1,1,15,0,1
68266.66406,-1642.764496,4,1,1,15,0,1
68301.29688,-1076.127211,4,1,1,15,0,1
68330.75781,-897.2148101,4,1,1,15,0,1
68355.82813,-824.0388139,4,1,1,15,0,1
68377.21484,-786.7397812,4,1,1,15,0,1
68395.54688,-752.893703,4,1,1,15,0,1
68411.38281,-703.0086788,4,1,1,15,0,1
68425.21484,-629.655306,4,1,1,15,0,1
68437.47266,-538.4817046,4,1,1,15,0,1
68448.51953,-442.6954574,4,1,1,15,0,1
68458.66797,-354.3485336,4,1,1,15,0,1
68468.17969,-279.7436336,4,1,1,15,0,1
68477.27344,-220.0042631,4,1,1,15,0,1
68486.12109,-173.4807523,4,1,1,15,0,1
68494.87109,-137.6524654,4,1,1,15,0,1
68503.64453,-110.0882867,4,1,1,15,0,1
68512.54297,-88.77883238,4,1,1,15,0,1
68521.65234,-72.17341081,4,1,1,15,0,1
68531.06641,-59.11237796,4,1,1,15,0,1
68540.88281,-48.73943779,4,1,1,15,0,1
68551.20703,-40.4236952,4,1,1,15,0,1
68562.18359,-33.69861083,4,1,1,15,0,1
68573.98438,-28.21667843,4,1,1,15,0,1
68586.83203,-23.71664318,4,1,1,15,0,1
68601,-14.20454545,4,1,1,15,0,1
68619.326,-1501.331558,4,1,1,15,0,1
68788,-10000,4,1,1,15,0,1
68797.64063,-10000,4,1,1,15,0,1
68806.29297,-10000,4,1,1,15,0,1
68814.07031,-9896.781648,4,1,1,15,0,1
68821.10547,-9179.234076,4,1,1,15,0,1
68827.52344,-8102.263867,4,1,1,15,0,1
68833.44141,-6722.039945,4,1,1,15,0,1
68838.98828,-5219.012193,4,1,1,15,0,1
68844.28125,-3825.553517,4,1,1,15,0,1
68849.44141,-2696.487405,4,1,1,15,0,1
68854.57813,-1864.331902,4,1,1,15,0,1
68859.79688,-1284.39443,4,1,1,15,0,1
68865.19922,-890.7745861,4,1,1,15,0,1
68870.87109,-625.4849105,4,1,1,15,0,1
68876.89063,-445.8789945,4,1,1,15,0,1
68883.33594,-322.9616688,4,1,1,15,0,1
68890.25391,-237.663154,4,1,1,15,0,1
68897.69531,-177.5684517,4,1,1,15,0,1
68905.69141,-134.5781066,4,1,1,15,0,1
68914.24609,-103.3624747,4,1,1,15,0,1
68923.36719,-80.37236112,4,1,1,15,0,1
68933.03125,-63.21211999,4,1,1,15,0,1
68943.19531,-50.24185977,4,1,1,15,0,1
68953.80469,-40.32322772,4,1,1,15,0,1
68964.77344,-32.65518908,4,1,1,15,0,1
68976,-10000,4,1,1,15,0,1
69016.66406,-1642.764496,4,1,1,15,0,1
69051.29688,-1076.127211,4,1,1,15,0,1
69080.75781,-897.2148101,4,1,1,15,0,1
69105.82813,-824.0388139,4,1,1,15,0,1
69127.21484,-786.7397812,4,1,1,15,0,1
69145.54688,-752.893703,4,1,1,15,0,1
69161.38281,-703.0086788,4,1,1,15,0,1
69175.21484,-629.655306,4,1,1,15,0,1
69187.47266,-538.4817046,4,1,1,15,0,1
69198.51953,-442.6954574,4,1,1,15,0,1
69208.66797,-354.3485336,4,1,1,15,0,1
69218.17969,-279.7436336,4,1,1,15,0,1
69227.27344,-220.0042631,4,1,1,15,0,1
69236.12109,-173.4807523,4,1,1,15,0,1
69244.87109,-137.6524654,4,1,1,15,0,1
69253.64453,-110.0882867,4,1,1,15,0,1
69262.54297,-88.77883238,4,1,1,15,0,1
69271.65234,-72.17341081,4,1,1,15,0,1
69281.06641,-59.11237796,4,1,1,15,0,1
69290.88281,-48.73943779,4,1,1,15,0,1
69301.20703,-40.4236952,4,1,1,15,0,1
69312.18359,-33.69861083,4,1,1,15,0,1
69323.98438,-28.21667843,4,1,1,15,0,1
69336.83203,-23.71664318,4,1,1,15,0,1
69351,-10000,4,1,1,15,0,1
69391.66406,-1642.764496,4,1,1,15,0,1
69426.29688,-1076.127211,4,1,1,15,0,1
69455.75781,-897.2148101,4,1,1,15,0,1
69480.82813,-824.0388139,4,1,1,15,0,1
69502.21484,-786.7397812,4,1,1,15,0,1
69520.54688,-752.893703,4,1,1,15,0,1
69536.38281,-703.0086788,4,1,1,15,0,1
69550.21484,-629.655306,4,1,1,15,0,1
69562.47266,-538.4817046,4,1,1,15,0,1
69573.51953,-442.6954574,4,1,1,15,0,1
69583.66797,-354.3485336,4,1,1,15,0,1
69593.17969,-279.7436336,4,1,1,15,0,1
69602.27344,-220.0042631,4,1,1,15,0,1
69611.12109,-173.4807523,4,1,1,15,0,1
69619.87109,-137.6524654,4,1,1,15,0,1
69628.64453,-110.0882867,4,1,1,15,0,1
69637.54297,-88.77883238,4,1,1,15,0,1
69646.65234,-72.17341081,4,1,1,15,0,1
69656.06641,-59.11237796,4,1,1,15,0,1
69665.88281,-48.73943779,4,1,1,15,0,1
69676.20703,-40.4236952,4,1,1,15,0,1
69687.18359,-33.69861083,4,1,1,15,0,1
69698.98438,-28.21667843,4,1,1,15,0,1
69711.83203,-23.71664318,4,1,1,15,0,1
69726,-10000,4,1,1,15,0,1
69766.66406,-1642.764496,4,1,1,15,0,1
69801.29688,-1076.127211,4,1,1,15,0,1
69830.75781,-897.2148101,4,1,1,15,0,1
69855.82813,-824.0388139,4,1,1,15,0,1
69877.21484,-786.7397812,4,1,1,15,0,1
69895.54688,-752.893703,4,1,1,15,0,1
69911.38281,-703.0086788,4,1,1,15,0,1
69925.21484,-629.655306,4,1,1,15,0,1
69937.47266,-538.4817046,4,1,1,15,0,1
69948.51953,-442.6954574,4,1,1,15,0,1
69958.66797,-354.3485336,4,1,1,15,0,1
69968.17969,-279.7436336,4,1,1,15,0,1
69977.27344,-220.0042631,4,1,1,15,0,1
69986.12109,-173.4807523,4,1,1,15,0,1
69994.87109,-137.6524654,4,1,1,15,0,1
70003.64453,-110.0882867,4,1,1,15,0,1
70012.54297,-88.77883238,4,1,1,15,0,1
70021.65234,-72.17341081,4,1,1,15,0,1
70031.06641,-59.11237796,4,1,1,15,0,1
70040.88281,-48.73943779,4,1,1,15,0,1
70051.20703,-40.4236952,4,1,1,15,0,1
70062.18359,-33.69861083,4,1,1,15,0,1
70073.98438,-28.21667843,4,1,1,15,0,1
70086.83203,-23.71664318,4,1,1,15,0,1
70101,-69.44444168,4,1,1,15,0,1
70108.48047,-72.31703255,4,1,1,15,0,1
70115.96094,-75.43753612,4,1,1,15,0,1
70123.44141,-78.83947827,4,1,1,15,0,1
70130.92188,-82.56274777,4,1,1,15,0,1
70138.39844,-86.65510936,4,1,1,15,0,1
70145.87891,-91.17431792,4,1,1,15,0,1
70153.35938,-96.19084127,4,1,1,15,0,1
70160.83984,-101.7915248,4,1,1,15,0,1
70168.32031,-108.0847332,4,1,1,15,0,1
70175.80078,-115.2073692,4,1,1,15,0,1
70183.28125,-123.3349754,4,1,1,15,0,1
70190.76172,-132.6963904,4,1,1,15,0,1
70198.23828,-143.5956251,4,1,1,15,0,1
70205.71875,-156.4455492,4,1,1,15,0,1
70213.19922,-171.8213008,4,1,1,15,0,1
70220.67969,-190.5487796,4,1,1,15,0,1
70228.16016,-213.8579902,4,1,1,15,0,1
70235.64063,-243.6647155,4,1,1,15,0,1
70243.12109,-283.1256931,4,1,1,15,0,1
70250.60156,-337.8378335,4,1,1,15,0,1
70258.07813,-418.7604618,4,1,1,15,0,1
70265.55859,-550.6607795,4,1,1,15,0,1
70273.03906,-803.8584902,4,1,1,15,0,1
70280.51953,-1488.095126,4,1,1,15,0,1
70288,-10000,4,1,1,15,0,1
70297.64063,-10000,4,1,1,15,0,1
70306.29297,-10000,4,1,1,15,0,1
70314.07031,-9896.781648,4,1,1,15,0,1
70321.10547,-9179.234076,4,1,1,15,0,1
70327.52344,-8102.263867,4,1,1,15,0,1
70333.44141,-6722.039945,4,1,1,15,0,1
70338.98828,-5219.012193,4,1,1,15,0,1
70344.28125,-3825.553517,4,1,1,15,0,1
70349.44141,-2696.487405,4,1,1,15,0,1
70354.57813,-1864.331902,4,1,1,15,0,1
70359.79688,-1284.39443,4,1,1,15,0,1
70365.19922,-890.7745861,4,1,1,15,0,1
70370.87109,-625.4849105,4,1,1,15,0,1
70376.89063,-445.8789945,4,1,1,15,0,1
70383.33594,-322.9616688,4,1,1,15,0,1
70390.25391,-237.663154,4,1,1,15,0,1
70397.69531,-177.5684517,4,1,1,15,0,1
70405.69141,-134.5781066,4,1,1,15,0,1
70414.24609,-103.3624747,4,1,1,15,0,1
70423.36719,-80.37236112,4,1,1,15,0,1
70433.03125,-63.21211999,4,1,1,15,0,1
70443.19531,-50.24185977,4,1,1,15,0,1
70453.80469,-40.32322772,4,1,1,15,0,1
70464.77344,-32.65518908,4,1,1,15,0,1
70476,-10000,4,1,1,15,0,1
70516.66406,-1642.764496,4,1,1,15,0,1
70551.29688,-1076.127211,4,1,1,15,0,1
70580.75781,-897.2148101,4,1,1,15,0,1
70605.82813,-824.0388139,4,1,1,15,0,1
70627.21484,-786.7397812,4,1,1,15,0,1
70645.54688,-752.893703,4,1,1,15,0,1
70661.38281,-703.0086788,4,1,1,15,0,1
70675.21484,-629.655306,4,1,1,15,0,1
70687.47266,-538.4817046,4,1,1,15,0,1
70698.51953,-442.6954574,4,1,1,15,0,1
70708.66797,-354.3485336,4,1,1,15,0,1
70718.17969,-279.7436336,4,1,1,15,0,1
70727.27344,-220.0042631,4,1,1,15,0,1
70736.12109,-173.4807523,4,1,1,15,0,1
70744.87109,-137.6524654,4,1,1,15,0,1
70753.64453,-110.0882867,4,1,1,15,0,1
70762.54297,-88.77883238,4,1,1,15,0,1
70771.65234,-72.17341081,4,1,1,15,0,1
70781.06641,-59.11237796,4,1,1,15,0,1
70790.88281,-48.73943779,4,1,1,15,0,1
70801.20703,-40.4236952,4,1,1,15,0,1
70812.18359,-33.69861083,4,1,1,15,0,1
70823.98438,-28.21667843,4,1,1,15,0,1
70836.83203,-23.71664318,4,1,1,15,0,1
70851,-10000,4,1,1,15,0,1
70891.66406,-1642.764496,4,1,1,15,0,1
70926.29688,-1076.127211,4,1,1,15,0,1
70955.75781,-897.2148101,4,1,1,15,0,1
70980.82813,-824.0388139,4,1,1,15,0,1
71002.21484,-786.7397812,4,1,1,15,0,1
71020.54688,-752.893703,4,1,1,15,0,1
71036.38281,-703.0086788,4,1,1,15,0,1
71050.21484,-629.655306,4,1,1,15,0,1
71062.47266,-538.4817046,4,1,1,15,0,1
71073.51953,-442.6954574,4,1,1,15,0,1
71083.66797,-354.3485336,4,1,1,15,0,1
71093.17969,-279.7436336,4,1,1,15,0,1
71102.27344,-220.0042631,4,1,1,15,0,1
71111.12109,-173.4807523,4,1,1,15,0,1
71119.87109,-137.6524654,4,1,1,15,0,1
71128.64453,-110.0882867,4,1,1,15,0,1
71137.54297,-88.77883238,4,1,1,15,0,1
71146.65234,-72.17341081,4,1,1,15,0,1
71156.06641,-59.11237796,4,1,1,15,0,1
71165.88281,-48.73943779,4,1,1,15,0,1
71176.20703,-40.4236952,4,1,1,15,0,1
71187.18359,-33.69861083,4,1,1,15,0,1
71198.98438,-28.21667843,4,1,1,15,0,1
71211.83203,-23.71664318,4,1,1,15,0,1
71226,-14.20454545,4,1,1,15,0,1
71244.326,-1501.331558,4,1,1,15,0,1
71413,-10000,4,1,1,15,0,1
71581.824,-13.76481067,4,1,1,15,0,1
71601,-10000,4,1,1,15,0,1
71641.66406,-1642.764496,4,1,1,15,0,1
71676.29688,-1076.127211,4,1,1,15,0,1
71705.75781,-897.2148101,4,1,1,15,0,1
71730.82813,-824.0388139,4,1,1,15,0,1
71752.21484,-786.7397812,4,1,1,15,0,1
71770.54688,-752.893703,4,1,1,15,0,1
71786.38281,-703.0086788,4,1,1,15,0,1
71800.21484,-629.655306,4,1,1,15,0,1
71812.47266,-538.4817046,4,1,1,15,0,1
71823.51953,-442.6954574,4,1,1,15,0,1
71833.66797,-354.3485336,4,1,1,15,0,1
71843.17969,-279.7436336,4,1,1,15,0,1
71852.27344,-220.0042631,4,1,1,15,0,1
71861.12109,-173.4807523,4,1,1,15,0,1
71869.87109,-137.6524654,4,1,1,15,0,1
71878.64453,-110.0882867,4,1,1,15,0,1
71887.54297,-88.77883238,4,1,1,15,0,1
71896.65234,-72.17341081,4,1,1,15,0,1
71906.06641,-59.11237796,4,1,1,15,0,1
71915.88281,-48.73943779,4,1,1,15,0,1
71926.20703,-40.4236952,4,1,1,15,0,1
71937.18359,-33.69861083,4,1,1,15,0,1
71948.98438,-28.21667843,4,1,1,15,0,1
71961.83203,-23.71664318,4,1,1,15,0,1
71976,-10000,4,1,1,15,0,1
72016.66406,-1642.764496,4,1,1,15,0,1
72051.29688,-1076.127211,4,1,1,15,0,1
72080.75781,-897.2148101,4,1,1,15,0,1
72105.82813,-824.0388139,4,1,1,15,0,1
72127.21484,-786.7397812,4,1,1,15,0,1
72145.54688,-752.893703,4,1,1,15,0,1
72161.38281,-703.0086788,4,1,1,15,0,1
72175.21484,-629.655306,4,1,1,15,0,1
72187.47266,-538.4817046,4,1,1,15,0,1
72198.51953,-442.6954574,4,1,1,15,0,1
72208.66797,-354.3485336,4,1,1,15,0,1
72218.17969,-279.7436336,4,1,1,15,0,1
72227.27344,-220.0042631,4,1,1,15,0,1
72236.12109,-173.4807523,4,1,1,15,0,1
72244.87109,-137.6524654,4,1,1,15,0,1
72253.64453,-110.0882867,4,1,1,15,0,1
72262.54297,-88.77883238,4,1,1,15,0,1
72271.65234,-72.17341081,4,1,1,15,0,1
72281.06641,-59.11237796,4,1,1,15,0,1
72290.88281,-48.73943779,4,1,1,15,0,1
72301.20703,-40.4236952,4,1,1,15,0,1
72312.18359,-33.69861083,4,1,1,15,0,1
72323.98438,-28.21667843,4,1,1,15,0,1
72336.83203,-23.71664318,4,1,1,15,0,1
72351,-10000,4,1,1,15,0,1
72391.66406,-1642.764496,4,1,1,15,0,1
72426.29688,-1076.127211,4,1,1,15,0,1
72455.75781,-897.2148101,4,1,1,15,0,1
72480.82813,-824.0388139,4,1,1,15,0,1
72502.21484,-786.7397812,4,1,1,15,0,1
72520.54688,-752.893703,4,1,1,15,0,1
72536.38281,-703.0086788,4,1,1,15,0,1
72550.21484,-629.655306,4,1,1,15,0,1
72562.47266,-538.4817046,4,1,1,15,0,1
72573.51953,-442.6954574,4,1,1,15,0,1
72583.66797,-354.3485336,4,1,1,15,0,1
72593.17969,-279.7436336,4,1,1,15,0,1
72602.27344,-220.0042631,4,1,1,15,0,1
72611.12109,-173.4807523,4,1,1,15,0,1
72619.87109,-137.6524654,4,1,1,15,0,1
72628.64453,-110.0882867,4,1,1,15,0,1
72637.54297,-88.77883238,4,1,1,15,0,1
72646.65234,-72.17341081,4,1,1,15,0,1
72656.06641,-59.11237796,4,1,1,15,0,1
72665.88281,-48.73943779,4,1,1,15,0,1
72676.20703,-40.4236952,4,1,1,15,0,1
72687.18359,-33.69861083,4,1,1,15,0,1
72698.98438,-28.21667843,4,1,1,15,0,1
72711.83203,-23.71664318,4,1,1,15,0,1
72726,-10000,4,1,1,15,0,1
72766.66406,-1642.764496,4,1,1,15,0,1
72801.29688,-1076.127211,4,1,1,15,0,1
72830.75781,-897.2148101,4,1,1,15,0,1
72855.82813,-824.0388139,4,1,1,15,0,1
72877.21484,-786.7397812,4,1,1,15,0,1
72895.54688,-752.893703,4,1,1,15,0,1
72911.38281,-703.0086788,4,1,1,15,0,1
72925.21484,-629.655306,4,1,1,15,0,1
72937.47266,-538.4817046,4,1,1,15,0,1
72948.51953,-442.6954574,4,1,1,15,0,1
72958.66797,-354.3485336,4,1,1,15,0,1
72968.17969,-279.7436336,4,1,1,15,0,1
72977.27344,-220.0042631,4,1,1,15,0,1
72986.12109,-173.4807523,4,1,1,15,0,1
72994.87109,-137.6524654,4,1,1,15,0,1
73003.64453,-110.0882867,4,1,1,15,0,1
73012.54297,-88.77883238,4,1,1,15,0,1
73021.65234,-72.17341081,4,1,1,15,0,1
73031.06641,-59.11237796,4,1,1,15,0,1
73040.88281,-48.73943779,4,1,1,15,0,1
73051.20703,-40.4236952,4,1,1,15,0,1
73062.18359,-33.69861083,4,1,1,15,0,1
73073.98438,-28.21667843,4,1,1,15,0,1
73086.83203,-23.71664318,4,1,1,15,0,1
73101,-10000,4,1,1,15,0,1
73141.66406,-1642.764496,4,1,1,15,0,1
73176.29688,-1076.127211,4,1,1,15,0,1
73205.75781,-897.2148101,4,1,1,15,0,1
73230.82813,-824.0388139,4,1,1,15,0,1
73252.21484,-786.7397812,4,1,1,15,0,1
73270.54688,-752.893703,4,1,1,15,0,1
73286.38281,-703.0086788,4,1,1,15,0,1
73300.21484,-629.655306,4,1,1,15,0,1
73312.47266,-538.4817046,4,1,1,15,0,1
73323.51953,-442.6954574,4,1,1,15,0,1
73333.66797,-354.3485336,4,1,1,15,0,1
73343.17969,-279.7436336,4,1,1,15,0,1
73352.27344,-220.0042631,4,1,1,15,0,1
73361.12109,-173.4807523,4,1,1,15,0,1
73369.87109,-137.6524654,4,1,1,15,0,1
73378.64453,-110.0882867,4,1,1,15,0,1
73387.54297,-88.77883238,4,1,1,15,0,1
73396.65234,-72.17341081,4,1,1,15,0,1
73406.06641,-59.11237796,4,1,1,15,0,1
73415.88281,-48.73943779,4,1,1,15,0,1
73426.20703,-40.4236952,4,1,1,15,0,1
73437.18359,-33.69861083,4,1,1,15,0,1
73448.98438,-28.21667843,4,1,1,15,0,1
73461.83203,-23.71664318,4,1,1,15,0,1
73476,-10000,4,1,1,15,0,1
73516.66406,-1642.764496,4,1,1,15,0,1
73551.29688,-1076.127211,4,1,1,15,0,1
73580.75781,-897.2148101,4,1,1,15,0,1
73605.82813,-824.0388139,4,1,1,15,0,1
73627.21484,-786.7397812,4,1,1,15,0,1
73645.54688,-752.893703,4,1,1,15,0,1
73661.38281,-703.0086788,4,1,1,15,0,1
73675.21484,-629.655306,4,1,1,15,0,1
73687.47266,-538.4817046,4,1,1,15,0,1
73698.51953,-442.6954574,4,1,1,15,0,1
73708.66797,-354.3485336,4,1,1,15,0,1
73718.17969,-279.7436336,4,1,1,15,0,1
73727.27344,-220.0042631,4,1,1,15,0,1
73736.12109,-173.4807523,4,1,1,15,0,1
73744.87109,-137.6524654,4,1,1,15,0,1
73753.64453,-110.0882867,4,1,1,15,0,1
73762.54297,-88.77883238,4,1,1,15,0,1
73771.65234,-72.17341081,4,1,1,15,0,1
73781.06641,-59.11237796,4,1,1,15,0,1
73790.88281,-48.73943779,4,1,1,15,0,1
73801.20703,-40.4236952,4,1,1,15,0,1
73812.18359,-33.69861083,4,1,1,15,0,1
73823.98438,-28.21667843,4,1,1,15,0,1
73836.83203,-23.71664318,4,1,1,15,0,1
73851,-10000,4,1,1,15,0,1
73891.66406,-1642.764496,4,1,1,15,0,1
73926.29688,-1076.127211,4,1,1,15,0,1
73955.75781,-897.2148101,4,1,1,15,0,1
73980.82813,-824.0388139,4,1,1,15,0,1
74002.21484,-786.7397812,4,1,1,15,0,1
74020.54688,-752.893703,4,1,1,15,0,1
74036.38281,-703.0086788,4,1,1,15,0,1
74050.21484,-629.655306,4,1,1,15,0,1
74062.47266,-538.4817046,4,1,1,15,0,1
74073.51953,-442.6954574,4,1,1,15,0,1
74083.66797,-354.3485336,4,1,1,15,0,1
74093.17969,-279.7436336,4,1,1,15,0,1
74102.27344,-220.0042631,4,1,1,15,0,1
74111.12109,-173.4807523,4,1,1,15,0,1
74119.87109,-137.6524654,4,1,1,15,0,1
74128.64453,-110.0882867,4,1,1,15,0,1
74137.54297,-88.77883238,4,1,1,15,0,1
74146.65234,-72.17341081,4,1,1,15,0,1
74156.06641,-59.11237796,4,1,1,15,0,1
74165.88281,-48.73943779,4,1,1,15,0,1
74176.20703,-40.4236952,4,1,1,15,0,1
74187.18359,-33.69861083,4,1,1,15,0,1
74198.98438,-28.21667843,4,1,1,15,0,1
74211.83203,-23.71664318,4,1,1,15,0,1
74226,-10000,4,1,1,15,0,1
74266.66406,-1642.764496,4,1,1,15,0,1
74301.29688,-1076.127211,4,1,1,15,0,1
74330.75781,-897.2148101,4,1,1,15,0,1
74355.82813,-824.0388139,4,1,1,15,0,1
74377.21484,-786.7397812,4,1,1,15,0,1
74395.54688,-752.893703,4,1,1,15,0,1
74411.38281,-703.0086788,4,1,1,15,0,1
74425.21484,-629.655306,4,1,1,15,0,1
74437.47266,-538.4817046,4,1,1,15,0,1
74448.51953,-442.6954574,4,1,1,15,0,1
74458.66797,-354.3485336,4,1,1,15,0,1
74468.17969,-279.7436336,4,1,1,15,0,1
74477.27344,-220.0042631,4,1,1,15,0,1
74486.12109,-173.4807523,4,1,1,15,0,1
74494.87109,-137.6524654,4,1,1,15,0,1
74503.64453,-110.0882867,4,1,1,15,0,1
74512.54297,-88.77883238,4,1,1,15,0,1
74521.65234,-72.17341081,4,1,1,15,0,1
74531.06641,-59.11237796,4,1,1,15,0,1
74540.88281,-48.73943779,4,1,1,15,0,1
74551.20703,-40.4236952,4,1,1,15,0,1
74562.18359,-33.69861083,4,1,1,15,0,1
74573.98438,-28.21667843,4,1,1,15,0,1
74586.83203,-23.71664318,4,1,1,15,0,1
74601,-14.20454545,4,1,1,15,0,1
74619.326,-1501.331558,4,1,1,15,0,1
74788,-10000,4,1,1,15,0,1
74797.64063,-10000,4,1,1,15,0,1
74806.29297,-10000,4,1,1,15,0,1
74814.07031,-9896.781648,4,1,1,15,0,1
74821.10547,-9179.234076,4,1,1,15,0,1
74827.52344,-8102.263867,4,1,1,15,0,1
74833.44141,-6722.039945,4,1,1,15,0,1
74838.98828,-5219.012193,4,1,1,15,0,1
74844.28125,-3825.553517,4,1,1,15,0,1
74849.44141,-2696.487405,4,1,1,15,0,1
74854.57813,-1864.331902,4,1,1,15,0,1
74859.79688,-1284.39443,4,1,1,15,0,1
74865.19922,-890.7745861,4,1,1,15,0,1
74870.87109,-625.4849105,4,1,1,15,0,1
74876.89063,-445.8789945,4,1,1,15,0,1
74883.33594,-322.9616688,4,1,1,15,0,1
74890.25391,-237.663154,4,1,1,15,0,1
74897.69531,-177.5684517,4,1,1,15,0,1
74905.69141,-134.5781066,4,1,1,15,0,1
74914.24609,-103.3624747,4,1,1,15,0,1
74923.36719,-80.37236112,4,1,1,15,0,1
74933.03125,-63.21211999,4,1,1,15,0,1
74943.19531,-50.24185977,4,1,1,15,0,1
74953.80469,-40.32322772,4,1,1,15,0,1
74964.77344,-32.65518908,4,1,1,15,0,1
74976,-33.33333333,4,1,1,15,0,1
74980.20703,-36.31381415,4,1,1,15,0,1
74984.47656,-39.68844651,4,1,1,15,0,1
74988.83594,-43.52829253,4,1,1,15,0,1
74993.30859,-47.92098113,4,1,1,15,0,1
74997.92969,-52.97557414,4,1,1,15,0,1
75002.71875,-58.82912164,4,1,1,15,0,1
75007.71484,-65.65566771,4,1,1,15,0,1
75012.93359,-73.67887404,4,1,1,15,0,1
75018.41406,-83.18985578,4,1,1,15,0,1
75024.17969,-94.57303112,4,1,1,15,0,1
75030.25781,-108.3441276,4,1,1,15,0,1
75036.67969,-125.2075895,4,1,1,15,0,1
75043.46875,-146.1452498,4,1,1,15,0,1
75050.65625,-172.5573833,4,1,1,15,0,1
75058.26953,-206.4945942,4,1,1,15,0,1
75066.33594,-251.053064,4,1,1,15,0,1
75074.88281,-311.0786095,4,1,1,15,0,1
75083.94141,-394.4850399,4,1,1,15,0,1
75093.53906,-514.875552,4,1,1,15,0,1
75103.70313,-697.1410086,4,1,1,15,0,1
75114.46094,-990.4928785,4,1,1,15,0,1
75125.84375,-1502.108752,4,1,1,15,0,1
75137.875,-2494.786,4,1,1,15,0,1
75150.58203,-4696.537811,4,1,1,15,0,1
75163,-40.16064257,4,1,1,15,0,1
75219.024,-8796.992481,4,1,1,15,0,1
75351,-13.22751323,4,1,1,15,0,1
75369.326,-9890.350877,4,1,1,15,0,1
75538,-33.33333333,4,1,1,15,0,1
75542.20703,-36.31381415,4,1,1,15,0,1
75546.47656,-39.68844651,4,1,1,15,0,1
75550.83594,-43.52829253,4,1,1,15,0,1
75555.30859,-47.92098113,4,1,1,15,0,1
75559.92969,-52.97557414,4,1,1,15,0,1
75564.71875,-58.82912164,4,1,1,15,0,1
75569.71484,-65.65566771,4,1,1,15,0,1
75574.93359,-73.67887404,4,1,1,15,0,1
75580.41406,-83.18985578,4,1,1,15,0,1
75586.17969,-94.57303112,4,1,1,15,0,1
75592.25781,-108.3441276,4,1,1,15,0,1
75598.67969,-125.2075895,4,1,1,15,0,1
75605.46875,-146.1452498,4,1,1,15,0,1
75612.65625,-172.5573833,4,1,1,15,0,1
75620.26953,-206.4945942,4,1,1,15,0,1
75628.33594,-251.053064,4,1,1,15,0,1
75636.88281,-311.0786095,4,1,1,15,0,1
75645.94141,-394.4850399,4,1,1,15,0,1
75655.53906,-514.875552,4,1,1,15,0,1
75665.70313,-697.1410086,4,1,1,15,0,1
75676.46094,-990.4928785,4,1,1,15,0,1
75687.84375,-1502.108752,4,1,1,15,0,1
75699.875,-2494.786,4,1,1,15,0,1
75712.58203,-4696.537811,4,1,1,15,0,1
75726,-10,4,1,1,15,0,1
75735.114,-4510,4,1,1,15,0,1
75819,-100,4,1,1,15,0,1
75913,-33.33333333,4,1,1,15,0,1
75917.20703,-36.31381415,4,1,1,15,0,1
75921.47656,-39.68844651,4,1,1,15,0,1
75925.83594,-43.52829253,4,1,1,15,0,1
75930.30859,-47.92098113,4,1,1,15,0,1
75934.92969,-52.97557414,4,1,1,15,0,1
75939.71875,-58.82912164,4,1,1,15,0,1
75944.71484,-65.65566771,4,1,1,15,0,1
75949.93359,-73.67887404,4,1,1,15,0,1
75955.41406,-83.18985578,4,1,1,15,0,1
75961.17969,-94.57303112,4,1,1,15,0,1
75967.25781,-108.3441276,4,1,1,15,0,1
75973.67969,-125.2075895,4,1,1,15,0,1
75980.46875,-146.1452498,4,1,1,15,0,1
75987.65625,-172.5573833,4,1,1,15,0,1
75995.26953,-206.4945942,4,1,1,15,0,1
76003.33594,-251.053064,4,1,1,15,0,1
76011.88281,-311.0786095,4,1,1,15,0,1
76020.94141,-394.4850399,4,1,1,15,0,1
76030.53906,-514.875552,4,1,1,15,0,1
76040.70313,-697.1410086,4,1,1,15,0,1
76051.46094,-990.4928785,4,1,1,15,0,1
76062.84375,-1502.108752,4,1,1,15,0,1
76074.875,-2494.786,4,1,1,15,0,1
76087.58203,-4696.537811,4,1,1,15,0,1
76101,-13.22751323,4,1,1,15,0,1
76110.114,-9890.350877,4,1,1,15,0,1
76278.412,-13.76481067,4,1,1,15,0,1
76288,-13.22751323,4,1,1,15,0,1
76297.114,-9890.350877,4,1,1,15,0,1
76465.412,-13.76481067,4,1,1,15,0,1
76476,-10000,4,1,1,15,0,1
76812.75,-13.76481067,4,1,1,15,0,1
76851,-10000,4,1,1,15,0,1
77187.75,-13.76481067,4,1,1,15,0,1
77226,-14.20454545,4,1,1,15,0,1
77244.326,-1501.331558,4,1,1,15,0,1
77413,-10000,4,1,1,15,0,1
77581.824,-13.76481067,4,1,1,15,0,1
77601,-10000,4,1,1,15,0,1
77937.75,-13.76481067,4,1,1,15,0,1
77976,-10000,4,1,1,15,0,1
78312.75,-13.76481067,4,1,1,15,0,1
78351,-10000,4,1,1,15,0,1
78687.75,-13.76481067,4,1,1,15,0,1
78726,-10000,4,1,1,15,0,1
79062.75,-13.76481067,4,1,1,15,0,1
79101,-10000,4,1,1,15,0,1
79437.75,-13.76481067,4,1,1,15,0,1
79476,-10000,4,1,1,15,0,1
79812.75,-13.76481067,4,1,1,15,0,1
79851,-10000,4,1,1,15,0,1
80187.75,-13.76481067,4,1,1,15,0,1
80226,-10000,4,1,1,15,0,1
80562.75,-13.76481067,4,1,1,15,0,1
80601,-14.20454545,4,1,1,15,0,1
80619.326,-1501.331558,4,1,1,15,0,1
80788,-10000,4,1,1,15,0,1
80797.64063,-10000,4,1,1,15,0,1
80806.29297,-10000,4,1,1,15,0,1
80814.07031,-9896.781648,4,1,1,15,0,1
80821.10547,-9179.234076,4,1,1,15,0,1
80827.52344,-8102.263867,4,1,1,15,0,1
80833.44141,-6722.039945,4,1,1,15,0,1
80838.98828,-5219.012193,4,1,1,15,0,1
80844.28125,-3825.553517,4,1,1,15,0,1
80849.44141,-2696.487405,4,1,1,15,0,1
80854.57813,-1864.331902,4,1,1,15,0,1
80859.79688,-1284.39443,4,1,1,15,0,1
80865.19922,-890.7745861,4,1,1,15,0,1
80870.87109,-625.4849105,4,1,1,15,0,1
80876.89063,-445.8789945,4,1,1,15,0,1
80883.33594,-322.9616688,4,1,1,15,0,1
80890.25391,-237.663154,4,1,1,15,0,1
80897.69531,-177.5684517,4,1,1,15,0,1
80905.69141,-134.5781066,4,1,1,15,0,1
80914.24609,-103.3624747,4,1,1,15,0,1
80923.36719,-80.37236112,4,1,1,15,0,1
80933.03125,-63.21211999,4,1,1,15,0,1
80943.19531,-50.24185977,4,1,1,15,0,1
80953.80469,-40.32322772,4,1,1,15,0,1
80964.77344,-32.65518908,4,1,1,15,0,1
80976,-10000,4,1,1,15,0,1
81312.75,-13.76481067,4,1,1,15,0,1
81351,-10000,4,1,1,15,0,1
81687.75,-13.76481067,4,1,1,15,0,1
81726,-33.33333333,4,1,1,15,0,1
81728.46094,-35.06587501,4,1,1,15,0,1
81731.97656,-36.95578966,4,1,1,15,0,1
81736.53125,-39.02466256,4,1,1,15,0,1
81742.125,-41.29818942,4,1,1,15,0,1
81748.77344,-43.80718465,4,1,1,15,0,1
81756.46094,-46.58892486,4,1,1,15,0,1
81765.1875,-49.68893357,4,1,1,15,0,1
81774.96875,-53.16339518,4,1,1,15,0,1
81785.78906,-57.08245033,4,1,1,15,0,1
81797.65625,-61.53483666,4,1,1,15,0,1
81810.5625,-66.63445864,4,1,1,15,0,1
81824.52344,-72.53001244,4,1,1,15,0,1
81839.52344,-79.41930781,4,1,1,15,0,1
81855.5625,-87.57142718,4,1,1,15,0,1
81872.65625,-97.3619019,4,1,1,15,0,1
81890.78906,-109.3312075,4,1,1,15,0,1
81909.96875,-124.2863627,4,1,1,15,0,1
81930.1875,-143.4883986,4,1,1,15,0,1
81951.46094,-169.0237641,4,1,1,15,0,1
81973.77344,-204.6117357,4,1,1,15,0,1
81997.125,-257.5901285,4,1,1,15,0,1
82021.53125,-344.72996,4,1,1,15,0,1
82046.97656,-514.5725881,4,1,1,15,0,1
82073.46094,-990.3410086,4,1,1,15,0,1
82101,-13.22751323,4,1,1,15,0,1
82110.114,-9890.350877,4,1,1,15,0,1
82194,-13.22751323,4,1,1,15,0,1
82203.212,-9890.350877,4,1,1,15,0,1
82288,-10000,4,1,1,15,0,1
82297.64063,-10000,4,1,1,15,0,1
82306.424,-9890.350877,4,1,1,15,0,1
82314.07031,-9896.781648,4,1,1,15,0,1
82321.10547,-9179.234076,4,1,1,15,0,1
82327.52344,-8102.263867,4,1,1,15,0,1
82333.44141,-6722.039945,4,1,1,15,0,1
82338.98828,-5219.012193,4,1,1,15,0,1
82344.28125,-3825.553517,4,1,1,15,0,1
82349.44141,-2696.487405,4,1,1,15,0,1
82354.57813,-1864.331902,4,1,1,15,0,1
82359.79688,-1284.39443,4,1,1,15,0,1
82365.19922,-890.7745861,4,1,1,15,0,1
82370.87109,-625.4849105,4,1,1,15,0,1
82376.89063,-445.8789945,4,1,1,15,0,1
82383.33594,-322.9616688,4,1,1,15,0,1
82390.25391,-237.663154,4,1,1,15,0,1
82397.69531,-177.5684517,4,1,1,15,0,1
82405.69141,-134.5781066,4,1,1,15,0,1
82414.24609,-103.3624747,4,1,1,15,0,1
82423.36719,-80.37236112,4,1,1,15,0,1
82433.03125,-63.21211999,4,1,1,15,0,1
82443.19531,-50.24185977,4,1,1,15,0,1
82453.80469,-40.32322772,4,1,1,15,0,1
82464.77344,-32.65518908,4,1,1,15,0,1
82476,-10000,4,1,1,15,0,1
82812.75,-13.76481067,4,1,1,15,0,1
82851,-10000,4,1,1,15,0,1
83187.75,-13.76481067,4,1,1,15,0,1
83226,-14.20454545,4,1,1,15,0,1
83244.326,-1501.331558,4,1,1,15,0,1
83413,-10000,4,1,1,15,0,1
83581.824,-13.76481067,4,1,1,15,0,1
83601,-10000,4,1,1,15,0,1
83937.75,-13.76481067,4,1,1,15,0,1
83976,-10000,4,1,1,15,0,1
84312.75,-13.76481067,4,1,1,15,0,1
84351,-10000,4,1,1,15,0,1
84687.75,-13.76481067,4,1,1,15,0,1
84726,-10000,4,1,1,15,0,1
85062.75,-13.76481067,4,1,1,15,0,1
85101,-10000,4,1,1,15,0,1
85437.75,-13.76481067,4,1,1,15,0,1
85476,-10000,4,1,1,15,0,1
85812.75,-13.76481067,4,1,1,15,0,1
85851,-10000,4,1,1,15,0,1
86187.75,-13.76481067,4,1,1,15,0,1
86226,-10000,4,1,1,15,0,1
86562.75,-13.76481067,4,1,1,15,0,1
86601,-14.20454545,4,1,1,15,0,1
86619.326,-1501.331558,4,1,1,15,0,1
86788,-10000,4,1,1,15,0,1
86797.64063,-10000,4,1,1,15,0,1
86806.29297,-10000,4,1,1,15,0,1
86814.07031,-9896.781648,4,1,1,15,0,1
86821.10547,-9179.234076,4,1,1,15,0,1
86827.52344,-8102.263867,4,1,1,15,0,1
86833.44141,-6722.039945,4,1,1,15,0,1
86838.98828,-5219.012193,4,1,1,15,0,1
86844.28125,-3825.553517,4,1,1,15,0,1
86849.44141,-2696.487405,4,1,1,15,0,1
86854.57813,-1864.331902,4,1,1,15,0,1
86859.79688,-1284.39443,4,1,1,15,0,1
86865.19922,-890.7745861,4,1,1,15,0,1
86870.87109,-625.4849105,4,1,1,15,0,1
86876.89063,-445.8789945,4,1,1,15,0,1
86883.33594,-322.9616688,4,1,1,15,0,1
86890.25391,-237.663154,4,1,1,15,0,1
86897.69531,-177.5684517,4,1,1,15,0,1
86905.69141,-134.5781066,4,1,1,15,0,1
86914.24609,-103.3624747,4,1,1,15,0,1
86923.36719,-80.37236112,4,1,1,15,0,1
86933.03125,-63.21211999,4,1,1,15,0,1
86943.19531,-50.24185977,4,1,1,15,0,1
86953.80469,-40.32322772,4,1,1,15,0,1
86964.77344,-32.65518908,4,1,1,15,0,1
86976,-20,4,1,1,15,0,1
87022,-10000,4,1,1,15,0,1
87038.875,-10000,4,1,1,15,0,1
87054.01172,-10000,4,1,1,15,0,1
87067.62891,-9896.781648,4,1,1,15,0,1
87079.9375,-9179.234076,4,1,1,15,0,1
87091.16406,-8102.263867,4,1,1,15,0,1
87101.52344,-6722.039945,4,1,1,15,0,1
87111.23047,-5219.012193,4,1,1,15,0,1
87120.49609,-3825.553517,4,1,1,15,0,1
87129.52344,-2696.487405,4,1,1,15,0,1
87138.51563,-1864.331902,4,1,1,15,0,1
87147.64844,-1284.39443,4,1,1,15,0,1
87157.09766,-890.7745861,4,1,1,15,0,1
87167.02344,-625.4849105,4,1,1,15,0,1
87177.5625,-445.8789945,4,1,1,15,0,1
87188.83594,-322.9616688,4,1,1,15,0,1
87200.94531,-237.663154,4,1,1,15,0,1
87213.96875,-177.5684517,4,1,1,15,0,1
87227.95703,-134.5781066,4,1,1,15,0,1
87242.93359,-103.3624747,4,1,1,15,0,1
87258.89453,-80.37236112,4,1,1,15,0,1
87275.80469,-63.21211999,4,1,1,15,0,1
87293.59375,-50.24185977,4,1,1,15,0,1
87312.15625,-40.32322772,4,1,1,15,0,1
87331.35547,-32.65518908,4,1,1,15,0,1
87351,-25,4,1,1,15,0,1
87397,-10000,4,1,1,15,0,1
87413.875,-10000,4,1,1,15,0,1
87429.01172,-10000,4,1,1,15,0,1
87442.62891,-9896.781648,4,1,1,15,0,1
87454.9375,-9179.234076,4,1,1,15,0,1
87466.16406,-8102.263867,4,1,1,15,0,1
87476.52344,-6722.039945,4,1,1,15,0,1
87486.23047,-5219.012193,4,1,1,15,0,1
87495.49609,-3825.553517,4,1,1,15,0,1
87504.52344,-2696.487405,4,1,1,15,0,1
87513.51563,-1864.331902,4,1,1,15,0,1
87522.64844,-1284.39443,4,1,1,15,0,1
87532.09766,-890.7745861,4,1,1,15,0,1
87542.02344,-625.4849105,4,1,1,15,0,1
87552.5625,-445.8789945,4,1,1,15,0,1
87563.83594,-322.9616688,4,1,1,15,0,1
87575.94531,-237.663154,4,1,1,15,0,1
87588.96875,-177.5684517,4,1,1,15,0,1
87602.95703,-134.5781066,4,1,1,15,0,1
87617.93359,-103.3624747,4,1,1,15,0,1
87633.89453,-80.37236112,4,1,1,15,0,1
87650.80469,-63.21211999,4,1,1,15,0,1
87668.59375,-50.24185977,4,1,1,15,0,1
87687.15625,-40.32322772,4,1,1,15,0,1
87706.35547,-32.65518908,4,1,1,15,0,1
87726,-40,4,1,1,15,0,0
87772,-10000,4,1,1,15,0,0
92976,-10000,4,1,1,15,0,0
92993.07031,-8003.880236,4,1,1,15,0,0
93010.10156,-6650.489151,4,1,1,15,0,0
93027.08594,-5672.908035,4,1,1,15,0,0
93044.03906,-4934.030869,4,1,1,15,0,0
93060.9375,-4356.202257,4,1,1,15,0,0
93077.80469,-3892.148316,4,1,1,15,0,0
93094.625,-3511.441169,4,1,1,15,0,0
93111.39844,-3193.609817,4,1,1,15,0,0
93128.14063,-2924.37625,4,1,1,15,0,0
93144.83594,-2693.477098,4,1,1,15,0,0
93161.48438,-2493.346283,4,1,1,15,0,0
93178.09375,-2318.28326,4,1,1,15,0,0
93194.66406,-2163.912243,4,1,1,15,0,0
93211.19531,-2026.817781,4,1,1,15,0,0
93227.67969,-1904.295108,4,1,1,15,0,0
93244.125,-1794.175115,4,1,1,15,0,0
93260.52344,-1694.697598,4,1,1,15,0,0
93276.88281,-1604.419484,4,1,1,15,0,0
93293.20313,-1522.146265,4,1,1,15,0,0
93309.47656,-1446.88081,4,1,1,15,0,0
93325.71094,-1377.784749,4,1,1,15,0,0
93341.90625,-1314.147306,4,1,1,15,0,0
93358.05469,-1255.362439,4,1,1,15,0,0
93374.16406,-1200.910137,4,1,1,15,0,0
93390.23438,-1150.341697,4,1,1,15,0,0
93406.25781,-1103.267921,4,1,1,15,0,0
93422.24219,-1059.349585,4,1,1,15,0,0
93438.1875,-1018.289678,4,1,1,15,0,0
93454.08594,-979.8271191,4,1,1,15,0,0
93469.94531,-943.7312215,4,1,1,15,0,0
93485.75781,-909.7977906,4,1,1,15,0,0
93501.53125,-877.8451917,4,1,1,15,0,0
93517.26563,-847.7114372,4,1,1,15,0,0
93532.95313,-819.2514032,4,1,1,15,0,0
93548.60156,-792.3349885,4,1,1,15,0,0
93564.21094,-766.8451279,4,1,1,15,0,0
93579.77344,-742.675914,4,1,1,15,0,0
93595.29688,-719.7317846,4,1,1,15,0,0
93610.78125,-697.925988,4,1,1,15,0,0
93626.21875,-677.1797363,4,1,1,15,0,0
93641.61719,-657.4210535,4,1,1,15,0,0
93656.97656,-638.5844975,4,1,1,15,0,0
93672.28906,-620.6099633,4,1,1,15,0,0
93687.5625,-603.4425492,4,1,1,15,0,0
93702.78906,-587.0318438,4,1,1,15,0,0
93717.97656,-571.3313327,4,1,1,15,0,0
93733.125,-556.298364,4,1,1,15,0,0
93748.22656,-541.8933968,4,1,1,15,0,0
93763.28906,-528.0800687,4,1,1,15,0,0
93778.3125,-514.8245593,4,1,1,15,0,0
93793.28906,-502.0956846,4,1,1,15,0,0
93808.22656,-489.8643875,4,1,1,15,0,0
93823.125,-478.103671,4,1,1,15,0,0
93837.97656,-466.7885165,4,1,1,15,0,0
93852.78906,-455.8954853,4,1,1,15,0,0
93867.5625,-445.4028419,4,1,1,15,0,0
93882.28906,-435.2901984,4,1,1,15,0,0
93896.97656,-425.5385268,4,1,1,15,0,0
93911.61719,-416.129995,4,1,1,15,0,0
93926.21875,-407.0479752,4,1,1,15,0,0
93940.78125,-398.2767754,4,1,1,15,0,0
93955.29688,-389.8017629,4,1,1,15,0,0
93969.77344,-381.6091201,4,1,1,15,0,0
93984.21094,-373.6858769,4,1,1,15,0,0
93998.60156,-366.0198262,4,1,1,15,0,0
94012.95313,-358.5994688,4,1,1,15,0,0
94027.26563,-351.4139638,4,1,1,15,0,0
94041.53125,-344.4530823,4,1,1,15,0,0
94055.75781,-337.7071655,4,1,1,15,0,0
94069.94531,-331.1670859,4,1,1,15,0,0
94084.08594,-324.8242115,4,1,1,15,0,0
94098.1875,-318.6703732,4,1,1,15,0,0
94112.24219,-312.6978345,4,1,1,15,0,0
94126.25781,-306.8992634,4,1,1,15,0,0
94140.23438,-301.2677071,4,1,1,15,0,0
94154.16406,-295.7965675,4,1,1,15,0,0
94168.05469,-290.4795795,4,1,1,15,0,0
94181.90625,-285.3107904,4,1,1,15,0,0
94195.71094,-280.284541,4,1,1,15,0,0
94209.47656,-275.3954707,4,1,1,15,0,0
94223.20313,-270.6384093,4,1,1,15,0,0
94236.88281,-266.0085008,4,1,1,15,0,0
94250.52344,-261.5010955,4,1,1,15,0,0
94264.125,-257.1117604,4,1,1,15,0,0
94277.67969,-252.8362674,4,1,1,15,0,0
94291.19531,-248.6705811,4,1,1,15,0,0
94304.66406,-244.6108664,4,1,1,15,0,0
94318.09375,-240.6534064,4,1,1,15,0,0
94331.48438,-236.7947017,4,1,1,15,0,0
94344.83594,-233.0313886,4,1,1,15,0,0
94358.14063,-229.3602494,4,1,1,15,0,0
94371.39844,-225.7782197,4,1,1,15,0,0
94384.625,-222.28232,4,1,1,15,0,0
94397.80469,-218.8697416,4,1,1,15,0,0
94410.9375,-215.5377779,4,1,1,15,0,0
94424.03906,-212.2838478,4,1,1,15,0,0
94437.08594,-209.1054355,4,1,1,15,0,0
94450.10156,-206.0001672,4,1,1,15,0,0
94463.07031,-202.9657638,4,1,1,15,0,0
94476,-200,4,1,1,15,0,0
95226,-19.96007984,4,1,1,15,0,0
95243.326,-10000,4,1,1,15,0,0
95413,-200,4,1,1,15,0,0
96726,-19.96007984,4,1,1,15,0,0
96743.326,-10000,4,1,1,15,0,0
96913,-200,4,1,1,15,0,0
98226,-19.96007984,4,1,1,15,0,0
98243.326,-10000,4,1,1,15,0,0
98413,-200,4,1,1,15,0,0
99726,-19.96007984,4,1,1,15,0,0
99743.326,-10000,4,1,1,15,0,0
99913,-200,4,1,1,15,0,0
101226,-19.96007984,4,1,1,15,0,0
101243.326,-10000,4,1,1,15,0,0
101413,-200,4,1,1,15,0,0
102726,-19.96007984,4,1,1,15,0,0
102743.326,-10000,4,1,1,15,0,0
102913,-200,4,1,1,15,0,0
104226,-19.96007984,4,1,1,15,0,0
104243.326,-10000,4,1,1,15,0,0
104413,-200,4,1,1,15,0,0
105726,-19.96007984,4,1,1,15,0,0
105743.326,-10000,4,1,1,15,0,0
105913,-200,4,1,1,15,0,0
107226,-19.96007984,4,1,1,15,0,0
107243.326,-10000,4,1,1,15,0,0
107413,-200,4,1,1,15,0,0
108726,-19.96007984,4,1,1,15,0,0
108743.326,-10000,4,1,1,15,0,0
108913,-200,4,1,1,15,0,0
110226,-19.96007984,4,1,1,15,0,0
110243.326,-10000,4,1,1,15,0,0
110413,-200,4,1,1,15,0,0
111726,-19.96007984,4,1,1,15,0,0
111743.326,-10000,4,1,1,15,0,0
111913,-200,4,1,1,15,0,0
113226,-19.96007984,4,1,1,15,0,0
113243.326,-10000,4,1,1,15,0,0
113413,-200,4,1,1,15,0,0
114726,-19.96007984,4,1,1,15,0,0
114743.326,-10000,4,1,1,15,0,0
114913,-200,4,1,1,15,0,0
116226,-19.96007984,4,1,1,15,0,0
116243.326,-10000,4,1,1,15,0,0
116413,-200,4,1,1,15,0,0
117726,-19.96007984,4,1,1,15,0,0
117743.326,-10000,4,1,1,15,0,0
117913,-200,4,1,1,15,0,0
118476,-200,4,1,1,15,0,0
118506,-206.6115714,4,1,1,15,0,0
118536,-213.6752161,4,1,1,15,0,0
118566,-221.2389419,4,1,1,15,0,0
118596,-229.3578037,4,1,1,15,0,0
118626,-238.0952455,4,1,1,15,0,0
118656,-247.5247439,4,1,1,15,0,0
118686,-257.7319512,4,1,1,15,0,0
118716,-268.8171979,4,1,1,15,0,0
118746,-280.8988715,4,1,1,15,0,0
118776,-294.117644,4,1,1,15,0,0
118806,-308.6419744,4,1,1,15,0,0
118836,-324.6753264,4,1,1,15,0,0
118866,-342.4657585,4,1,1,15,0,0
118896,-362.3188497,4,1,1,15,0,0
118926,-384.6153987,4,1,1,15,0,0
118956,-409.836061,4,1,1,15,0,0
118986,-438.596491,4,1,1,15,0,0
119016,-471.6981188,4,1,1,15,0,0
119046,-510.204095,4,1,1,15,0,0
119076,-555.5555335,4,1,1,15,0,0
119106,-609.7560807,4,1,1,15,0,0
119136,-675.675667,4,1,1,15,0,0
119166,-757.5757617,4,1,1,15,0,0
119196,-862.068935,4,1,1,15,0,0
119226,-999.9999851,4,1,1,15,0,0
119976,-333.333333333333,4,1,1,15,0,0
130476,-129.8701299,4,1,1,15,0,0
130522.75,-697.6744186,4,1,1,15,0,0
130663,-333.3333333,4,1,1,15,0,0
130851,-129.8701299,4,1,1,15,0,0
130897.75,-697.6744186,4,1,1,15,0,0
131038,-333.3333333,4,1,1,15,0,0
131226,-129.8701299,4,1,1,15,0,0
131272.75,-697.6744186,4,1,1,15,0,0
131413,-129.8701299,4,1,1,15,0,0
131459.75,-697.6744186,4,1,1,15,0,0
131600,-333.3333333,4,1,1,15,0,0
131601,-129.8701299,4,1,1,15,0,0
131647.75,-697.6744186,4,1,1,15,0,0
131788,-333.3333333,4,1,1,15,0,0
131976,-129.8701299,4,1,1,15,0,0
132022.75,-697.6744186,4,1,1,15,0,0
132163,-333.3333333,4,1,1,15,0,0
132351,-129.8701299,4,1,1,15,0,0
132397.75,-697.6744186,4,1,1,15,0,0
132538,-333.3333333,4,1,1,15,0,0
132726,-129.8701299,4,1,1,15,0,0
132772.75,-697.6744186,4,1,1,15,0,0
132913,-333.3333333,4,1,1,15,0,0
133101,-129.8701299,4,1,1,15,0,0
133147.75,-697.6744186,4,1,1,15,0,0
133288,-333.3333333,4,1,1,15,0,0
133476,-129.8701299,4,1,1,15,0,0
133522.75,-697.6744186,4,1,1,15,0,0
133663,-333.3333333,4,1,1,15,0,0
133851,-129.8701299,4,1,1,15,0,0
133897.75,-697.6744186,4,1,1,15,0,0
134038,-333.3333333,4,1,1,15,0,0
134226,-129.8701299,4,1,1,15,0,0
134272.75,-697.6744186,4,1,1,15,0,0
134413,-333.3333333,4,1,1,15,0,0
134601,-129.8701299,4,1,1,15,0,0
134647.75,-697.6744186,4,1,1,15,0,0
134788,-129.8701299,4,1,1,15,0,0
134834.75,-697.6744186,4,1,1,15,0,0
134976,-129.8701299,4,1,1,15,0,0
135022.75,-697.6744186,4,1,1,15,0,0
135163,-333.3333333,4,1,1,15,0,0
135351,-129.8701299,4,1,1,15,0,0
135397.75,-697.6744186,4,1,1,15,0,0
135538,-333.3333333,4,1,1,15,0,0
135726,-129.8701299,4,1,1,15,0,0
135772.75,-697.6744186,4,1,1,15,0,0
135913,-333.3333333,4,1,1,15,0,0
136101,-129.8701299,4,1,1,15,0,0
136147.75,-697.6744186,4,1,1,15,0,0
136288,-129.8701299,4,1,1,15,0,0
136334.75,-697.6744186,4,1,1,15,0,0
136476,-40,4,1,1,15,0,0
136494,-10000,4,1,1,15,0,0
136663.4688,-37.49999888,4,1,1,15,0,0
136681.4688,-10000,4,1,1,15,0,0
136850.9375,-35.29411864,4,1,1,15,0,0
136868.9375,-10000,4,1,1,15,0,0
137038.4063,-33.33333333,4,1,1,15,0,0
137056.4063,-10000,4,1,1,15,0,0
137225.8594,-31.57894658,4,1,1,15,0,0
137243.8594,-10000,4,1,1,15,0,0
137413.3281,-30.00000072,4,1,1,15,0,0
137431.3281,-10000,4,1,1,15,0,0
137600.7969,-28.57142857,4,1,1,15,0,0
137618.7969,-10000,4,1,1,15,0,0
137788.2656,-27.27272668,4,1,1,15,0,0
137806.2656,-10000,4,1,1,15,0,0
137975.7344,-26.08695706,4,1,1,15,0,0
137993.7344,-10000,4,1,1,15,0,0
138163.2031,-25,4,1,1,15,0,0
138181.2031,-10000,4,1,1,15,0,0
138350.6719,-24.00000092,4,1,1,15,0,0
138368.6719,-10000,4,1,1,15,0,0
138538.1406,-23.07692223,4,1,1,15,0,0
138556.1406,-10000,4,1,1,15,0,0
138725.5938,-22.22222222,4,1,1,15,0,0
138743.5938,-10000,4,1,1,15,0,0
138913.0625,-21.42857216,4,1,1,15,0,0
138931.0625,-10000,4,1,1,15,0,0
139100.5313,-20.68965449,4,1,1,15,0,0
139118.5313,-10000,4,1,1,15,0,0
139288,-20,4,1,1,15,0,0
139306,-10000,4,1,1,15,0,0
139476,-10.09081751,4,1,1,15,0,0
139485,-10000,4,1,1,15,0,0
139569.7344,-10.73422071,4,1,1,15,0,0
139578.7344,-1315.789516,4,1,1,15,0,0
139663.4688,-11.4652601,4,1,1,15,0,0
139672.4688,-704.2253291,4,1,1,15,0,0
139757.2031,-12.30314921,4,1,1,15,0,0
139766.2031,-480.7692208,4,1,1,15,0,0
139850.9375,-13.27316181,4,1,1,15,0,0
139859.9375,-364.9635183,4,1,1,15,0,0
139944.6719,-14.40922178,4,1,1,15,0,0
139953.6719,-294.117644,4,1,1,15,0,0
140038.4063,-15.75795847,4,1,1,15,0,0
140047.4063,-246.3054258,4,1,1,15,0,0
140132.1406,-17.38525774,4,1,1,15,0,0
140141.1406,-211.8644055,4,1,1,15,0,0
140225.8594,-19.38735947,4,1,1,15,0,0
140234.8594,-185.8736102,4,1,1,15,0,0
140319.5938,-21.91060411,4,1,1,15,0,0
140328.5938,-165.5629215,4,1,1,15,0,0
140413.3281,-25.1889167,4,1,1,15,0,0
140422.3281,-149.2537276,4,1,1,15,0,0
140507.0625,-29.62085372,4,1,1,15,0,0
140516.0625,-135.869565,4,1,1,15,0,0
140600.7969,-35.94536221,4,1,1,15,0,0
140609.7969,-124.6882815,4,1,1,15,0,0
140694.5313,-45.70383988,4,1,1,15,0,0
140703.5313,-115.2073771,4,1,1,15,0,0
140788.2656,-62.73525793,4,1,1,15,0,0
140797.2656,-107.0663794,4,1,1,15,0,0
140882,-100,4,1,1,15,0,0
140891,-100,4,1,1,15,0,0
140976,-10000,4,1,1,15,0,0
141054.9688,-8211.707924,4,1,1,15,0,0
141132.375,-5722.790775,4,1,1,15,0,0
141208.1719,-3862.678561,4,1,1,15,0,0
141282.4063,-2672.219743,4,1,1,15,0,0
141355.0625,-1920.347963,4,1,1,15,0,0
141426.125,-1431.757325,4,1,1,15,0,0
141495.6094,-1102.133579,4,1,1,15,0,0
141563.5156,-871.5318604,4,1,1,15,0,0
141629.8438,-704.8885389,4,1,1,15,0,0
141694.5938,-581.0209259,4,1,1,15,0,0
141757.75,-486.6800642,4,1,1,15,0,0
141819.3281,-413.299515,4,1,1,15,0,0
141879.3281,-355.1700585,4,1,1,15,0,0
141937.75,-308.3813789,4,1,1,15,0,0
141994.5938,-270.1893306,4,1,1,15,0,0
142049.8438,-238.6256692,4,1,1,15,0,0
142103.5156,-212.2509085,4,1,1,15,0,0
142155.6094,-189.9937534,4,1,1,15,0,0
142206.125,-171.0441839,4,1,1,15,0,0
142255.0625,-154.7810605,4,1,1,15,0,0
142302.4063,-140.7217759,4,1,1,15,0,0
142348.1719,-128.487012,4,1,1,15,0,0
142392.375,-117.7753638,4,1,1,15,0,0
142434.9688,-108.3449742,4,1,1,15,0,0
142476,-10000,4,1,1,15,0,1
142495.2305,-10000,4,1,1,15,0,1
142512.4883,-10000,4,1,1,15,0,1
142528.0078,-9896.781648,4,1,1,15,0,1
142542.0391,-9179.234076,4,1,1,15,0,1
142554.8359,-8102.263867,4,1,1,15,0,1
142566.6406,-6722.039945,4,1,1,15,0,1
142577.7031,-5219.012193,4,1,1,15,0,1
142588.2656,-3825.553517,4,1,1,15,0,1
142598.5586,-2696.487405,4,1,1,15,0,1
142608.8047,-1864.331902,4,1,1,15,0,1
142619.2148,-1284.39443,4,1,1,15,0,1
142629.9883,-890.7745861,4,1,1,15,0,1
142641.3008,-625.4849105,4,1,1,15,0,1
142653.3125,-445.8789945,4,1,1,15,0,1
142666.1641,-322.9616688,4,1,1,15,0,1
142679.9648,-237.663154,4,1,1,15,0,1
142694.8086,-177.5684517,4,1,1,15,0,1
142710.7539,-134.5781066,4,1,1,15,0,1
142727.8242,-103.3624747,4,1,1,15,0,1
142746.0156,-80.37236112,4,1,1,15,0,1
142765.293,-63.21211999,4,1,1,15,0,1
142785.5703,-50.24185977,4,1,1,15,0,1
142806.7266,-40.32322772,4,1,1,15,0,1
142828.6094,-32.65518908,4,1,1,15,0,1
142851,-10000,4,1,1,15,0,1
142870.2305,-10000,4,1,1,15,0,1
142887.4883,-10000,4,1,1,15,0,1
142903.0078,-9896.781648,4,1,1,15,0,1
142917.0391,-9179.234076,4,1,1,15,0,1
142929.8359,-8102.263867,4,1,1,15,0,1
142941.6406,-6722.039945,4,1,1,15,0,1
142952.7031,-5219.012193,4,1,1,15,0,1
142963.2656,-3825.553517,4,1,1,15,0,1
142973.5586,-2696.487405,4,1,1,15,0,1
142983.8047,-1864.331902,4,1,1,15,0,1
142994.2148,-1284.39443,4,1,1,15,0,1
143004.9883,-890.7745861,4,1,1,15,0,1
143016.3008,-625.4849105,4,1,1,15,0,1
143028.3125,-445.8789945,4,1,1,15,0,1
143041.1641,-322.9616688,4,1,1,15,0,1
143054.9648,-237.663154,4,1,1,15,0,1
143069.8086,-177.5684517,4,1,1,15,0,1
143085.7539,-134.5781066,4,1,1,15,0,1
143102.8242,-103.3624747,4,1,1,15,0,1
143121.0156,-80.37236112,4,1,1,15,0,1
143140.293,-63.21211999,4,1,1,15,0,1
143160.5703,-50.24185977,4,1,1,15,0,1
143181.7266,-40.32322772,4,1,1,15,0,1
143203.6094,-32.65518908,4,1,1,15,0,1
143226,-14.20454545,4,1,1,15,0,1
143244.326,-1501.331558,4,1,1,15,0,1
143413,-10000,4,1,1,15,0,1
143581.824,-13.76481067,4,1,1,15,0,1
143601,-10000,4,1,1,15,0,1
143620.2305,-10000,4,1,1,15,0,1
143637.4883,-10000,4,1,1,15,0,1
143653.0078,-9896.781648,4,1,1,15,0,1
143667.0391,-9179.234076,4,1,1,15,0,1
143679.8359,-8102.263867,4,1,1,15,0,1
143691.6406,-6722.039945,4,1,1,15,0,1
143702.7031,-5219.012193,4,1,1,15,0,1
143713.2656,-3825.553517,4,1,1,15,0,1
143723.5586,-2696.487405,4,1,1,15,0,1
143733.8047,-1864.331902,4,1,1,15,0,1
143744.2148,-1284.39443,4,1,1,15,0,1
143754.9883,-890.7745861,4,1,1,15,0,1
143766.3008,-625.4849105,4,1,1,15,0,1
143778.3125,-445.8789945,4,1,1,15,0,1
143791.1641,-322.9616688,4,1,1,15,0,1
143804.9648,-237.663154,4,1,1,15,0,1
143819.8086,-177.5684517,4,1,1,15,0,1
143835.7539,-134.5781066,4,1,1,15,0,1
143852.8242,-103.3624747,4,1,1,15,0,1
143871.0156,-80.37236112,4,1,1,15,0,1
143890.293,-63.21211999,4,1,1,15,0,1
143910.5703,-50.24185977,4,1,1,15,0,1
143931.7266,-40.32322772,4,1,1,15,0,1
143953.6094,-32.65518908,4,1,1,15,0,1
143976,-10000,4,1,1,15,0,1
143995.2305,-10000,4,1,1,15,0,1
144012.4883,-10000,4,1,1,15,0,1
144028.0078,-9896.781648,4,1,1,15,0,1
144042.0391,-9179.234076,4,1,1,15,0,1
144054.8359,-8102.263867,4,1,1,15,0,1
144066.6406,-6722.039945,4,1,1,15,0,1
144077.7031,-5219.012193,4,1,1,15,0,1
144088.2656,-3825.553517,4,1,1,15,0,1
144098.5586,-2696.487405,4,1,1,15,0,1
144108.8047,-1864.331902,4,1,1,15,0,1
144119.2148,-1284.39443,4,1,1,15,0,1
144129.9883,-890.7745861,4,1,1,15,0,1
144141.3008,-625.4849105,4,1,1,15,0,1
144153.3125,-445.8789945,4,1,1,15,0,1
144166.1641,-322.9616688,4,1,1,15,0,1
144179.9648,-237.663154,4,1,1,15,0,1
144194.8086,-177.5684517,4,1,1,15,0,1
144210.7539,-134.5781066,4,1,1,15,0,1
144227.8242,-103.3624747,4,1,1,15,0,1
144246.0156,-80.37236112,4,1,1,15,0,1
144265.293,-63.21211999,4,1,1,15,0,1
144285.5703,-50.24185977,4,1,1,15,0,1
144306.7266,-40.32322772,4,1,1,15,0,1
144328.6094,-32.65518908,4,1,1,15,0,1
144351,-10000,4,1,1,15,0,1
144370.2305,-10000,4,1,1,15,0,1
144387.4883,-10000,4,1,1,15,0,1
144403.0078,-9896.781648,4,1,1,15,0,1
144417.0391,-9179.234076,4,1,1,15,0,1
144429.8359,-8102.263867,4,1,1,15,0,1
144441.6406,-6722.039945,4,1,1,15,0,1
144452.7031,-5219.012193,4,1,1,15,0,1
144463.2656,-3825.553517,4,1,1,15,0,1
144473.5586,-2696.487405,4,1,1,15,0,1
144483.8047,-1864.331902,4,1,1,15,0,1
144494.2148,-1284.39443,4,1,1,15,0,1
144504.9883,-890.7745861,4,1,1,15,0,1
144516.3008,-625.4849105,4,1,1,15,0,1
144528.3125,-445.8789945,4,1,1,15,0,1
144541.1641,-322.9616688,4,1,1,15,0,1
144554.9648,-237.663154,4,1,1,15,0,1
144569.8086,-177.5684517,4,1,1,15,0,1
144585.7539,-134.5781066,4,1,1,15,0,1
144602.8242,-103.3624747,4,1,1,15,0,1
144621.0156,-80.37236112,4,1,1,15,0,1
144640.293,-63.21211999,4,1,1,15,0,1
144660.5703,-50.24185977,4,1,1,15,0,1
144681.7266,-40.32322772,4,1,1,15,0,1
144703.6094,-32.65518908,4,1,1,15,0,1
144726,-10000,4,1,1,15,0,1
144745.2305,-10000,4,1,1,15,0,1
144762.4883,-10000,4,1,1,15,0,1
144778.0078,-9896.781648,4,1,1,15,0,1
144792.0391,-9179.234076,4,1,1,15,0,1
144804.8359,-8102.263867,4,1,1,15,0,1
144816.6406,-6722.039945,4,1,1,15,0,1
144827.7031,-5219.012193,4,1,1,15,0,1
144838.2656,-3825.553517,4,1,1,15,0,1
144848.5586,-2696.487405,4,1,1,15,0,1
144858.8047,-1864.331902,4,1,1,15,0,1
144869.2148,-1284.39443,4,1,1,15,0,1
144879.9883,-890.7745861,4,1,1,15,0,1
144891.3008,-625.4849105,4,1,1,15,0,1
144903.3125,-445.8789945,4,1,1,15,0,1
144916.1641,-322.9616688,4,1,1,15,0,1
144929.9648,-237.663154,4,1,1,15,0,1
144944.8086,-177.5684517,4,1,1,15,0,1
144960.7539,-134.5781066,4,1,1,15,0,1
144977.8242,-103.3624747,4,1,1,15,0,1
144996.0156,-80.37236112,4,1,1,15,0,1
145015.293,-63.21211999,4,1,1,15,0,1
145035.5703,-50.24185977,4,1,1,15,0,1
145056.7266,-40.32322772,4,1,1,15,0,1
145078.6094,-32.65518908,4,1,1,15,0,1
145101,-10000,4,1,1,15,0,1
145120.2305,-10000,4,1,1,15,0,1
145137.4883,-10000,4,1,1,15,0,1
145153.0078,-9896.781648,4,1,1,15,0,1
145167.0391,-9179.234076,4,1,1,15,0,1
145179.8359,-8102.263867,4,1,1,15,0,1
145191.6406,-6722.039945,4,1,1,15,0,1
145202.7031,-5219.012193,4,1,1,15,0,1
145213.2656,-3825.553517,4,1,1,15,0,1
145223.5586,-2696.487405,4,1,1,15,0,1
145233.8047,-1864.331902,4,1,1,15,0,1
145244.2148,-1284.39443,4,1,1,15,0,1
145254.9883,-890.7745861,4,1,1,15,0,1
145266.3008,-625.4849105,4,1,1,15,0,1
145278.3125,-445.8789945,4,1,1,15,0,1
145291.1641,-322.9616688,4,1,1,15,0,1
145304.9648,-237.663154,4,1,1,15,0,1
145319.8086,-177.5684517,4,1,1,15,0,1
145335.7539,-134.5781066,4,1,1,15,0,1
145352.8242,-103.3624747,4,1,1,15,0,1
145371.0156,-80.37236112,4,1,1,15,0,1
145390.293,-63.21211999,4,1,1,15,0,1
145410.5703,-50.24185977,4,1,1,15,0,1
145431.7266,-40.32322772,4,1,1,15,0,1
145453.6094,-32.65518908,4,1,1,15,0,1
145476,-10000,4,1,1,15,0,1
145495.2305,-10000,4,1,1,15,0,1
145512.4883,-10000,4,1,1,15,0,1
145528.0078,-9896.781648,4,1,1,15,0,1
145542.0391,-9179.234076,4,1,1,15,0,1
145554.8359,-8102.263867,4,1,1,15,0,1
145566.6406,-6722.039945,4,1,1,15,0,1
145577.7031,-5219.012193,4,1,1,15,0,1
145588.2656,-3825.553517,4,1,1,15,0,1
145598.5586,-2696.487405,4,1,1,15,0,1
145608.8047,-1864.331902,4,1,1,15,0,1
145619.2148,-1284.39443,4,1,1,15,0,1
145629.9883,-890.7745861,4,1,1,15,0,1
145641.3008,-625.4849105,4,1,1,15,0,1
145653.3125,-445.8789945,4,1,1,15,0,1
145666.1641,-322.9616688,4,1,1,15,0,1
145679.9648,-237.663154,4,1,1,15,0,1
145694.8086,-177.5684517,4,1,1,15,0,1
145710.7539,-134.5781066,4,1,1,15,0,1
145727.8242,-103.3624747,4,1,1,15,0,1
145746.0156,-80.37236112,4,1,1,15,0,1
145765.293,-63.21211999,4,1,1,15,0,1
145785.5703,-50.24185977,4,1,1,15,0,1
145806.7266,-40.32322772,4,1,1,15,0,1
145828.6094,-32.65518908,4,1,1,15,0,1
145851,-10000,4,1,1,15,0,1
145870.2305,-10000,4,1,1,15,0,1
145887.4883,-10000,4,1,1,15,0,1
145903.0078,-9896.781648,4,1,1,15,0,1
145917.0391,-9179.234076,4,1,1,15,0,1
145929.8359,-8102.263867,4,1,1,15,0,1
145941.6406,-6722.039945,4,1,1,15,0,1
145952.7031,-5219.012193,4,1,1,15,0,1
145963.2656,-3825.553517,4,1,1,15,0,1
145973.5586,-2696.487405,4,1,1,15,0,1
145983.8047,-1864.331902,4,1,1,15,0,1
145994.2148,-1284.39443,4,1,1,15,0,1
146004.9883,-890.7745861,4,1,1,15,0,1
146016.3008,-625.4849105,4,1,1,15,0,1
146028.3125,-445.8789945,4,1,1,15,0,1
146041.1641,-322.9616688,4,1,1,15,0,1
146054.9648,-237.663154,4,1,1,15,0,1
146069.8086,-177.5684517,4,1,1,15,0,1
146085.7539,-134.5781066,4,1,1,15,0,1
146102.8242,-103.3624747,4,1,1,15,0,1
146121.0156,-80.37236112,4,1,1,15,0,1
146140.293,-63.21211999,4,1,1,15,0,1
146160.5703,-50.24185977,4,1,1,15,0,1
146181.7266,-40.32322772,4,1,1,15,0,1
146203.6094,-32.65518908,4,1,1,15,0,1
146226,-10000,4,1,1,15,0,1
146245.2305,-10000,4,1,1,15,0,1
146262.4883,-10000,4,1,1,15,0,1
146278.0078,-9896.781648,4,1,1,15,0,1
146292.0391,-9179.234076,4,1,1,15,0,1
146304.8359,-8102.263867,4,1,1,15,0,1
146316.6406,-6722.039945,4,1,1,15,0,1
146327.7031,-5219.012193,4,1,1,15,0,1
146338.2656,-3825.553517,4,1,1,15,0,1
146348.5586,-2696.487405,4,1,1,15,0,1
146358.8047,-1864.331902,4,1,1,15,0,1
146369.2148,-1284.39443,4,1,1,15,0,1
146379.9883,-890.7745861,4,1,1,15,0,1
146391.3008,-625.4849105,4,1,1,15,0,1
146403.3125,-445.8789945,4,1,1,15,0,1
146416.1641,-322.9616688,4,1,1,15,0,1
146429.9648,-237.663154,4,1,1,15,0,1
146444.8086,-177.5684517,4,1,1,15,0,1
146460.7539,-134.5781066,4,1,1,15,0,1
146477.8242,-103.3624747,4,1,1,15,0,1
146496.0156,-80.37236112,4,1,1,15,0,1
146515.293,-63.21211999,4,1,1,15,0,1
146535.5703,-50.24185977,4,1,1,15,0,1
146556.7266,-40.32322772,4,1,1,15,0,1
146578.6094,-32.65518908,4,1,1,15,0,1
146601,-14.20454545,4,1,1,15,0,1
146619.326,-1501.331558,4,1,1,15,0,1
146788,-10000,4,1,1,15,0,1
146797.6406,-10000,4,1,1,15,0,1
146806.293,-10000,4,1,1,15,0,1
146814.0703,-9896.781648,4,1,1,15,0,1
146821.1055,-9179.234076,4,1,1,15,0,1
146827.5234,-8102.263867,4,1,1,15,0,1
146833.4414,-6722.039945,4,1,1,15,0,1
146838.9883,-5219.012193,4,1,1,15,0,1
146844.2813,-3825.553517,4,1,1,15,0,1
146849.4414,-2696.487405,4,1,1,15,0,1
146854.5781,-1864.331902,4,1,1,15,0,1
146859.7969,-1284.39443,4,1,1,15,0,1
146865.1992,-890.7745861,4,1,1,15,0,1
146870.8711,-625.4849105,4,1,1,15,0,1
146876.8906,-445.8789945,4,1,1,15,0,1
146883.3359,-322.9616688,4,1,1,15,0,1
146890.2539,-237.663154,4,1,1,15,0,1
146897.6953,-177.5684517,4,1,1,15,0,1
146905.6914,-134.5781066,4,1,1,15,0,1
146914.2461,-103.3624747,4,1,1,15,0,1
146923.3672,-80.37236112,4,1,1,15,0,1
146933.0313,-63.21211999,4,1,1,15,0,1
146943.1953,-50.24185977,4,1,1,15,0,1
146953.8047,-40.32322772,4,1,1,15,0,1
146964.7734,-32.65518908,4,1,1,15,0,1
146976,-10000,4,1,1,15,0,1
146995.2305,-10000,4,1,1,15,0,1
147012.4883,-10000,4,1,1,15,0,1
147028.0078,-9896.781648,4,1,1,15,0,1
147042.0391,-9179.234076,4,1,1,15,0,1
147054.8359,-8102.263867,4,1,1,15,0,1
147066.6406,-6722.039945,4,1,1,15,0,1
147077.7031,-5219.012193,4,1,1,15,0,1
147088.2656,-3825.553517,4,1,1,15,0,1
147098.5586,-2696.487405,4,1,1,15,0,1
147108.8047,-1864.331902,4,1,1,15,0,1
147119.2148,-1284.39443,4,1,1,15,0,1
147129.9883,-890.7745861,4,1,1,15,0,1
147141.3008,-625.4849105,4,1,1,15,0,1
147153.3125,-445.8789945,4,1,1,15,0,1
147166.1641,-322.9616688,4,1,1,15,0,1
147179.9648,-237.663154,4,1,1,15,0,1
147194.8086,-177.5684517,4,1,1,15,0,1
147210.7539,-134.5781066,4,1,1,15,0,1
147227.8242,-103.3624747,4,1,1,15,0,1
147246.0156,-80.37236112,4,1,1,15,0,1
147265.293,-63.21211999,4,1,1,15,0,1
147285.5703,-50.24185977,4,1,1,15,0,1
147306.7266,-40.32322772,4,1,1,15,0,1
147328.6094,-32.65518908,4,1,1,15,0,1
147351,-10000,4,1,1,15,0,1
147370.2305,-10000,4,1,1,15,0,1
147387.4883,-10000,4,1,1,15,0,1
147403.0078,-9896.781648,4,1,1,15,0,1
147417.0391,-9179.234076,4,1,1,15,0,1
147429.8359,-8102.263867,4,1,1,15,0,1
147441.6406,-6722.039945,4,1,1,15,0,1
147452.7031,-5219.012193,4,1,1,15,0,1
147463.2656,-3825.553517,4,1,1,15,0,1
147473.5586,-2696.487405,4,1,1,15,0,1
147483.8047,-1864.331902,4,1,1,15,0,1
147494.2148,-1284.39443,4,1,1,15,0,1
147504.9883,-890.7745861,4,1,1,15,0,1
147516.3008,-625.4849105,4,1,1,15,0,1
147528.3125,-445.8789945,4,1,1,15,0,1
147541.1641,-322.9616688,4,1,1,15,0,1
147554.9648,-237.663154,4,1,1,15,0,1
147569.8086,-177.5684517,4,1,1,15,0,1
147585.7539,-134.5781066,4,1,1,15,0,1
147602.8242,-103.3624747,4,1,1,15,0,1
147621.0156,-80.37236112,4,1,1,15,0,1
147640.293,-63.21211999,4,1,1,15,0,1
147660.5703,-50.24185977,4,1,1,15,0,1
147681.7266,-40.32322772,4,1,1,15,0,1
147703.6094,-32.65518908,4,1,1,15,0,1
147726,-10000,4,1,1,15,0,1
147745.2305,-10000,4,1,1,15,0,1
147762.4883,-10000,4,1,1,15,0,1
147778.0078,-9896.781648,4,1,1,15,0,1
147792.0391,-9179.234076,4,1,1,15,0,1
147804.8359,-8102.263867,4,1,1,15,0,1
147816.6406,-6722.039945,4,1,1,15,0,1
147827.7031,-5219.012193,4,1,1,15,0,1
147838.2656,-3825.553517,4,1,1,15,0,1
147848.5586,-2696.487405,4,1,1,15,0,1
147858.8047,-1864.331902,4,1,1,15,0,1
147869.2148,-1284.39443,4,1,1,15,0,1
147879.9883,-890.7745861,4,1,1,15,0,1
147891.3008,-625.4849105,4,1,1,15,0,1
147903.3125,-445.8789945,4,1,1,15,0,1
147916.1641,-322.9616688,4,1,1,15,0,1
147929.9648,-237.663154,4,1,1,15,0,1
147944.8086,-177.5684517,4,1,1,15,0,1
147960.7539,-134.5781066,4,1,1,15,0,1
147977.8242,-103.3624747,4,1,1,15,0,1
147996.0156,-80.37236112,4,1,1,15,0,1
148015.293,-63.21211999,4,1,1,15,0,1
148035.5703,-50.24185977,4,1,1,15,0,1
148056.7266,-40.32322772,4,1,1,15,0,1
148078.6094,-32.65518908,4,1,1,15,0,1
148101,-69.44444168,4,1,1,15,0,1
148108.4805,-72.31703255,4,1,1,15,0,1
148115.9609,-75.43753612,4,1,1,15,0,1
148123.4414,-78.83947827,4,1,1,15,0,1
148130.9219,-82.56274777,4,1,1,15,0,1
148138.3984,-86.65510936,4,1,1,15,0,1
148145.8789,-91.17431792,4,1,1,15,0,1
148153.3594,-96.19084127,4,1,1,15,0,1
148160.8398,-101.7915248,4,1,1,15,0,1
148168.3203,-108.0847332,4,1,1,15,0,1
148175.8008,-115.2073692,4,1,1,15,0,1
148183.2813,-123.3349754,4,1,1,15,0,1
148190.7617,-132.6963904,4,1,1,15,0,1
148198.2383,-143.5956251,4,1,1,15,0,1
148205.7188,-156.4455492,4,1,1,15,0,1
148213.1992,-171.8213008,4,1,1,15,0,1
148220.6797,-190.5487796,4,1,1,15,0,1
148228.1602,-213.8579902,4,1,1,15,0,1
148235.6406,-243.6647155,4,1,1,15,0,1
148243.1211,-283.1256931,4,1,1,15,0,1
148250.6016,-337.8378335,4,1,1,15,0,1
148258.0781,-418.7604618,4,1,1,15,0,1
148265.5586,-550.6607795,4,1,1,15,0,1
148273.0391,-803.8584902,4,1,1,15,0,1
148280.5195,-1488.095126,4,1,1,15,0,1
148288,-10000,4,1,1,15,0,1
148297.6406,-10000,4,1,1,15,0,1
148306.293,-10000,4,1,1,15,0,1
148314.0703,-9896.781648,4,1,1,15,0,1
148321.1055,-9179.234076,4,1,1,15,0,1
148327.5234,-8102.263867,4,1,1,15,0,1
148333.4414,-6722.039945,4,1,1,15,0,1
148338.9883,-5219.012193,4,1,1,15,0,1
148344.2813,-3825.553517,4,1,1,15,0,1
148349.4414,-2696.487405,4,1,1,15,0,1
148354.5781,-1864.331902,4,1,1,15,0,1
148359.7969,-1284.39443,4,1,1,15,0,1
148365.1992,-890.7745861,4,1,1,15,0,1
148370.8711,-625.4849105,4,1,1,15,0,1
148376.8906,-445.8789945,4,1,1,15,0,1
148383.3359,-322.9616688,4,1,1,15,0,1
148390.2539,-237.663154,4,1,1,15,0,1
148397.6953,-177.5684517,4,1,1,15,0,1
148405.6914,-134.5781066,4,1,1,15,0,1
148414.2461,-103.3624747,4,1,1,15,0,1
148423.3672,-80.37236112,4,1,1,15,0,1
148433.0313,-63.21211999,4,1,1,15,0,1
148443.1953,-50.24185977,4,1,1,15,0,1
148453.8047,-40.32322772,4,1,1,15,0,1
148464.7734,-32.65518908,4,1,1,15,0,1
148476,-10000,4,1,1,15,0,1
148495.2305,-10000,4,1,1,15,0,1
148512.4883,-10000,4,1,1,15,0,1
148528.0078,-9896.781648,4,1,1,15,0,1
148542.0391,-9179.234076,4,1,1,15,0,1
148554.8359,-8102.263867,4,1,1,15,0,1
148566.6406,-6722.039945,4,1,1,15,0,1
148577.7031,-5219.012193,4,1,1,15,0,1
148588.2656,-3825.553517,4,1,1,15,0,1
148598.5586,-2696.487405,4,1,1,15,0,1
148608.8047,-1864.331902,4,1,1,15,0,1
148619.2148,-1284.39443,4,1,1,15,0,1
148629.9883,-890.7745861,4,1,1,15,0,1
148641.3008,-625.4849105,4,1,1,15,0,1
148653.3125,-445.8789945,4,1,1,15,0,1
148666.1641,-322.9616688,4,1,1,15,0,1
148679.9648,-237.663154,4,1,1,15,0,1
148694.8086,-177.5684517,4,1,1,15,0,1
148710.7539,-134.5781066,4,1,1,15,0,1
148727.8242,-103.3624747,4,1,1,15,0,1
148746.0156,-80.37236112,4,1,1,15,0,1
148765.293,-63.21211999,4,1,1,15,0,1
148785.5703,-50.24185977,4,1,1,15,0,1
148806.7266,-40.32322772,4,1,1,15,0,1
148828.6094,-32.65518908,4,1,1,15,0,1
148851,-10000,4,1,1,15,0,1
148870.2305,-10000,4,1,1,15,0,1
148887.4883,-10000,4,1,1,15,0,1
148903.0078,-9896.781648,4,1,1,15,0,1
148917.0391,-9179.234076,4,1,1,15,0,1
148929.8359,-8102.263867,4,1,1,15,0,1
148941.6406,-6722.039945,4,1,1,15,0,1
148952.7031,-5219.012193,4,1,1,15,0,1
148963.2656,-3825.553517,4,1,1,15,0,1
148973.5586,-2696.487405,4,1,1,15,0,1
148983.8047,-1864.331902,4,1,1,15,0,1
148994.2148,-1284.39443,4,1,1,15,0,1
149004.9883,-890.7745861,4,1,1,15,0,1
149016.3008,-625.4849105,4,1,1,15,0,1
149028.3125,-445.8789945,4,1,1,15,0,1
149041.1641,-322.9616688,4,1,1,15,0,1
149054.9648,-237.663154,4,1,1,15,0,1
149069.8086,-177.5684517,4,1,1,15,0,1
149085.7539,-134.5781066,4,1,1,15,0,1
149102.8242,-103.3624747,4,1,1,15,0,1
149121.0156,-80.37236112,4,1,1,15,0,1
149140.293,-63.21211999,4,1,1,15,0,1
149160.5703,-50.24185977,4,1,1,15,0,1
149181.7266,-40.32322772,4,1,1,15,0,1
149203.6094,-32.65518908,4,1,1,15,0,1
149226,-14.20454545,4,1,1,15,0,1
149244.326,-1501.331558,4,1,1,15,0,1
149413,-10000,4,1,1,15,0,1
149581.824,-13.76481067,4,1,1,15,0,1
149601,-10000,4,1,1,15,0,1
149620.2305,-10000,4,1,1,15,0,1
149637.4883,-10000,4,1,1,15,0,1
149653.0078,-9896.781648,4,1,1,15,0,1
149667.0391,-9179.234076,4,1,1,15,0,1
149679.8359,-8102.263867,4,1,1,15,0,1
149691.6406,-6722.039945,4,1,1,15,0,1
149702.7031,-5219.012193,4,1,1,15,0,1
149713.2656,-3825.553517,4,1,1,15,0,1
149723.5586,-2696.487405,4,1,1,15,0,1
149733.8047,-1864.331902,4,1,1,15,0,1
149744.2148,-1284.39443,4,1,1,15,0,1
149754.9883,-890.7745861,4,1,1,15,0,1
149766.3008,-625.4849105,4,1,1,15,0,1
149778.3125,-445.8789945,4,1,1,15,0,1
149791.1641,-322.9616688,4,1,1,15,0,1
149804.9648,-237.663154,4,1,1,15,0,1
149819.8086,-177.5684517,4,1,1,15,0,1
149835.7539,-134.5781066,4,1,1,15,0,1
149852.8242,-103.3624747,4,1,1,15,0,1
149871.0156,-80.37236112,4,1,1,15,0,1
149890.293,-63.21211999,4,1,1,15,0,1
149910.5703,-50.24185977,4,1,1,15,0,1
149931.7266,-40.32322772,4,1,1,15,0,1
149953.6094,-32.65518908,4,1,1,15,0,1
149976,-10000,4,1,1,15,0,1
149995.2305,-10000,4,1,1,15,0,1
150012.4883,-10000,4,1,1,15,0,1
150028.0078,-9896.781648,4,1,1,15,0,1
150042.0391,-9179.234076,4,1,1,15,0,1
150054.8359,-8102.263867,4,1,1,15,0,1
150066.6406,-6722.039945,4,1,1,15,0,1
150077.7031,-5219.012193,4,1,1,15,0,1
150088.2656,-3825.553517,4,1,1,15,0,1
150098.5586,-2696.487405,4,1,1,15,0,1
150108.8047,-1864.331902,4,1,1,15,0,1
150119.2148,-1284.39443,4,1,1,15,0,1
150129.9883,-890.7745861,4,1,1,15,0,1
150141.3008,-625.4849105,4,1,1,15,0,1
150153.3125,-445.8789945,4,1,1,15,0,1
150166.1641,-322.9616688,4,1,1,15,0,1
150179.9648,-237.663154,4,1,1,15,0,1
150194.8086,-177.5684517,4,1,1,15,0,1
150210.7539,-134.5781066,4,1,1,15,0,1
150227.8242,-103.3624747,4,1,1,15,0,1
150246.0156,-80.37236112,4,1,1,15,0,1
150265.293,-63.21211999,4,1,1,15,0,1
150285.5703,-50.24185977,4,1,1,15,0,1
150306.7266,-40.32322772,4,1,1,15,0,1
150328.6094,-32.65518908,4,1,1,15,0,1
150351,-10000,4,1,1,15,0,1
150370.2305,-10000,4,1,1,15,0,1
150387.4883,-10000,4,1,1,15,0,1
150403.0078,-9896.781648,4,1,1,15,0,1
150417.0391,-9179.234076,4,1,1,15,0,1
150429.8359,-8102.263867,4,1,1,15,0,1
150441.6406,-6722.039945,4,1,1,15,0,1
150452.7031,-5219.012193,4,1,1,15,0,1
150463.2656,-3825.553517,4,1,1,15,0,1
150473.5586,-2696.487405,4,1,1,15,0,1
150483.8047,-1864.331902,4,1,1,15,0,1
150494.2148,-1284.39443,4,1,1,15,0,1
150504.9883,-890.7745861,4,1,1,15,0,1
150516.3008,-625.4849105,4,1,1,15,0,1
150528.3125,-445.8789945,4,1,1,15,0,1
150541.1641,-322.9616688,4,1,1,15,0,1
150554.9648,-237.663154,4,1,1,15,0,1
150569.8086,-177.5684517,4,1,1,15,0,1
150585.7539,-134.5781066,4,1,1,15,0,1
150602.8242,-103.3624747,4,1,1,15,0,1
150621.0156,-80.37236112,4,1,1,15,0,1
150640.293,-63.21211999,4,1,1,15,0,1
150660.5703,-50.24185977,4,1,1,15,0,1
150681.7266,-40.32322772,4,1,1,15,0,1
150703.6094,-32.65518908,4,1,1,15,0,1
150726,-10000,4,1,1,15,0,1
150745.2305,-10000,4,1,1,15,0,1
150762.4883,-10000,4,1,1,15,0,1
150778.0078,-9896.781648,4,1,1,15,0,1
150792.0391,-9179.234076,4,1,1,15,0,1
150804.8359,-8102.263867,4,1,1,15,0,1
150816.6406,-6722.039945,4,1,1,15,0,1
150827.7031,-5219.012193,4,1,1,15,0,1
150838.2656,-3825.553517,4,1,1,15,0,1
150848.5586,-2696.487405,4,1,1,15,0,1
150858.8047,-1864.331902,4,1,1,15,0,1
150869.2148,-1284.39443,4,1,1,15,0,1
150879.9883,-890.7745861,4,1,1,15,0,1
150891.3008,-625.4849105,4,1,1,15,0,1
150903.3125,-445.8789945,4,1,1,15,0,1
150916.1641,-322.9616688,4,1,1,15,0,1
150929.9648,-237.663154,4,1,1,15,0,1
150944.8086,-177.5684517,4,1,1,15,0,1
150960.7539,-134.5781066,4,1,1,15,0,1
150977.8242,-103.3624747,4,1,1,15,0,1
150996.0156,-80.37236112,4,1,1,15,0,1
151015.293,-63.21211999,4,1,1,15,0,1
151035.5703,-50.24185977,4,1,1,15,0,1
151056.7266,-40.32322772,4,1,1,15,0,1
151078.6094,-32.65518908,4,1,1,15,0,1
151101,-10000,4,1,1,15,0,1
151120.2305,-10000,4,1,1,15,0,1
151137.4883,-10000,4,1,1,15,0,1
151153.0078,-9896.781648,4,1,1,15,0,1
151167.0391,-9179.234076,4,1,1,15,0,1
151179.8359,-8102.263867,4,1,1,15,0,1
151191.6406,-6722.039945,4,1,1,15,0,1
151202.7031,-5219.012193,4,1,1,15,0,1
151213.2656,-3825.553517,4,1,1,15,0,1
151223.5586,-2696.487405,4,1,1,15,0,1
151233.8047,-1864.331902,4,1,1,15,0,1
151244.2148,-1284.39443,4,1,1,15,0,1
151254.9883,-890.7745861,4,1,1,15,0,1
151266.3008,-625.4849105,4,1,1,15,0,1
151278.3125,-445.8789945,4,1,1,15,0,1
151291.1641,-322.9616688,4,1,1,15,0,1
151304.9648,-237.663154,4,1,1,15,0,1
151319.8086,-177.5684517,4,1,1,15,0,1
151335.7539,-134.5781066,4,1,1,15,0,1
151352.8242,-103.3624747,4,1,1,15,0,1
151371.0156,-80.37236112,4,1,1,15,0,1
151390.293,-63.21211999,4,1,1,15,0,1
151410.5703,-50.24185977,4,1,1,15,0,1
151431.7266,-40.32322772,4,1,1,15,0,1
151453.6094,-32.65518908,4,1,1,15,0,1
151476,-10000,4,1,1,15,0,1
151495.2305,-10000,4,1,1,15,0,1
151512.4883,-10000,4,1,1,15,0,1
151528.0078,-9896.781648,4,1,1,15,0,1
151542.0391,-9179.234076,4,1,1,15,0,1
151554.8359,-8102.263867,4,1,1,15,0,1
151566.6406,-6722.039945,4,1,1,15,0,1
151577.7031,-5219.012193,4,1,1,15,0,1
151588.2656,-3825.553517,4,1,1,15,0,1
151598.5586,-2696.487405,4,1,1,15,0,1
151608.8047,-1864.331902,4,1,1,15,0,1
151619.2148,-1284.39443,4,1,1,15,0,1
151629.9883,-890.7745861,4,1,1,15,0,1
151641.3008,-625.4849105,4,1,1,15,0,1
151653.3125,-445.8789945,4,1,1,15,0,1
151666.1641,-322.9616688,4,1,1,15,0,1
151679.9648,-237.663154,4,1,1,15,0,1
151694.8086,-177.5684517,4,1,1,15,0,1
151710.7539,-134.5781066,4,1,1,15,0,1
151727.8242,-103.3624747,4,1,1,15,0,1
151746.0156,-80.37236112,4,1,1,15,0,1
151765.293,-63.21211999,4,1,1,15,0,1
151785.5703,-50.24185977,4,1,1,15,0,1
151806.7266,-40.32322772,4,1,1,15,0,1
151828.6094,-32.65518908,4,1,1,15,0,1
151851,-10000,4,1,1,15,0,1
151870.2305,-10000,4,1,1,15,0,1
151887.4883,-10000,4,1,1,15,0,1
151903.0078,-9896.781648,4,1,1,15,0,1
151917.0391,-9179.234076,4,1,1,15,0,1
151929.8359,-8102.263867,4,1,1,15,0,1
151941.6406,-6722.039945,4,1,1,15,0,1
151952.7031,-5219.012193,4,1,1,15,0,1
151963.2656,-3825.553517,4,1,1,15,0,1
151973.5586,-2696.487405,4,1,1,15,0,1
151983.8047,-1864.331902,4,1,1,15,0,1
151994.2148,-1284.39443,4,1,1,15,0,1
152004.9883,-890.7745861,4,1,1,15,0,1
152016.3008,-625.4849105,4,1,1,15,0,1
152028.3125,-445.8789945,4,1,1,15,0,1
152041.1641,-322.9616688,4,1,1,15,0,1
152054.9648,-237.663154,4,1,1,15,0,1
152069.8086,-177.5684517,4,1,1,15,0,1
152085.7539,-134.5781066,4,1,1,15,0,1
152102.8242,-103.3624747,4,1,1,15,0,1
152121.0156,-80.37236112,4,1,1,15,0,1
152140.293,-63.21211999,4,1,1,15,0,1
152160.5703,-50.24185977,4,1,1,15,0,1
152181.7266,-40.32322772,4,1,1,15,0,1
152203.6094,-32.65518908,4,1,1,15,0,1
152226,-10000,4,1,1,15,0,1
152245.2305,-10000,4,1,1,15,0,1
152262.4883,-10000,4,1,1,15,0,1
152278.0078,-9896.781648,4,1,1,15,0,1
152292.0391,-9179.234076,4,1,1,15,0,1
152304.8359,-8102.263867,4,1,1,15,0,1
152316.6406,-6722.039945,4,1,1,15,0,1
152327.7031,-5219.012193,4,1,1,15,0,1
152338.2656,-3825.553517,4,1,1,15,0,1
152348.5586,-2696.487405,4,1,1,15,0,1
152358.8047,-1864.331902,4,1,1,15,0,1
152369.2148,-1284.39443,4,1,1,15,0,1
152379.9883,-890.7745861,4,1,1,15,0,1
152391.3008,-625.4849105,4,1,1,15,0,1
152403.3125,-445.8789945,4,1,1,15,0,1
152416.1641,-322.9616688,4,1,1,15,0,1
152429.9648,-237.663154,4,1,1,15,0,1
152444.8086,-177.5684517,4,1,1,15,0,1
152460.7539,-134.5781066,4,1,1,15,0,1
152477.8242,-103.3624747,4,1,1,15,0,1
152496.0156,-80.37236112,4,1,1,15,0,1
152515.293,-63.21211999,4,1,1,15,0,1
152535.5703,-50.24185977,4,1,1,15,0,1
152556.7266,-40.32322772,4,1,1,15,0,1
152578.6094,-32.65518908,4,1,1,15,0,1
152601,-14.20454545,4,1,1,15,0,1
152619.326,-1501.331558,4,1,1,15,0,1
152788,-10000,4,1,1,15,0,1
152797.6406,-10000,4,1,1,15,0,1
152806.293,-10000,4,1,1,15,0,1
152814.0703,-9896.781648,4,1,1,15,0,1
152821.1055,-9179.234076,4,1,1,15,0,1
152827.5234,-8102.263867,4,1,1,15,0,1
152833.4414,-6722.039945,4,1,1,15,0,1
152838.9883,-5219.012193,4,1,1,15,0,1
152844.2813,-3825.553517,4,1,1,15,0,1
152849.4414,-2696.487405,4,1,1,15,0,1
152854.5781,-1864.331902,4,1,1,15,0,1
152859.7969,-1284.39443,4,1,1,15,0,1
152865.1992,-890.7745861,4,1,1,15,0,1
152870.8711,-625.4849105,4,1,1,15,0,1
152876.8906,-445.8789945,4,1,1,15,0,1
152883.3359,-322.9616688,4,1,1,15,0,1
152890.2539,-237.663154,4,1,1,15,0,1
152897.6953,-177.5684517,4,1,1,15,0,1
152905.6914,-134.5781066,4,1,1,15,0,1
152914.2461,-103.3624747,4,1,1,15,0,1
152923.3672,-80.37236112,4,1,1,15,0,1
152933.0313,-63.21211999,4,1,1,15,0,1
152943.1953,-50.24185977,4,1,1,15,0,1
152953.8047,-40.32322772,4,1,1,15,0,1
152964.7734,-32.65518908,4,1,1,15,0,1
152976,-13.36898396,4,1,1,15,0,1
152985.207,-9504.219409,4,1,1,15,0,1
153069,-1000,4,1,1,15,0,1
153153.412,-15.44986368,4,1,1,15,0,1
153163,-40.16064257,4,1,1,15,0,1
153219.024,-8796.992481,4,1,1,15,0,1
153351,-13.22751323,4,1,1,15,0,1
153369.326,-9890.350877,4,1,1,15,0,1
153538,-33.33333333,4,1,1,15,0,1
153542.207,-36.31381415,4,1,1,15,0,1
153546.4766,-39.68844651,4,1,1,15,0,1
153550.8359,-43.52829253,4,1,1,15,0,1
153555.3086,-47.92098113,4,1,1,15,0,1
153559.9297,-52.97557414,4,1,1,15,0,1
153564.7188,-58.82912164,4,1,1,15,0,1
153569.7148,-65.65566771,4,1,1,15,0,1
153574.9336,-73.67887404,4,1,1,15,0,1
153580.4141,-83.18985578,4,1,1,15,0,1
153586.1797,-94.57303112,4,1,1,15,0,1
153592.2578,-108.3441276,4,1,1,15,0,1
153598.6797,-125.2075895,4,1,1,15,0,1
153605.4688,-146.1452498,4,1,1,15,0,1
153612.6563,-172.5573833,4,1,1,15,0,1
153620.2695,-206.4945942,4,1,1,15,0,1
153628.3359,-251.053064,4,1,1,15,0,1
153636.8828,-311.0786095,4,1,1,15,0,1
153645.9414,-394.4850399,4,1,1,15,0,1
153655.5391,-514.875552,4,1,1,15,0,1
153665.7031,-697.1410086,4,1,1,15,0,1
153676.4609,-990.4928785,4,1,1,15,0,1
153687.8438,-1502.108752,4,1,1,15,0,1
153699.875,-2494.786,4,1,1,15,0,1
153712.582,-4696.537811,4,1,1,15,0,1
153726,-10,4,1,1,15,0,1
153735.114,-4510,4,1,1,15,0,1
153819,-100,4,1,1,15,0,1
153913,-33.33333333,4,1,1,15,0,1
153917.207,-36.31381415,4,1,1,15,0,1
153921.4766,-39.68844651,4,1,1,15,0,1
153925.8359,-43.52829253,4,1,1,15,0,1
153930.3086,-47.92098113,4,1,1,15,0,1
153934.9297,-52.97557414,4,1,1,15,0,1
153939.7188,-58.82912164,4,1,1,15,0,1
153944.7148,-65.65566771,4,1,1,15,0,1
153949.9336,-73.67887404,4,1,1,15,0,1
153955.4141,-83.18985578,4,1,1,15,0,1
153961.1797,-94.57303112,4,1,1,15,0,1
153967.2578,-108.3441276,4,1,1,15,0,1
153973.6797,-125.2075895,4,1,1,15,0,1
153980.4688,-146.1452498,4,1,1,15,0,1
153987.6563,-172.5573833,4,1,1,15,0,1
153995.2695,-206.4945942,4,1,1,15,0,1
154003.3359,-251.053064,4,1,1,15,0,1
154011.8828,-311.0786095,4,1,1,15,0,1
154020.9414,-394.4850399,4,1,1,15,0,1
154030.5391,-514.875552,4,1,1,15,0,1
154040.7031,-697.1410086,4,1,1,15,0,1
154051.4609,-990.4928785,4,1,1,15,0,1
154062.8438,-1502.108752,4,1,1,15,0,1
154074.875,-2494.786,4,1,1,15,0,1
154087.582,-4696.537811,4,1,1,15,0,1
154101,-13.22751323,4,1,1,15,0,1
154110.114,-9890.350877,4,1,1,15,0,1
154278.412,-13.76481067,4,1,1,15,0,1
154288,-13.22751323,4,1,1,15,0,1
154297.114,-9890.350877,4,1,1,15,0,1
154465.412,-13.76481067,4,1,1,15,0,1
154476,-10000,4,1,1,15,0,1
154531.676,-13.76481067,4,1,1,15,0,1
154538,-10000,4,1,1,15,0,1
154594.574,-13.76481067,4,1,1,15,0,1
154601,-10000,4,1,1,15,0,1
154825.5,-13.76481067,4,1,1,15,0,1
154851,-10000,4,1,1,15,0,1
154906.676,-13.76481067,4,1,1,15,0,1
154913,-10000,4,1,1,15,0,1
154969.574,-13.76481067,4,1,1,15,0,1
154976,-10000,4,1,1,15,0,1
155200.5,-13.76481067,4,1,1,15,0,1
155226,-13.22751323,4,1,1,15,0,1
155244.326,-9890.350877,4,1,1,15,0,1
155413,-10000,4,1,1,15,0,1
155581.824,-13.76481067,4,1,1,15,0,1
155601,-10000,4,1,1,15,0,1
155656.676,-13.76481067,4,1,1,15,0,1
155663,-10000,4,1,1,15,0,1
155719.574,-13.76481067,4,1,1,15,0,1
155726,-10000,4,1,1,15,0,1
155950.5,-13.76481067,4,1,1,15,0,1
155976,-10000,4,1,1,15,0,1
156031.676,-13.76481067,4,1,1,15,0,1
156038,-10000,4,1,1,15,0,1
156094.574,-13.76481067,4,1,1,15,0,1
156101,-10000,4,1,1,15,0,1
156325.5,-13.76481067,4,1,1,15,0,1
156351,-10000,4,1,1,15,0,1
156406.676,-13.76481067,4,1,1,15,0,1
156413,-10000,4,1,1,15,0,1
156469.574,-13.76481067,4,1,1,15,0,1
156476,-10000,4,1,1,15,0,1
156700.5,-13.76481067,4,1,1,15,0,1
156726,-10000,4,1,1,15,0,1
156781.676,-13.76481067,4,1,1,15,0,1
156788,-10000,4,1,1,15,0,1
156844.574,-13.76481067,4,1,1,15,0,1
156851,-10000,4,1,1,15,0,1
157075.5,-13.76481067,4,1,1,15,0,1
157101,-10000,4,1,1,15,0,1
157156.676,-13.76481067,4,1,1,15,0,1
157163,-10000,4,1,1,15,0,1
157219.574,-13.76481067,4,1,1,15,0,1
157226,-10000,4,1,1,15,0,1
157450.5,-13.76481067,4,1,1,15,0,1
157476,-10000,4,1,1,15,0,1
157531.676,-13.76481067,4,1,1,15,0,1
157538,-10000,4,1,1,15,0,1
157594.574,-13.76481067,4,1,1,15,0,1
157601,-10000,4,1,1,15,0,1
157825.5,-13.76481067,4,1,1,15,0,1
157851,-10000,4,1,1,15,0,1
157906.676,-13.76481067,4,1,1,15,0,1
157913,-10000,4,1,1,15,0,1
157969.574,-13.76481067,4,1,1,15,0,1
157976,-10000,4,1,1,15,0,1
158200.5,-13.76481067,4,1,1,15,0,1
158226,-10000,4,1,1,15,0,1
158281.676,-13.76481067,4,1,1,15,0,1
158288,-10000,4,1,1,15,0,1
158344.574,-13.76481067,4,1,1,15,0,1
158351,-10000,4,1,1,15,0,1
158575.5,-13.76481067,4,1,1,15,0,1
158601,-13.22751323,4,1,1,15,0,1
158619.326,-9890.350877,4,1,1,15,0,1
158788,-10000,4,1,1,15,0,1
158956.824,-13.76481067,4,1,1,15,0,1
158976,-10000,4,1,1,15,0,1
159031.676,-13.76481067,4,1,1,15,0,1
159038,-10000,4,1,1,15,0,1
159094.574,-13.76481067,4,1,1,15,0,1
159101,-10000,4,1,1,15,0,1
159325.5,-13.76481067,4,1,1,15,0,1
159351,-10000,4,1,1,15,0,1
159406.676,-13.76481067,4,1,1,15,0,1
159413,-10000,4,1,1,15,0,1
159469.574,-13.76481067,4,1,1,15,0,1
159476,-10000,4,1,1,15,0,1
159700.5,-13.76481067,4,1,1,15,0,1
159726,-10000,4,1,1,15,0,1
159781.676,-13.76481067,4,1,1,15,0,1
159788,-10000,4,1,1,15,0,1
159844.574,-13.76481067,4,1,1,15,0,1
159851,-10000,4,1,1,15,0,1
160075.5,-13.76481067,4,1,1,15,0,1
160101,-13.22751323,4,1,1,15,0,1
160110.114,-9890.350877,4,1,1,15,0,1
160194,-13.22751323,4,1,1,15,0,1
160203.212,-9890.350877,4,1,1,15,0,1
160288,-10000,4,1,1,15,0,1
160297.6406,-10000,4,1,1,15,0,1
160306.2969,-10000,4,1,1,15,0,1
160314.0781,-9896.781648,4,1,1,15,0,1
160321.1094,-9179.234076,4,1,1,15,0,1
160327.5156,-8102.263867,4,1,1,15,0,1
160333.4375,-6722.039945,4,1,1,15,0,1
160338.9844,-5219.012193,4,1,1,15,0,1
160344.2813,-3825.553517,4,1,1,15,0,1
160349.4375,-2696.487405,4,1,1,15,0,1
160354.5781,-1864.331902,4,1,1,15,0,1
160359.7969,-1284.39443,4,1,1,15,0,1
160365.1875,-890.7745861,4,1,1,15,0,1
160370.8594,-625.4849105,4,1,1,15,0,1
160376.8906,-445.8789945,4,1,1,15,0,1
160383.3281,-322.9616688,4,1,1,15,0,1
160390.25,-237.663154,4,1,1,15,0,1
160397.6875,-177.5684517,4,1,1,15,0,1
160405.6875,-134.5781066,4,1,1,15,0,1
160414.2344,-103.3624747,4,1,1,15,0,1
160423.3594,-80.37236112,4,1,1,15,0,1
160433.0313,-63.21211999,4,1,1,15,0,1
160443.1875,-50.24185977,4,1,1,15,0,1
160453.7969,-40.32322772,4,1,1,15,0,1
160464.7656,-32.65518908,4,1,1,15,0,1
160476,-13.22751323,4,1,1,15,0,1
160494.326,-9890.350877,4,1,1,15,0,1
160663,-13.22751323,4,1,1,15,0,1
160669.174,-9890.350877,4,1,1,15,0,1
160726,-13.22751323,4,1,1,15,0,1
160732.076,-9890.350877,4,1,1,15,0,1
160788,-13.22751323,4,1,1,15,0,1
160794.174,-9890.350877,4,1,1,15,0,1
160851,-13.22751323,4,1,1,15,0,1
160869.326,-9890.350877,4,1,1,15,0,1
161038,-13.22751323,4,1,1,15,0,1
161044.174,-9890.350877,4,1,1,15,0,1
161101,-13.22751323,4,1,1,15,0,1
161107.076,-9890.350877,4,1,1,15,0,1
161163,-13.22751323,4,1,1,15,0,1
161169.174,-9890.350877,4,1,1,15,0,1
161226,-13.22751323,4,1,1,15,0,1
161244.326,-9890.350877,4,1,1,15,0,1
161413,-13.22751323,4,1,1,15,0,1
161431.424,-9890.350877,4,1,1,15,0,1
161601,-13.22751323,4,1,1,15,0,1
161619.326,-9890.350877,4,1,1,15,0,1
161788,-13.22751323,4,1,1,15,0,1
161794.174,-9890.350877,4,1,1,15,0,1
161851,-13.22751323,4,1,1,15,0,1
161857.076,-9890.350877,4,1,1,15,0,1
161913,-13.22751323,4,1,1,15,0,1
161919.174,-9890.350877,4,1,1,15,0,1
161976,-13.22751323,4,1,1,15,0,1
161994.326,-9890.350877,4,1,1,15,0,1
162163,-13.22751323,4,1,1,15,0,1
162169.174,-9890.350877,4,1,1,15,0,1
162226,-13.22751323,4,1,1,15,0,1
162232.076,-9890.350877,4,1,1,15,0,1
162288,-13.22751323,4,1,1,15,0,1
162294.174,-9890.350877,4,1,1,15,0,1
162351,-13.22751323,4,1,1,15,0,1
162369.326,-9890.350877,4,1,1,15,0,1
162538,-13.22751323,4,1,1,15,0,1
162544.174,-9890.350877,4,1,1,15,0,1
162601,-13.22751323,4,1,1,15,0,1
162607.076,-9890.350877,4,1,1,15,0,1
162663,-13.22751323,4,1,1,15,0,1
162669.174,-9890.350877,4,1,1,15,0,1
162726,-13.22751323,4,1,1,15,0,1
162744.326,-9890.350877,4,1,1,15,0,1
162913,-13.22751323,4,1,1,15,0,1
162919.174,-9890.350877,4,1,1,15,0,1
162976,-13.22751323,4,1,1,15,0,1
162982.076,-9890.350877,4,1,1,15,0,1
163038,-13.22751323,4,1,1,15,0,1
163044.174,-9890.350877,4,1,1,15,0,1
163101,-13.22751323,4,1,1,15,0,1
163119.326,-9890.350877,4,1,1,15,0,1
163288,-13.22751323,4,1,1,15,0,1
163294.174,-9890.350877,4,1,1,15,0,1
163351,-13.22751323,4,1,1,15,0,1
163357.076,-9890.350877,4,1,1,15,0,1
163413,-13.22751323,4,1,1,15,0,1
163419.174,-9890.350877,4,1,1,15,0,1
163476,-13.22751323,4,1,1,15,0,1
163494.326,-9890.350877,4,1,1,15,0,1
163663,-40.16064257,4,1,1,15,0,1
163719.024,-8796.992481,4,1,1,15,0,1
163851,-13.22751323,4,1,1,15,0,1
163869.326,-9890.350877,4,1,1,15,0,1
164038,-40.16064257,4,1,1,15,0,1
164094.024,-8796.992481,4,1,1,15,0,1
164226,-13.22751323,4,1,1,15,0,1
164244.326,-9890.350877,4,1,1,15,0,1
164413,-40.16064257,4,1,1,15,0,1
164469.024,-8796.992481,4,1,1,15,0,1
164601,-13.22751323,4,1,1,15,0,1
164619.326,-9890.350877,4,1,1,15,0,1
164788,-13.22751323,4,1,1,15,0,1
164797.212,-9890.350877,4,1,1,15,0,1
164882,-13.22751323,4,1,1,15,0,1
164891.212,-9890.350877,4,1,1,15,0,1
164976,-20,4,1,1,15,0,1
165022,-10000,4,1,1,15,0,1
165038.875,-10000,4,1,1,15,0,1
165054.0117,-10000,4,1,1,15,0,1
165067.6289,-9896.781648,4,1,1,15,0,1
165079.9375,-9179.234076,4,1,1,15,0,1
165091.1641,-8102.263867,4,1,1,15,0,1
165101.5234,-6722.039945,4,1,1,15,0,1
165111.2305,-5219.012193,4,1,1,15,0,1
165120.4961,-3825.553517,4,1,1,15,0,1
165129.5234,-2696.487405,4,1,1,15,0,1
165138.5156,-1864.331902,4,1,1,15,0,1
165147.6484,-1284.39443,4,1,1,15,0,1
165157.0977,-890.7745861,4,1,1,15,0,1
165167.0234,-625.4849105,4,1,1,15,0,1
165177.5625,-445.8789945,4,1,1,15,0,1
165188.8359,-322.9616688,4,1,1,15,0,1
165200.9453,-237.663154,4,1,1,15,0,1
165213.9688,-177.5684517,4,1,1,15,0,1
165227.957,-134.5781066,4,1,1,15,0,1
165242.9336,-103.3624747,4,1,1,15,0,1
165258.8945,-80.37236112,4,1,1,15,0,1
165275.8047,-63.21211999,4,1,1,15,0,1
165293.5938,-50.24185977,4,1,1,15,0,1
165312.1563,-40.32322772,4,1,1,15,0,1
165331.3555,-32.65518908,4,1,1,15,0,1
165351,-25,4,1,1,15,0,1
165397,-10000,4,1,1,15,0,1
165413.875,-10000,4,1,1,15,0,1
165429.0117,-10000,4,1,1,15,0,1
165442.6289,-9896.781648,4,1,1,15,0,1
165454.9375,-9179.234076,4,1,1,15,0,1
165466.1641,-8102.263867,4,1,1,15,0,1
165476.5234,-6722.039945,4,1,1,15,0,1
165486.2305,-5219.012193,4,1,1,15,0,1
165495.4961,-3825.553517,4,1,1,15,0,1
165504.5234,-2696.487405,4,1,1,15,0,1
165513.5156,-1864.331902,4,1,1,15,0,1
165522.6484,-1284.39443,4,1,1,15,0,1
165532.0977,-890.7745861,4,1,1,15,0,1
165542.0234,-625.4849105,4,1,1,15,0,1
165552.5625,-445.8789945,4,1,1,15,0,1
165563.8359,-322.9616688,4,1,1,15,0,1
165575.9453,-237.663154,4,1,1,15,0,1
165588.9688,-177.5684517,4,1,1,15,0,1
165602.957,-134.5781066,4,1,1,15,0,1
165617.9336,-103.3624747,4,1,1,15,0,1
165633.8945,-80.37236112,4,1,1,15,0,1
165650.8047,-63.21211999,4,1,1,15,0,1
165668.5938,-50.24185977,4,1,1,15,0,1
165687.1563,-40.32322772,4,1,1,15,0,1
165706.3555,-32.65518908,4,1,1,15,0,1
165726,-40,4,1,1,15,0,1
165772,-133.3333333,4,1,1,15,0,1
165913,-13.22751323,4,1,1,15,0,1
165922.212,-9890.350877,4,1,1,15,0,1
166007,-13.22751323,4,1,1,15,0,1
166016.212,-9890.350877,4,1,1,15,0,1
166101,-13.22751323,4,1,1,15,0,1
166119.326,-9890.350877,4,1,1,15,0,1
166288,-33.33333333,4,1,1,15,0,1
166292.207,-36.31381415,4,1,1,15,0,1
166296.4766,-39.68844651,4,1,1,15,0,1
166300.8359,-43.52829253,4,1,1,15,0,1
166305.3086,-47.92098113,4,1,1,15,0,1
166309.9297,-52.97557414,4,1,1,15,0,1
166314.7188,-58.82912164,4,1,1,15,0,1
166319.7148,-65.65566771,4,1,1,15,0,1
166324.9336,-73.67887404,4,1,1,15,0,1
166330.4141,-83.18985578,4,1,1,15,0,1
166336.1797,-94.57303112,4,1,1,15,0,1
166342.2578,-108.3441276,4,1,1,15,0,1
166348.6797,-125.2075895,4,1,1,15,0,1
166355.4688,-146.1452498,4,1,1,15,0,1
166362.6563,-172.5573833,4,1,1,15,0,1
166370.2695,-206.4945942,4,1,1,15,0,1
166378.3359,-251.053064,4,1,1,15,0,1
166386.8828,-311.0786095,4,1,1,15,0,1
166395.9414,-394.4850399,4,1,1,15,0,1
166405.5391,-514.875552,4,1,1,15,0,1
166415.7031,-697.1410086,4,1,1,15,0,1
166426.4609,-990.4928785,4,1,1,15,0,1
166437.8438,-1502.108752,4,1,1,15,0,1
166449.875,-2494.786,4,1,1,15,0,1
166462.582,-4696.537811,4,1,1,15,0,1
166476,-10000,4,1,1,15,0,1
166516.6641,-1642.764496,4,1,1,15,0,1
166551.2969,-1076.127211,4,1,1,15,0,1
166580.7578,-897.2148101,4,1,1,15,0,1
166605.8281,-824.0388139,4,1,1,15,0,1
166627.2148,-786.7397812,4,1,1,15,0,1
166645.5469,-752.893703,4,1,1,15,0,1
166661.3828,-703.0086788,4,1,1,15,0,1
166675.2148,-629.655306,4,1,1,15,0,1
166687.4727,-538.4817046,4,1,1,15,0,1
166698.5195,-442.6954574,4,1,1,15,0,1
166708.668,-354.3485336,4,1,1,15,0,1
166718.1797,-279.7436336,4,1,1,15,0,1
166727.2734,-220.0042631,4,1,1,15,0,1
166736.1211,-173.4807523,4,1,1,15,0,1
166744.8711,-137.6524654,4,1,1,15,0,1
166753.6445,-110.0882867,4,1,1,15,0,1
166762.543,-88.77883238,4,1,1,15,0,1
166771.6523,-72.17341081,4,1,1,15,0,1
166781.0664,-59.11237796,4,1,1,15,0,1
166790.8828,-48.73943779,4,1,1,15,0,1
166801.207,-40.4236952,4,1,1,15,0,1
166812.1836,-33.69861083,4,1,1,15,0,1
166823.9844,-28.21667843,4,1,1,15,0,1
166836.832,-23.71664318,4,1,1,15,0,1
166851,-10000,4,1,1,15,0,1
166891.6641,-1642.764496,4,1,1,15,0,1
166926.2969,-1076.127211,4,1,1,15,0,1
166955.7578,-897.2148101,4,1,1,15,0,1
166980.8281,-824.0388139,4,1,1,15,0,1
167002.2148,-786.7397812,4,1,1,15,0,1
167020.5469,-752.893703,4,1,1,15,0,1
167036.3828,-703.0086788,4,1,1,15,0,1
167050.2148,-629.655306,4,1,1,15,0,1
167062.4727,-538.4817046,4,1,1,15,0,1
167073.5195,-442.6954574,4,1,1,15,0,1
167083.668,-354.3485336,4,1,1,15,0,1
167093.1797,-279.7436336,4,1,1,15,0,1
167102.2734,-220.0042631,4,1,1,15,0,1
167111.1211,-173.4807523,4,1,1,15,0,1
167119.8711,-137.6524654,4,1,1,15,0,1
167128.6445,-110.0882867,4,1,1,15,0,1
167137.543,-88.77883238,4,1,1,15,0,1
167146.6523,-72.17341081,4,1,1,15,0,1
167156.0664,-59.11237796,4,1,1,15,0,1
167165.8828,-48.73943779,4,1,1,15,0,1
167176.207,-40.4236952,4,1,1,15,0,1
167187.1836,-33.69861083,4,1,1,15,0,1
167198.9844,-28.21667843,4,1,1,15,0,1
167211.832,-23.71664318,4,1,1,15,0,1
167226,-14.20454545,4,1,1,15,0,1
167244.326,-1501.331558,4,1,1,15,0,1
167413,-10000,4,1,1,15,0,1
167581.824,-13.76481067,4,1,1,15,0,1
167601,-10000,4,1,1,15,0,1
167641.6641,-1642.764496,4,1,1,15,0,1
167676.2969,-1076.127211,4,1,1,15,0,1
167705.7578,-897.2148101,4,1,1,15,0,1
167730.8281,-824.0388139,4,1,1,15,0,1
167752.2148,-786.7397812,4,1,1,15,0,1
167770.5469,-752.893703,4,1,1,15,0,1
167786.3828,-703.0086788,4,1,1,15,0,1
167800.2148,-629.655306,4,1,1,15,0,1
167812.4727,-538.4817046,4,1,1,15,0,1
167823.5195,-442.6954574,4,1,1,15,0,1
167833.668,-354.3485336,4,1,1,15,0,1
167843.1797,-279.7436336,4,1,1,15,0,1
167852.2734,-220.0042631,4,1,1,15,0,1
167861.1211,-173.4807523,4,1,1,15,0,1
167869.8711,-137.6524654,4,1,1,15,0,1
167878.6445,-110.0882867,4,1,1,15,0,1
167887.543,-88.77883238,4,1,1,15,0,1
167896.6523,-72.17341081,4,1,1,15,0,1
167906.0664,-59.11237796,4,1,1,15,0,1
167915.8828,-48.73943779,4,1,1,15,0,1
167926.207,-40.4236952,4,1,1,15,0,1
167937.1836,-33.69861083,4,1,1,15,0,1
167948.9844,-28.21667843,4,1,1,15,0,1
167961.832,-23.71664318,4,1,1,15,0,1
167976,-10000,4,1,1,15,0,1
168016.6641,-1642.764496,4,1,1,15,0,1
168051.2969,-1076.127211,4,1,1,15,0,1
168080.7578,-897.2148101,4,1,1,15,0,1
168105.8281,-824.0388139,4,1,1,15,0,1
168127.2148,-786.7397812,4,1,1,15,0,1
168145.5469,-752.893703,4,1,1,15,0,1
168161.3828,-703.0086788,4,1,1,15,0,1
168175.2148,-629.655306,4,1,1,15,0,1
168187.4727,-538.4817046,4,1,1,15,0,1
168198.5195,-442.6954574,4,1,1,15,0,1
168208.668,-354.3485336,4,1,1,15,0,1
168218.1797,-279.7436336,4,1,1,15,0,1
168227.2734,-220.0042631,4,1,1,15,0,1
168236.1211,-173.4807523,4,1,1,15,0,1
168244.8711,-137.6524654,4,1,1,15,0,1
168253.6445,-110.0882867,4,1,1,15,0,1
168262.543,-88.77883238,4,1,1,15,0,1
168271.6523,-72.17341081,4,1,1,15,0,1
168281.0664,-59.11237796,4,1,1,15,0,1
168290.8828,-48.73943779,4,1,1,15,0,1
168301.207,-40.4236952,4,1,1,15,0,1
168312.1836,-33.69861083,4,1,1,15,0,1
168323.9844,-28.21667843,4,1,1,15,0,1
168336.832,-23.71664318,4,1,1,15,0,1
168351,-10000,4,1,1,15,0,1
168391.6641,-1642.764496,4,1,1,15,0,1
168426.2969,-1076.127211,4,1,1,15,0,1
168455.7578,-897.2148101,4,1,1,15,0,1
168480.8281,-824.0388139,4,1,1,15,0,1
168502.2148,-786.7397812,4,1,1,15,0,1
168520.5469,-752.893703,4,1,1,15,0,1
168536.3828,-703.0086788,4,1,1,15,0,1
168550.2148,-629.655306,4,1,1,15,0,1
168562.4727,-538.4817046,4,1,1,15,0,1
168573.5195,-442.6954574,4,1,1,15,0,1
168583.668,-354.3485336,4,1,1,15,0,1
168593.1797,-279.7436336,4,1,1,15,0,1
168602.2734,-220.0042631,4,1,1,15,0,1
168611.1211,-173.4807523,4,1,1,15,0,1
168619.8711,-137.6524654,4,1,1,15,0,1
168628.6445,-110.0882867,4,1,1,15,0,1
168637.543,-88.77883238,4,1,1,15,0,1
168646.6523,-72.17341081,4,1,1,15,0,1
168656.0664,-59.11237796,4,1,1,15,0,1
168665.8828,-48.73943779,4,1,1,15,0,1
168676.207,-40.4236952,4,1,1,15,0,1
168687.1836,-33.69861083,4,1,1,15,0,1
168698.9844,-28.21667843,4,1,1,15,0,1
168711.832,-23.71664318,4,1,1,15,0,1
168726,-10000,4,1,1,15,0,1
168766.6641,-1642.764496,4,1,1,15,0,1
168801.2969,-1076.127211,4,1,1,15,0,1
168830.7578,-897.2148101,4,1,1,15,0,1
168855.8281,-824.0388139,4,1,1,15,0,1
168877.2148,-786.7397812,4,1,1,15,0,1
168895.5469,-752.893703,4,1,1,15,0,1
168911.3828,-703.0086788,4,1,1,15,0,1
168925.2148,-629.655306,4,1,1,15,0,1
168937.4727,-538.4817046,4,1,1,15,0,1
168948.5195,-442.6954574,4,1,1,15,0,1
168958.668,-354.3485336,4,1,1,15,0,1
168968.1797,-279.7436336,4,1,1,15,0,1
168977.2734,-220.0042631,4,1,1,15,0,1
168986.1211,-173.4807523,4,1,1,15,0,1
168994.8711,-137.6524654,4,1,1,15,0,1
169003.6445,-110.0882867,4,1,1,15,0,1
169012.543,-88.77883238,4,1,1,15,0,1
169021.6523,-72.17341081,4,1,1,15,0,1
169031.0664,-59.11237796,4,1,1,15,0,1
169040.8828,-48.73943779,4,1,1,15,0,1
169051.207,-40.4236952,4,1,1,15,0,1
169062.1836,-33.69861083,4,1,1,15,0,1
169073.9844,-28.21667843,4,1,1,15,0,1
169086.832,-23.71664318,4,1,1,15,0,1
169101,-10000,4,1,1,15,0,1
169141.6641,-1642.764496,4,1,1,15,0,1
169176.2969,-1076.127211,4,1,1,15,0,1
169205.7578,-897.2148101,4,1,1,15,0,1
169230.8281,-824.0388139,4,1,1,15,0,1
169252.2148,-786.7397812,4,1,1,15,0,1
169270.5469,-752.893703,4,1,1,15,0,1
169286.3828,-703.0086788,4,1,1,15,0,1
169300.2148,-629.655306,4,1,1,15,0,1
169312.4727,-538.4817046,4,1,1,15,0,1
169323.5195,-442.6954574,4,1,1,15,0,1
169333.668,-354.3485336,4,1,1,15,0,1
169343.1797,-279.7436336,4,1,1,15,0,1
169352.2734,-220.0042631,4,1,1,15,0,1
169361.1211,-173.4807523,4,1,1,15,0,1
169369.8711,-137.6524654,4,1,1,15,0,1
169378.6445,-110.0882867,4,1,1,15,0,1
169387.543,-88.77883238,4,1,1,15,0,1
169396.6523,-72.17341081,4,1,1,15,0,1
169406.0664,-59.11237796,4,1,1,15,0,1
169415.8828,-48.73943779,4,1,1,15,0,1
169426.207,-40.4236952,4,1,1,15,0,1
169437.1836,-33.69861083,4,1,1,15,0,1
169448.9844,-28.21667843,4,1,1,15,0,1
169461.832,-23.71664318,4,1,1,15,0,1
169476,-10000,4,1,1,15,0,1
169516.6641,-1642.764496,4,1,1,15,0,1
169551.2969,-1076.127211,4,1,1,15,0,1
169580.7578,-897.2148101,4,1,1,15,0,1
169605.8281,-824.0388139,4,1,1,15,0,1
169627.2148,-786.7397812,4,1,1,15,0,1
169645.5469,-752.893703,4,1,1,15,0,1
169661.3828,-703.0086788,4,1,1,15,0,1
169675.2148,-629.655306,4,1,1,15,0,1
169687.4727,-538.4817046,4,1,1,15,0,1
169698.5195,-442.6954574,4,1,1,15,0,1
169708.668,-354.3485336,4,1,1,15,0,1
169718.1797,-279.7436336,4,1,1,15,0,1
169727.2734,-220.0042631,4,1,1,15,0,1
169736.1211,-173.4807523,4,1,1,15,0,1
169744.8711,-137.6524654,4,1,1,15,0,1
169753.6445,-110.0882867,4,1,1,15,0,1
169762.543,-88.77883238,4,1,1,15,0,1
169771.6523,-72.17341081,4,1,1,15,0,1
169781.0664,-59.11237796,4,1,1,15,0,1
169790.8828,-48.73943779,4,1,1,15,0,1
169801.207,-40.4236952,4,1,1,15,0,1
169812.1836,-33.69861083,4,1,1,15,0,1
169823.9844,-28.21667843,4,1,1,15,0,1
169836.832,-23.71664318,4,1,1,15,0,1
169851,-10000,4,1,1,15,0,1
169891.6641,-1642.764496,4,1,1,15,0,1
169926.2969,-1076.127211,4,1,1,15,0,1
169955.7578,-897.2148101,4,1,1,15,0,1
169980.8281,-824.0388139,4,1,1,15,0,1
170002.2148,-786.7397812,4,1,1,15,0,1
170020.5469,-752.893703,4,1,1,15,0,1
170036.3828,-703.0086788,4,1,1,15,0,1
170050.2148,-629.655306,4,1,1,15,0,1
170062.4727,-538.4817046,4,1,1,15,0,1
170073.5195,-442.6954574,4,1,1,15,0,1
170083.668,-354.3485336,4,1,1,15,0,1
170093.1797,-279.7436336,4,1,1,15,0,1
170102.2734,-220.0042631,4,1,1,15,0,1
170111.1211,-173.4807523,4,1,1,15,0,1
170119.8711,-137.6524654,4,1,1,15,0,1
170128.6445,-110.0882867,4,1,1,15,0,1
170137.543,-88.77883238,4,1,1,15,0,1
170146.6523,-72.17341081,4,1,1,15,0,1
170156.0664,-59.11237796,4,1,1,15,0,1
170165.8828,-48.73943779,4,1,1,15,0,1
170176.207,-40.4236952,4,1,1,15,0,1
170187.1836,-33.69861083,4,1,1,15,0,1
170198.9844,-28.21667843,4,1,1,15,0,1
170211.832,-23.71664318,4,1,1,15,0,1
170226,-10000,4,1,1,15,0,1
170266.6641,-1642.764496,4,1,1,15,0,1
170301.2969,-1076.127211,4,1,1,15,0,1
170330.7578,-897.2148101,4,1,1,15,0,1
170355.8281,-824.0388139,4,1,1,15,0,1
170377.2148,-786.7397812,4,1,1,15,0,1
170395.5469,-752.893703,4,1,1,15,0,1
170411.3828,-703.0086788,4,1,1,15,0,1
170425.2148,-629.655306,4,1,1,15,0,1
170437.4727,-538.4817046,4,1,1,15,0,1
170448.5195,-442.6954574,4,1,1,15,0,1
170458.668,-354.3485336,4,1,1,15,0,1
170468.1797,-279.7436336,4,1,1,15,0,1
170477.2734,-220.0042631,4,1,1,15,0,1
170486.1211,-173.4807523,4,1,1,15,0,1
170494.8711,-137.6524654,4,1,1,15,0,1
170503.6445,-110.0882867,4,1,1,15,0,1
170512.543,-88.77883238,4,1,1,15,0,1
170521.6523,-72.17341081,4,1,1,15,0,1
170531.0664,-59.11237796,4,1,1,15,0,1
170540.8828,-48.73943779,4,1,1,15,0,1
170551.207,-40.4236952,4,1,1,15,0,1
170562.1836,-33.69861083,4,1,1,15,0,1
170573.9844,-28.21667843,4,1,1,15,0,1
170586.832,-23.71664318,4,1,1,15,0,1
170601,-14.20454545,4,1,1,15,0,1
170619.326,-1501.331558,4,1,1,15,0,1
170788,-10000,4,1,1,15,0,1
170797.6406,-10000,4,1,1,15,0,1
170806.293,-10000,4,1,1,15,0,1
170814.0703,-9896.781648,4,1,1,15,0,1
170821.1055,-9179.234076,4,1,1,15,0,1
170827.5234,-8102.263867,4,1,1,15,0,1
170833.4414,-6722.039945,4,1,1,15,0,1
170838.9883,-5219.012193,4,1,1,15,0,1
170844.2813,-3825.553517,4,1,1,15,0,1
170849.4414,-2696.487405,4,1,1,15,0,1
170854.5781,-1864.331902,4,1,1,15,0,1
170859.7969,-1284.39443,4,1,1,15,0,1
170865.1992,-890.7745861,4,1,1,15,0,1
170870.8711,-625.4849105,4,1,1,15,0,1
170876.8906,-445.8789945,4,1,1,15,0,1
170883.3359,-322.9616688,4,1,1,15,0,1
170890.2539,-237.663154,4,1,1,15,0,1
170897.6953,-177.5684517,4,1,1,15,0,1
170905.6914,-134.5781066,4,1,1,15,0,1
170914.2461,-103.3624747,4,1,1,15,0,1
170923.3672,-80.37236112,4,1,1,15,0,1
170933.0313,-63.21211999,4,1,1,15,0,1
170943.1953,-50.24185977,4,1,1,15,0,1
170953.8047,-40.32322772,4,1,1,15,0,1
170964.7734,-32.65518908,4,1,1,15,0,1
170976,-10000,4,1,1,15,0,1
171016.6641,-1642.764496,4,1,1,15,0,1
171051.2969,-1076.127211,4,1,1,15,0,1
171080.7578,-897.2148101,4,1,1,15,0,1
171105.8281,-824.0388139,4,1,1,15,0,1
171127.2148,-786.7397812,4,1,1,15,0,1
171145.5469,-752.893703,4,1,1,15,0,1
171161.3828,-703.0086788,4,1,1,15,0,1
171175.2148,-629.655306,4,1,1,15,0,1
171187.4727,-538.4817046,4,1,1,15,0,1
171198.5195,-442.6954574,4,1,1,15,0,1
171208.668,-354.3485336,4,1,1,15,0,1
171218.1797,-279.7436336,4,1,1,15,0,1
171227.2734,-220.0042631,4,1,1,15,0,1
171236.1211,-173.4807523,4,1,1,15,0,1
171244.8711,-137.6524654,4,1,1,15,0,1
171253.6445,-110.0882867,4,1,1,15,0,1
171262.543,-88.77883238,4,1,1,15,0,1
171271.6523,-72.17341081,4,1,1,15,0,1
171281.0664,-59.11237796,4,1,1,15,0,1
171290.8828,-48.73943779,4,1,1,15,0,1
171301.207,-40.4236952,4,1,1,15,0,1
171312.1836,-33.69861083,4,1,1,15,0,1
171323.9844,-28.21667843,4,1,1,15,0,1
171336.832,-23.71664318,4,1,1,15,0,1
171351,-10000,4,1,1,15,0,1
171391.6641,-1642.764496,4,1,1,15,0,1
171426.2969,-1076.127211,4,1,1,15,0,1
171455.7578,-897.2148101,4,1,1,15,0,1
171480.8281,-824.0388139,4,1,1,15,0,1
171502.2148,-786.7397812,4,1,1,15,0,1
171520.5469,-752.893703,4,1,1,15,0,1
171536.3828,-703.0086788,4,1,1,15,0,1
171550.2148,-629.655306,4,1,1,15,0,1
171562.4727,-538.4817046,4,1,1,15,0,1
171573.5195,-442.6954574,4,1,1,15,0,1
171583.668,-354.3485336,4,1,1,15,0,1
171593.1797,-279.7436336,4,1,1,15,0,1
171602.2734,-220.0042631,4,1,1,15,0,1
171611.1211,-173.4807523,4,1,1,15,0,1
171619.8711,-137.6524654,4,1,1,15,0,1
171628.6445,-110.0882867,4,1,1,15,0,1
171637.543,-88.77883238,4,1,1,15,0,1
171646.6523,-72.17341081,4,1,1,15,0,1
171656.0664,-59.11237796,4,1,1,15,0,1
171665.8828,-48.73943779,4,1,1,15,0,1
171676.207,-40.4236952,4,1,1,15,0,1
171687.1836,-33.69861083,4,1,1,15,0,1
171698.9844,-28.21667843,4,1,1,15,0,1
171711.832,-23.71664318,4,1,1,15,0,1
171726,-10000,4,1,1,15,0,1
171766.6641,-1642.764496,4,1,1,15,0,1
171801.2969,-1076.127211,4,1,1,15,0,1
171830.7578,-897.2148101,4,1,1,15,0,1
171855.8281,-824.0388139,4,1,1,15,0,1
171877.2148,-786.7397812,4,1,1,15,0,1
171895.5469,-752.893703,4,1,1,15,0,1
171911.3828,-703.0086788,4,1,1,15,0,1
171925.2148,-629.655306,4,1,1,15,0,1
171937.4727,-538.4817046,4,1,1,15,0,1
171948.5195,-442.6954574,4,1,1,15,0,1
171958.668,-354.3485336,4,1,1,15,0,1
171968.1797,-279.7436336,4,1,1,15,0,1
171977.2734,-220.0042631,4,1,1,15,0,1
171986.1211,-173.4807523,4,1,1,15,0,1
171994.8711,-137.6524654,4,1,1,15,0,1
172003.6445,-110.0882867,4,1,1,15,0,1
172012.543,-88.77883238,4,1,1,15,0,1
172021.6523,-72.17341081,4,1,1,15,0,1
172031.0664,-59.11237796,4,1,1,15,0,1
172040.8828,-48.73943779,4,1,1,15,0,1
172051.207,-40.4236952,4,1,1,15,0,1
172062.1836,-33.69861083,4,1,1,15,0,1
172073.9844,-28.21667843,4,1,1,15,0,1
172086.832,-23.71664318,4,1,1,15,0,1
172101,-69.44444168,4,1,1,15,0,1
172108.4805,-72.31703255,4,1,1,15,0,1
172115.9609,-75.43753612,4,1,1,15,0,1
172123.4414,-78.83947827,4,1,1,15,0,1
172130.9219,-82.56274777,4,1,1,15,0,1
172138.3984,-86.65510936,4,1,1,15,0,1
172145.8789,-91.17431792,4,1,1,15,0,1
172153.3594,-96.19084127,4,1,1,15,0,1
172160.8398,-101.7915248,4,1,1,15,0,1
172168.3203,-108.0847332,4,1,1,15,0,1
172175.8008,-115.2073692,4,1,1,15,0,1
172183.2813,-123.3349754,4,1,1,15,0,1
172190.7617,-132.6963904,4,1,1,15,0,1
172198.2383,-143.5956251,4,1,1,15,0,1
172205.7188,-156.4455492,4,1,1,15,0,1
172213.1992,-171.8213008,4,1,1,15,0,1
172220.6797,-190.5487796,4,1,1,15,0,1
172228.1602,-213.8579902,4,1,1,15,0,1
172235.6406,-243.6647155,4,1,1,15,0,1
172243.1211,-283.1256931,4,1,1,15,0,1
172250.6016,-337.8378335,4,1,1,15,0,1
172258.0781,-418.7604618,4,1,1,15,0,1
172265.5586,-550.6607795,4,1,1,15,0,1
172273.0391,-803.8584902,4,1,1,15,0,1
172280.5195,-1488.095126,4,1,1,15,0,1
172288,-10000,4,1,1,15,0,1
172297.6406,-10000,4,1,1,15,0,1
172306.293,-10000,4,1,1,15,0,1
172314.0703,-9896.781648,4,1,1,15,0,1
172321.1055,-9179.234076,4,1,1,15,0,1
172327.5234,-8102.263867,4,1,1,15,0,1
172333.4414,-6722.039945,4,1,1,15,0,1
172338.9883,-5219.012193,4,1,1,15,0,1
172344.2813,-3825.553517,4,1,1,15,0,1
172349.4414,-2696.487405,4,1,1,15,0,1
172354.5781,-1864.331902,4,1,1,15,0,1
172359.7969,-1284.39443,4,1,1,15,0,1
172365.1992,-890.7745861,4,1,1,15,0,1
172370.8711,-625.4849105,4,1,1,15,0,1
172376.8906,-445.8789945,4,1,1,15,0,1
172383.3359,-322.9616688,4,1,1,15,0,1
172390.2539,-237.663154,4,1,1,15,0,1
172397.6953,-177.5684517,4,1,1,15,0,1
172405.6914,-134.5781066,4,1,1,15,0,1
172414.2461,-103.3624747,4,1,1,15,0,1
172423.3672,-80.37236112,4,1,1,15,0,1
172433.0313,-63.21211999,4,1,1,15,0,1
172443.1953,-50.24185977,4,1,1,15,0,1
172453.8047,-40.32322772,4,1,1,15,0,1
172464.7734,-32.65518908,4,1,1,15,0,1
172476,-10000,4,1,1,15,0,1
172516.6641,-1642.764496,4,1,1,15,0,1
172551.2969,-1076.127211,4,1,1,15,0,1
172580.7578,-897.2148101,4,1,1,15,0,1
172605.8281,-824.0388139,4,1,1,15,0,1
172627.2148,-786.7397812,4,1,1,15,0,1
172645.5469,-752.893703,4,1,1,15,0,1
172661.3828,-703.0086788,4,1,1,15,0,1
172675.2148,-629.655306,4,1,1,15,0,1
172687.4727,-538.4817046,4,1,1,15,0,1
172698.5195,-442.6954574,4,1,1,15,0,1
172708.668,-354.3485336,4,1,1,15,0,1
172718.1797,-279.7436336,4,1,1,15,0,1
172727.2734,-220.0042631,4,1,1,15,0,1
172736.1211,-173.4807523,4,1,1,15,0,1
172744.8711,-137.6524654,4,1,1,15,0,1
172753.6445,-110.0882867,4,1,1,15,0,1
172762.543,-88.77883238,4,1,1,15,0,1
172771.6523,-72.17341081,4,1,1,15,0,1
172781.0664,-59.11237796,4,1,1,15,0,1
172790.8828,-48.73943779,4,1,1,15,0,1
172801.207,-40.4236952,4,1,1,15,0,1
172812.1836,-33.69861083,4,1,1,15,0,1
172823.9844,-28.21667843,4,1,1,15,0,1
172836.832,-23.71664318,4,1,1,15,0,1
172851,-10000,4,1,1,15,0,1
172891.6641,-1642.764496,4,1,1,15,0,1
172926.2969,-1076.127211,4,1,1,15,0,1
172955.7578,-897.2148101,4,1,1,15,0,1
172980.8281,-824.0388139,4,1,1,15,0,1
173002.2148,-786.7397812,4,1,1,15,0,1
173020.5469,-752.893703,4,1,1,15,0,1
173036.3828,-703.0086788,4,1,1,15,0,1
173050.2148,-629.655306,4,1,1,15,0,1
173062.4727,-538.4817046,4,1,1,15,0,1
173073.5195,-442.6954574,4,1,1,15,0,1
173083.668,-354.3485336,4,1,1,15,0,1
173093.1797,-279.7436336,4,1,1,15,0,1
173102.2734,-220.0042631,4,1,1,15,0,1
173111.1211,-173.4807523,4,1,1,15,0,1
173119.8711,-137.6524654,4,1,1,15,0,1
173128.6445,-110.0882867,4,1,1,15,0,1
173137.543,-88.77883238,4,1,1,15,0,1
173146.6523,-72.17341081,4,1,1,15,0,1
173156.0664,-59.11237796,4,1,1,15,0,1
173165.8828,-48.73943779,4,1,1,15,0,1
173176.207,-40.4236952,4,1,1,15,0,1
173187.1836,-33.69861083,4,1,1,15,0,1
173198.9844,-28.21667843,4,1,1,15,0,1
173211.832,-23.71664318,4,1,1,15,0,1
173226,-14.20454545,4,1,1,15,0,1
173244.326,-1501.331558,4,1,1,15,0,1
173413,-10000,4,1,1,15,0,1
173581.824,-13.76481067,4,1,1,15,0,1
173601,-10000,4,1,1,15,0,1
173641.6641,-1642.764496,4,1,1,15,0,1
173676.2969,-1076.127211,4,1,1,15,0,1
173705.7578,-897.2148101,4,1,1,15,0,1
173730.8281,-824.0388139,4,1,1,15,0,1
173752.2148,-786.7397812,4,1,1,15,0,1
173770.5469,-752.893703,4,1,1,15,0,1
173786.3828,-703.0086788,4,1,1,15,0,1
173800.2148,-629.655306,4,1,1,15,0,1
173812.4727,-538.4817046,4,1,1,15,0,1
173823.5195,-442.6954574,4,1,1,15,0,1
173833.668,-354.3485336,4,1,1,15,0,1
173843.1797,-279.7436336,4,1,1,15,0,1
173852.2734,-220.0042631,4,1,1,15,0,1
173861.1211,-173.4807523,4,1,1,15,0,1
173869.8711,-137.6524654,4,1,1,15,0,1
173878.6445,-110.0882867,4,1,1,15,0,1
173887.543,-88.77883238,4,1,1,15,0,1
173896.6523,-72.17341081,4,1,1,15,0,1
173906.0664,-59.11237796,4,1,1,15,0,1
173915.8828,-48.73943779,4,1,1,15,0,1
173926.207,-40.4236952,4,1,1,15,0,1
173937.1836,-33.69861083,4,1,1,15,0,1
173948.9844,-28.21667843,4,1,1,15,0,1
173961.832,-23.71664318,4,1,1,15,0,1
173976,-10000,4,1,1,15,0,1
174016.6641,-1642.764496,4,1,1,15,0,1
174051.2969,-1076.127211,4,1,1,15,0,1
174080.7578,-897.2148101,4,1,1,15,0,1
174105.8281,-824.0388139,4,1,1,15,0,1
174127.2148,-786.7397812,4,1,1,15,0,1
174145.5469,-752.893703,4,1,1,15,0,1
174161.3828,-703.0086788,4,1,1,15,0,1
174175.2148,-629.655306,4,1,1,15,0,1
174187.4727,-538.4817046,4,1,1,15,0,1
174198.5195,-442.6954574,4,1,1,15,0,1
174208.668,-354.3485336,4,1,1,15,0,1
174218.1797,-279.7436336,4,1,1,15,0,1
174227.2734,-220.0042631,4,1,1,15,0,1
174236.1211,-173.4807523,4,1,1,15,0,1
174244.8711,-137.6524654,4,1,1,15,0,1
174253.6445,-110.0882867,4,1,1,15,0,1
174262.543,-88.77883238,4,1,1,15,0,1
174271.6523,-72.17341081,4,1,1,15,0,1
174281.0664,-59.11237796,4,1,1,15,0,1
174290.8828,-48.73943779,4,1,1,15,0,1
174301.207,-40.4236952,4,1,1,15,0,1
174312.1836,-33.69861083,4,1,1,15,0,1
174323.9844,-28.21667843,4,1,1,15,0,1
174336.832,-23.71664318,4,1,1,15,0,1
174351,-10000,4,1,1,15,0,1
174391.6641,-1642.764496,4,1,1,15,0,1
174426.2969,-1076.127211,4,1,1,15,0,1
174455.7578,-897.2148101,4,1,1,15,0,1
174480.8281,-824.0388139,4,1,1,15,0,1
174502.2148,-786.7397812,4,1,1,15,0,1
174520.5469,-752.893703,4,1,1,15,0,1
174536.3828,-703.0086788,4,1,1,15,0,1
174550.2148,-629.655306,4,1,1,15,0,1
174562.4727,-538.4817046,4,1,1,15,0,1
174573.5195,-442.6954574,4,1,1,15,0,1
174583.668,-354.3485336,4,1,1,15,0,1
174593.1797,-279.7436336,4,1,1,15,0,1
174602.2734,-220.0042631,4,1,1,15,0,1
174611.1211,-173.4807523,4,1,1,15,0,1
174619.8711,-137.6524654,4,1,1,15,0,1
174628.6445,-110.0882867,4,1,1,15,0,1
174637.543,-88.77883238,4,1,1,15,0,1
174646.6523,-72.17341081,4,1,1,15,0,1
174656.0664,-59.11237796,4,1,1,15,0,1
174665.8828,-48.73943779,4,1,1,15,0,1
174676.207,-40.4236952,4,1,1,15,0,1
174687.1836,-33.69861083,4,1,1,15,0,1
174698.9844,-28.21667843,4,1,1,15,0,1
174711.832,-23.71664318,4,1,1,15,0,1
174726,-10000,4,1,1,15,0,1
174766.6641,-1642.764496,4,1,1,15,0,1
174801.2969,-1076.127211,4,1,1,15,0,1
174830.7578,-897.2148101,4,1,1,15,0,1
174855.8281,-824.0388139,4,1,1,15,0,1
174877.2148,-786.7397812,4,1,1,15,0,1
174895.5469,-752.893703,4,1,1,15,0,1
174911.3828,-703.0086788,4,1,1,15,0,1
174925.2148,-629.655306,4,1,1,15,0,1
174937.4727,-538.4817046,4,1,1,15,0,1
174948.5195,-442.6954574,4,1,1,15,0,1
174958.668,-354.3485336,4,1,1,15,0,1
174968.1797,-279.7436336,4,1,1,15,0,1
174977.2734,-220.0042631,4,1,1,15,0,1
174986.1211,-173.4807523,4,1,1,15,0,1
174994.8711,-137.6524654,4,1,1,15,0,1
175003.6445,-110.0882867,4,1,1,15,0,1
175012.543,-88.77883238,4,1,1,15,0,1
175021.6523,-72.17341081,4,1,1,15,0,1
175031.0664,-59.11237796,4,1,1,15,0,1
175040.8828,-48.73943779,4,1,1,15,0,1
175051.207,-40.4236952,4,1,1,15,0,1
175062.1836,-33.69861083,4,1,1,15,0,1
175073.9844,-28.21667843,4,1,1,15,0,1
175086.832,-23.71664318,4,1,1,15,0,1
175101,-10000,4,1,1,15,0,1
175141.6641,-1642.764496,4,1,1,15,0,1
175176.2969,-1076.127211,4,1,1,15,0,1
175205.7578,-897.2148101,4,1,1,15,0,1
175230.8281,-824.0388139,4,1,1,15,0,1
175252.2148,-786.7397812,4,1,1,15,0,1
175270.5469,-752.893703,4,1,1,15,0,1
175286.3828,-703.0086788,4,1,1,15,0,1
175300.2148,-629.655306,4,1,1,15,0,1
175312.4727,-538.4817046,4,1,1,15,0,1
175323.5195,-442.6954574,4,1,1,15,0,1
175333.668,-354.3485336,4,1,1,15,0,1
175343.1797,-279.7436336,4,1,1,15,0,1
175352.2734,-220.0042631,4,1,1,15,0,1
175361.1211,-173.4807523,4,1,1,15,0,1
175369.8711,-137.6524654,4,1,1,15,0,1
175378.6445,-110.0882867,4,1,1,15,0,1
175387.543,-88.77883238,4,1,1,15,0,1
175396.6523,-72.17341081,4,1,1,15,0,1
175406.0664,-59.11237796,4,1,1,15,0,1
175415.8828,-48.73943779,4,1,1,15,0,1
175426.207,-40.4236952,4,1,1,15,0,1
175437.1836,-33.69861083,4,1,1,15,0,1
175448.9844,-28.21667843,4,1,1,15,0,1
175461.832,-23.71664318,4,1,1,15,0,1
175476,-10000,4,1,1,15,0,1
175516.6641,-1642.764496,4,1,1,15,0,1
175551.2969,-1076.127211,4,1,1,15,0,1
175580.7578,-897.2148101,4,1,1,15,0,1
175605.8281,-824.0388139,4,1,1,15,0,1
175627.2148,-786.7397812,4,1,1,15,0,1
175645.5469,-752.893703,4,1,1,15,0,1
175661.3828,-703.0086788,4,1,1,15,0,1
175675.2148,-629.655306,4,1,1,15,0,1
175687.4727,-538.4817046,4,1,1,15,0,1
175698.5195,-442.6954574,4,1,1,15,0,1
175708.668,-354.3485336,4,1,1,15,0,1
175718.1797,-279.7436336,4,1,1,15,0,1
175727.2734,-220.0042631,4,1,1,15,0,1
175736.1211,-173.4807523,4,1,1,15,0,1
175744.8711,-137.6524654,4,1,1,15,0,1
175753.6445,-110.0882867,4,1,1,15,0,1
175762.543,-88.77883238,4,1,1,15,0,1
175771.6523,-72.17341081,4,1,1,15,0,1
175781.0664,-59.11237796,4,1,1,15,0,1
175790.8828,-48.73943779,4,1,1,15,0,1
175801.207,-40.4236952,4,1,1,15,0,1
175812.1836,-33.69861083,4,1,1,15,0,1
175823.9844,-28.21667843,4,1,1,15,0,1
175836.832,-23.71664318,4,1,1,15,0,1
175851,-10000,4,1,1,15,0,1
175891.6641,-1642.764496,4,1,1,15,0,1
175926.2969,-1076.127211,4,1,1,15,0,1
175955.7578,-897.2148101,4,1,1,15,0,1
175980.8281,-824.0388139,4,1,1,15,0,1
176002.2148,-786.7397812,4,1,1,15,0,1
176020.5469,-752.893703,4,1,1,15,0,1
176036.3828,-703.0086788,4,1,1,15,0,1
176050.2148,-629.655306,4,1,1,15,0,1
176062.4727,-538.4817046,4,1,1,15,0,1
176073.5195,-442.6954574,4,1,1,15,0,1
176083.668,-354.3485336,4,1,1,15,0,1
176093.1797,-279.7436336,4,1,1,15,0,1
176102.2734,-220.0042631,4,1,1,15,0,1
176111.1211,-173.4807523,4,1,1,15,0,1
176119.8711,-137.6524654,4,1,1,15,0,1
176128.6445,-110.0882867,4,1,1,15,0,1
176137.543,-88.77883238,4,1,1,15,0,1
176146.6523,-72.17341081,4,1,1,15,0,1
176156.0664,-59.11237796,4,1,1,15,0,1
176165.8828,-48.73943779,4,1,1,15,0,1
176176.207,-40.4236952,4,1,1,15,0,1
176187.1836,-33.69861083,4,1,1,15,0,1
176198.9844,-28.21667843,4,1,1,15,0,1
176211.832,-23.71664318,4,1,1,15,0,1
176226,-10000,4,1,1,15,0,1
176266.6641,-1642.764496,4,1,1,15,0,1
176301.2969,-1076.127211,4,1,1,15,0,1
176330.7578,-897.2148101,4,1,1,15,0,1
176355.8281,-824.0388139,4,1,1,15,0,1
176377.2148,-786.7397812,4,1,1,15,0,1
176395.5469,-752.893703,4,1,1,15,0,1
176411.3828,-703.0086788,4,1,1,15,0,1
176425.2148,-629.655306,4,1,1,15,0,1
176437.4727,-538.4817046,4,1,1,15,0,1
176448.5195,-442.6954574,4,1,1,15,0,1
176458.668,-354.3485336,4,1,1,15,0,1
176468.1797,-279.7436336,4,1,1,15,0,1
176477.2734,-220.0042631,4,1,1,15,0,1
176486.1211,-173.4807523,4,1,1,15,0,1
176494.8711,-137.6524654,4,1,1,15,0,1
176503.6445,-110.0882867,4,1,1,15,0,1
176512.543,-88.77883238,4,1,1,15,0,1
176521.6523,-72.17341081,4,1,1,15,0,1
176531.0664,-59.11237796,4,1,1,15,0,1
176540.8828,-48.73943779,4,1,1,15,0,1
176551.207,-40.4236952,4,1,1,15,0,1
176562.1836,-33.69861083,4,1,1,15,0,1
176573.9844,-28.21667843,4,1,1,15,0,1
176586.832,-23.71664318,4,1,1,15,0,1
176601,-14.20454545,4,1,1,15,0,1
176619.326,-1501.331558,4,1,1,15,0,1
176788,-10000,4,1,1,15,0,1
176797.6406,-10000,4,1,1,15,0,1
176806.293,-10000,4,1,1,15,0,1
176814.0703,-9896.781648,4,1,1,15,0,1
176821.1055,-9179.234076,4,1,1,15,0,1
176827.5234,-8102.263867,4,1,1,15,0,1
176833.4414,-6722.039945,4,1,1,15,0,1
176838.9883,-5219.012193,4,1,1,15,0,1
176844.2813,-3825.553517,4,1,1,15,0,1
176849.4414,-2696.487405,4,1,1,15,0,1
176854.5781,-1864.331902,4,1,1,15,0,1
176859.7969,-1284.39443,4,1,1,15,0,1
176865.1992,-890.7745861,4,1,1,15,0,1
176870.8711,-625.4849105,4,1,1,15,0,1
176876.8906,-445.8789945,4,1,1,15,0,1
176883.3359,-322.9616688,4,1,1,15,0,1
176890.2539,-237.663154,4,1,1,15,0,1
176897.6953,-177.5684517,4,1,1,15,0,1
176905.6914,-134.5781066,4,1,1,15,0,1
176914.2461,-103.3624747,4,1,1,15,0,1
176923.3672,-80.37236112,4,1,1,15,0,1
176933.0313,-63.21211999,4,1,1,15,0,1
176943.1953,-50.24185977,4,1,1,15,0,1
176953.8047,-40.32322772,4,1,1,15,0,1
176964.7734,-32.65518908,4,1,1,15,0,1
176976,-33.33333333,4,1,1,15,0,1
176980.207,-36.31381415,4,1,1,15,0,1
176984.4766,-39.68844651,4,1,1,15,0,1
176988.8359,-43.52829253,4,1,1,15,0,1
176993.3086,-47.92098113,4,1,1,15,0,1
176997.9297,-52.97557414,4,1,1,15,0,1
177002.7188,-58.82912164,4,1,1,15,0,1
177007.7148,-65.65566771,4,1,1,15,0,1
177012.9336,-73.67887404,4,1,1,15,0,1
177018.4141,-83.18985578,4,1,1,15,0,1
177024.1797,-94.57303112,4,1,1,15,0,1
177030.2578,-108.3441276,4,1,1,15,0,1
177036.6797,-125.2075895,4,1,1,15,0,1
177043.4688,-146.1452498,4,1,1,15,0,1
177050.6563,-172.5573833,4,1,1,15,0,1
177058.2695,-206.4945942,4,1,1,15,0,1
177066.3359,-251.053064,4,1,1,15,0,1
177074.8828,-311.0786095,4,1,1,15,0,1
177083.9414,-394.4850399,4,1,1,15,0,1
177093.5391,-514.875552,4,1,1,15,0,1
177103.7031,-697.1410086,4,1,1,15,0,1
177114.4609,-990.4928785,4,1,1,15,0,1
177125.8438,-1502.108752,4,1,1,15,0,1
177137.875,-2494.786,4,1,1,15,0,1
177150.582,-4696.537811,4,1,1,15,0,1
177163,-40.16064257,4,1,1,15,0,1
177219.024,-8796.992481,4,1,1,15,0,1
177351,-13.22751323,4,1,1,15,0,1
177369.326,-9890.350877,4,1,1,15,0,1
177538,-33.33333333,4,1,1,15,0,1
177542.207,-36.31381415,4,1,1,15,0,1
177546.4766,-39.68844651,4,1,1,15,0,1
177550.8359,-43.52829253,4,1,1,15,0,1
177555.3086,-47.92098113,4,1,1,15,0,1
177559.9297,-52.97557414,4,1,1,15,0,1
177564.7188,-58.82912164,4,1,1,15,0,1
177569.7148,-65.65566771,4,1,1,15,0,1
177574.9336,-73.67887404,4,1,1,15,0,1
177580.4141,-83.18985578,4,1,1,15,0,1
177586.1797,-94.57303112,4,1,1,15,0,1
177592.2578,-108.3441276,4,1,1,15,0,1
177598.6797,-125.2075895,4,1,1,15,0,1
177605.4688,-146.1452498,4,1,1,15,0,1
177612.6563,-172.5573833,4,1,1,15,0,1
177620.2695,-206.4945942,4,1,1,15,0,1
177628.3359,-251.053064,4,1,1,15,0,1
177636.8828,-311.0786095,4,1,1,15,0,1
177645.9414,-394.4850399,4,1,1,15,0,1
177655.5391,-514.875552,4,1,1,15,0,1
177665.7031,-697.1410086,4,1,1,15,0,1
177676.4609,-990.4928785,4,1,1,15,0,1
177687.8438,-1502.108752,4,1,1,15,0,1
177699.875,-2494.786,4,1,1,15,0,1
177712.582,-4696.537811,4,1,1,15,0,1
177726,-10,4,1,1,15,0,1
177735.114,-4510,4,1,1,15,0,1
177819,-100,4,1,1,15,0,1
177913,-33.33333333,4,1,1,15,0,1
177917.207,-36.31381415,4,1,1,15,0,1
177921.4766,-39.68844651,4,1,1,15,0,1
177925.8359,-43.52829253,4,1,1,15,0,1
177930.3086,-47.92098113,4,1,1,15,0,1
177934.9297,-52.97557414,4,1,1,15,0,1
177939.7188,-58.82912164,4,1,1,15,0,1
177944.7148,-65.65566771,4,1,1,15,0,1
177949.9336,-73.67887404,4,1,1,15,0,1
177955.4141,-83.18985578,4,1,1,15,0,1
177961.1797,-94.57303112,4,1,1,15,0,1
177967.2578,-108.3441276,4,1,1,15,0,1
177973.6797,-125.2075895,4,1,1,15,0,1
177980.4688,-146.1452498,4,1,1,15,0,1
177987.6563,-172.5573833,4,1,1,15,0,1
177995.2695,-206.4945942,4,1,1,15,0,1
178003.3359,-251.053064,4,1,1,15,0,1
178011.8828,-311.0786095,4,1,1,15,0,1
178020.9414,-394.4850399,4,1,1,15,0,1
178030.5391,-514.875552,4,1,1,15,0,1
178040.7031,-697.1410086,4,1,1,15,0,1
178051.4609,-990.4928785,4,1,1,15,0,1
178062.8438,-1502.108752,4,1,1,15,0,1
178074.875,-2494.786,4,1,1,15,0,1
178087.582,-4696.537811,4,1,1,15,0,1
178101,-13.22751323,4,1,1,15,0,1
178110.114,-9890.350877,4,1,1,15,0,1
178278.412,-13.76481067,4,1,1,15,0,1
178288,-13.22751323,4,1,1,15,0,1
178297.114,-9890.350877,4,1,1,15,0,1
178465.412,-13.76481067,4,1,1,15,0,1
178476,-10000,4,1,1,15,0,1
178812.75,-13.76481067,4,1,1,15,0,1
178851,-10000,4,1,1,15,0,1
179187.75,-13.76481067,4,1,1,15,0,1
179226,-14.20454545,4,1,1,15,0,1
179244.326,-1501.331558,4,1,1,15,0,1
179413,-10000,4,1,1,15,0,1
179581.824,-13.76481067,4,1,1,15,0,1
179601,-10000,4,1,1,15,0,1
179937.75,-13.76481067,4,1,1,15,0,1
179976,-10000,4,1,1,15,0,1
180312.75,-13.76481067,4,1,1,15,0,1
180351,-10000,4,1,1,15,0,1
180687.75,-13.76481067,4,1,1,15,0,1
180726,-10000,4,1,1,15,0,1
181062.75,-13.76481067,4,1,1,15,0,1
181101,-10000,4,1,1,15,0,1
181437.75,-13.76481067,4,1,1,15,0,1
181476,-10000,4,1,1,15,0,1
181812.75,-13.76481067,4,1,1,15,0,1
181851,-10000,4,1,1,15,0,1
182187.75,-13.76481067,4,1,1,15,0,1
182226,-10000,4,1,1,15,0,1
182562.75,-13.76481067,4,1,1,15,0,1
182601,-14.20454545,4,1,1,15,0,1
182619.326,-1501.331558,4,1,1,15,0,1
182788,-10000,4,1,1,15,0,1
182797.6406,-10000,4,1,1,15,0,1
182806.293,-10000,4,1,1,15,0,1
182814.0703,-9896.781648,4,1,1,15,0,1
182821.1055,-9179.234076,4,1,1,15,0,1
182827.5234,-8102.263867,4,1,1,15,0,1
182833.4414,-6722.039945,4,1,1,15,0,1
182838.9883,-5219.012193,4,1,1,15,0,1
182844.2813,-3825.553517,4,1,1,15,0,1
182849.4414,-2696.487405,4,1,1,15,0,1
182854.5781,-1864.331902,4,1,1,15,0,1
182859.7969,-1284.39443,4,1,1,15,0,1
182865.1992,-890.7745861,4,1,1,15,0,1
182870.8711,-625.4849105,4,1,1,15,0,1
182876.8906,-445.8789945,4,1,1,15,0,1
182883.3359,-322.9616688,4,1,1,15,0,1
182890.2539,-237.663154,4,1,1,15,0,1
182897.6953,-177.5684517,4,1,1,15,0,1
182905.6914,-134.5781066,4,1,1,15,0,1
182914.2461,-103.3624747,4,1,1,15,0,1
182923.3672,-80.37236112,4,1,1,15,0,1
182933.0313,-63.21211999,4,1,1,15,0,1
182943.1953,-50.24185977,4,1,1,15,0,1
182953.8047,-40.32322772,4,1,1,15,0,1
182964.7734,-32.65518908,4,1,1,15,0,1
182976,-10000,4,1,1,15,0,1
183312.75,-13.76481067,4,1,1,15,0,1
183351,-10000,4,1,1,15,0,1
183687.75,-13.76481067,4,1,1,15,0,1
183726,-33.33333333,4,1,1,15,0,1
183728.4688,-35.06587501,4,1,1,15,0,1
183731.9688,-36.95578966,4,1,1,15,0,1
183736.5313,-39.02466256,4,1,1,15,0,1
183742.125,-41.29818942,4,1,1,15,0,1
183748.7656,-43.80718465,4,1,1,15,0,1
183756.4531,-46.58892486,4,1,1,15,0,1
183765.1875,-49.68893357,4,1,1,15,0,1
183774.9688,-53.16339518,4,1,1,15,0,1
183785.7813,-57.08245033,4,1,1,15,0,1
183797.6563,-61.53483666,4,1,1,15,0,1
183810.5625,-66.63445864,4,1,1,15,0,1
183824.5156,-72.53001244,4,1,1,15,0,1
183839.5156,-79.41930781,4,1,1,15,0,1
183855.5625,-87.57142718,4,1,1,15,0,1
183872.6563,-97.3619019,4,1,1,15,0,1
183890.7813,-109.3312075,4,1,1,15,0,1
183909.9688,-124.2863627,4,1,1,15,0,1
183930.1875,-143.4883986,4,1,1,15,0,1
183951.4531,-169.0237641,4,1,1,15,0,1
183973.7656,-204.6117357,4,1,1,15,0,1
183997.125,-257.5901285,4,1,1,15,0,1
184021.5313,-344.72996,4,1,1,15,0,1
184046.9688,-514.5725881,4,1,1,15,0,1
184073.4688,-990.3410086,4,1,1,15,0,1
184101,-13.22751323,4,1,1,15,0,1
184110.114,-9890.350877,4,1,1,15,0,1
184194,-13.22751323,4,1,1,15,0,1
184203.212,-9890.350877,4,1,1,15,0,1
184288,-10000,4,1,1,15,0,1
184297.6406,-10000,4,1,1,15,0,1
184306.424,-9890.350877,4,1,1,15,0,1
184314.0703,-9896.781648,4,1,1,15,0,1
184321.1055,-9179.234076,4,1,1,15,0,1
184327.5234,-8102.263867,4,1,1,15,0,1
184333.4414,-6722.039945,4,1,1,15,0,1
184338.9883,-5219.012193,4,1,1,15,0,1
184344.2813,-3825.553517,4,1,1,15,0,1
184349.4414,-2696.487405,4,1,1,15,0,1
184354.5781,-1864.331902,4,1,1,15,0,1
184359.7969,-1284.39443,4,1,1,15,0,1
184365.1992,-890.7745861,4,1,1,15,0,1
184370.8711,-625.4849105,4,1,1,15,0,1
184376.8906,-445.8789945,4,1,1,15,0,1
184383.3359,-322.9616688,4,1,1,15,0,1
184390.2539,-237.663154,4,1,1,15,0,1
184397.6953,-177.5684517,4,1,1,15,0,1
184405.6914,-134.5781066,4,1,1,15,0,1
184414.2461,-103.3624747,4,1,1,15,0,1
184423.3672,-80.37236112,4,1,1,15,0,1
184433.0313,-63.21211999,4,1,1,15,0,1
184443.1953,-50.24185977,4,1,1,15,0,1
184453.8047,-40.32322772,4,1,1,15,0,1
184464.7734,-32.65518908,4,1,1,15,0,1
184476,-10000,4,1,1,15,0,1
184812.75,-13.76481067,4,1,1,15,0,1
184851,-10000,4,1,1,15,0,1
185187.75,-13.76481067,4,1,1,15,0,1
185226,-14.20454545,4,1,1,15,0,1
185244.326,-1501.331558,4,1,1,15,0,1
185413,-10000,4,1,1,15,0,1
185581.824,-13.76481067,4,1,1,15,0,1
185601,-10000,4,1,1,15,0,1
185937.75,-13.76481067,4,1,1,15,0,1
185976,-10000,4,1,1,15,0,1
186312.75,-13.76481067,4,1,1,15,0,1
186351,-10000,4,1,1,15,0,1
186687.75,-13.76481067,4,1,1,15,0,1
186726,-10000,4,1,1,15,0,1
187062.75,-13.76481067,4,1,1,15,0,1
187101,-10000,4,1,1,15,0,1
187437.75,-13.76481067,4,1,1,15,0,1
187476,-10000,4,1,1,15,0,1
187812.75,-13.76481067,4,1,1,15,0,1
187851,-10000,4,1,1,15,0,1
188187.75,-13.76481067,4,1,1,15,0,1
188226,-10000,4,1,1,15,0,1
188562.75,-13.76481067,4,1,1,15,0,1
188601,-14.20454545,4,1,1,15,0,1
188619.326,-1501.331558,4,1,1,15,0,1
188788,-10000,4,1,1,15,0,1
188797.6406,-10000,4,1,1,15,0,1
188806.293,-10000,4,1,1,15,0,1
188814.0703,-9896.781648,4,1,1,15,0,1
188821.1055,-9179.234076,4,1,1,15,0,1
188827.5234,-8102.263867,4,1,1,15,0,1
188833.4414,-6722.039945,4,1,1,15,0,1
188838.9883,-5219.012193,4,1,1,15,0,1
188844.2813,-3825.553517,4,1,1,15,0,1
188849.4414,-2696.487405,4,1,1,15,0,1
188854.5781,-1864.331902,4,1,1,15,0,1
188859.7969,-1284.39443,4,1,1,15,0,1
188865.1992,-890.7745861,4,1,1,15,0,1
188870.8711,-625.4849105,4,1,1,15,0,1
188876.8906,-445.8789945,4,1,1,15,0,1
188883.3359,-322.9616688,4,1,1,15,0,1
188890.2539,-237.663154,4,1,1,15,0,1
188897.6953,-177.5684517,4,1,1,15,0,1
188905.6914,-134.5781066,4,1,1,15,0,1
188914.2461,-103.3624747,4,1,1,15,0,1
188923.3672,-80.37236112,4,1,1,15,0,1
188933.0313,-63.21211999,4,1,1,15,0,1
188943.1953,-50.24185977,4,1,1,15,0,1
188953.8047,-40.32322772,4,1,1,15,0,1
188964.7734,-32.65518908,4,1,1,15,0,1
188976,-20,4,1,1,15,0,1
189022,-10000,4,1,1,15,0,1
189038.875,-10000,4,1,1,15,0,1
189054.0117,-10000,4,1,1,15,0,1
189067.6289,-9896.781648,4,1,1,15,0,1
189079.9375,-9179.234076,4,1,1,15,0,1
189091.1641,-8102.263867,4,1,1,15,0,1
189101.5234,-6722.039945,4,1,1,15,0,1
189111.2305,-5219.012193,4,1,1,15,0,1
189120.4961,-3825.553517,4,1,1,15,0,1
189129.5234,-2696.487405,4,1,1,15,0,1
189138.5156,-1864.331902,4,1,1,15,0,1
189147.6484,-1284.39443,4,1,1,15,0,1
189157.0977,-890.7745861,4,1,1,15,0,1
189167.0234,-625.4849105,4,1,1,15,0,1
189177.5625,-445.8789945,4,1,1,15,0,1
189188.8359,-322.9616688,4,1,1,15,0,1
189200.9453,-237.663154,4,1,1,15,0,1
189213.9688,-177.5684517,4,1,1,15,0,1
189227.957,-134.5781066,4,1,1,15,0,1
189242.9336,-103.3624747,4,1,1,15,0,1
189258.8945,-80.37236112,4,1,1,15,0,1
189275.8047,-63.21211999,4,1,1,15,0,1
189293.5938,-50.24185977,4,1,1,15,0,1
189312.1563,-40.32322772,4,1,1,15,0,1
189331.3555,-32.65518908,4,1,1,15,0,1
189351,-25,4,1,1,15,0,1
189397,-10000,4,1,1,15,0,1
189413.875,-10000,4,1,1,15,0,1
189429.0117,-10000,4,1,1,15,0,1
189442.6289,-9896.781648,4,1,1,15,0,1
189454.9375,-9179.234076,4,1,1,15,0,1
189466.1641,-8102.263867,4,1,1,15,0,1
189476.5234,-6722.039945,4,1,1,15,0,1
189486.2305,-5219.012193,4,1,1,15,0,1
189495.4961,-3825.553517,4,1,1,15,0,1
189504.5234,-2696.487405,4,1,1,15,0,1
189513.5156,-1864.331902,4,1,1,15,0,1
189522.6484,-1284.39443,4,1,1,15,0,1
189532.0977,-890.7745861,4,1,1,15,0,1
189542.0234,-625.4849105,4,1,1,15,0,1
189552.5625,-445.8789945,4,1,1,15,0,1
189563.8359,-322.9616688,4,1,1,15,0,1
189575.9453,-237.663154,4,1,1,15,0,1
189588.9688,-177.5684517,4,1,1,15,0,1
189602.957,-134.5781066,4,1,1,15,0,1
189617.9336,-103.3624747,4,1,1,15,0,1
189633.8945,-80.37236112,4,1,1,15,0,1
189650.8047,-63.21211999,4,1,1,15,0,1
189668.5938,-50.24185977,4,1,1,15,0,1
189687.1563,-40.32322772,4,1,1,15,0,1
189706.3555,-32.65518908,4,1,1,15,0,1
189726,-40,4,1,1,15,0,0
189772,-100,4,1,1,15,0,0
190476,-10,4,1,1,15,0,0
190501,-10000,4,1,1,15,0,0
190813,-13.33333333,4,1,1,15,0,0
190851,-10,4,1,1,15,0,0
190876,-10000,4,1,1,15,0,0
191188,-13.64605544,4,1,1,15,0,0
191226,-13.22751323,4,1,1,15,0,0
191244.326,-9890.350877,4,1,1,15,0,0
191413,-13.22751323,4,1,1,15,0,0
191431.424,-9890.350877,4,1,1,15,0,0
191601,-10,4,1,1,15,0,0
191626,-10000,4,1,1,15,0,0
191938,-14.31767338,4,1,1,15,0,0
191976,-10,4,1,1,15,0,0
192001,-10000,4,1,1,15,0,0
192313,-14.67889908,4,1,1,15,0,0
192351,-10,4,1,1,15,0,0
192376,-10000,4,1,1,15,0,0
192688,-15.05882353,4,1,1,15,0,0
192726,-10,4,1,1,15,0,0
192751,-10000,4,1,1,15,0,0
193063,-15.4589372,4,1,1,15,0,0
193101,-10,4,1,1,15,0,0
193126,-10000,4,1,1,15,0,0
193438,-15.8808933,4,1,1,15,0,0
193476,-10,4,1,1,15,0,0
193501,-10000,4,1,1,15,0,0
193813,-16.32653061,4,1,1,15,0,0
193851,-10,4,1,1,15,0,0
193876,-10000,4,1,1,15,0,0
194188,-16.79790026,4,1,1,15,0,0
194226,-10,4,1,1,15,0,0
194251,-10000,4,1,1,15,0,0
194563,-17.2972973,4,1,1,15,0,0
194601,-13.22751323,4,1,1,15,0,0
194619.326,-9890.350877,4,1,1,15,0,0
194788,-13.22751323,4,1,1,15,0,0
194806.424,-9890.350877,4,1,1,15,0,0
194976,-10,4,1,1,15,0,0
195001,-10000,4,1,1,15,0,0
195313,-18.3908046,4,1,1,15,0,0
195351,-10,4,1,1,15,0,0
195376,-10000,4,1,1,15,0,0
195688,-18.99109792,4,1,1,15,0,0
195726,-10,4,1,1,15,0,0
195751,-10000,4,1,1,15,0,0
196063,-19.63190184,4,1,1,15,0,0
196101,-13.22751323,4,1,1,15,0,0
196119.326,-9890.350877,4,1,1,15,0,0
196288,-13.22751323,4,1,1,15,0,0
196306.424,-9890.350877,4,1,1,15,0,0
196476,-10,4,1,1,15,0,0
196501,-10000,4,1,1,15,0,0
196813,-21.05263158,4,1,1,15,0,0
196851,-10,4,1,1,15,0,0
196876,-10000,4,1,1,15,0,0
197188,-21.84300341,4,1,1,15,0,0
197226,-13.22751323,4,1,1,15,0,0
197244.326,-9890.350877,4,1,1,15,0,0
197413,-13.22751323,4,1,1,15,0,0
197431.424,-9890.350877,4,1,1,15,0,0
197601,-10,4,1,1,15,0,0
197626,-10000,4,1,1,15,0,0
197938,-23.61623616,4,1,1,15,0,0
197976,-10,4,1,1,15,0,0
198001,-10000,4,1,1,15,0,0
198313,-24.61538462,4,1,1,15,0,0
198351,-10,4,1,1,15,0,0
198376,-10000,4,1,1,15,0,0
198688,-25.70281124,4,1,1,15,0,0
198726,-10,4,1,1,15,0,0
198751,-10000,4,1,1,15,0,0
199063,-26.8907563,4,1,1,15,0,0
199101,-10,4,1,1,15,0,0
199126,-10000,4,1,1,15,0,0
199438,-28.1938326,4,1,1,15,0,0
199476,-10,4,1,1,15,0,0
199501,-10000,4,1,1,15,0,0
199813,-29.62962963,4,1,1,15,0,0
199851,-10,4,1,1,15,0,0
199876,-10000,4,1,1,15,0,0
200188,-31.2195122,4,1,1,15,0,0
200226,-10,4,1,1,15,0,0
200251,-10000,4,1,1,15,0,0
200563,-32.98969072,4,1,1,15,0,0
200601,-13.22751323,4,1,1,15,0,0
200619.326,-9890.350877,4,1,1,15,0,0
200788,-13.22751323,4,1,1,15,0,0
200806.424,-9890.350877,4,1,1,15,0,0
200976,-10,4,1,1,15,0,0
201001,-10000,4,1,1,15,0,0
201313,-37.20930233,4,1,1,15,0,0
201351,-10,4,1,1,15,0,0
201376,-10000,4,1,1,15,0,0
201688,-39.7515528,4,1,1,15,0,0
201726,-100,4,1,1,15,0,0

[HitObjects]
448,192,4476,5,0,0:0:0:0:
64,192,4476,1,0,0:0:0:0:
320,192,4851,1,0,0:0:0:0:
64,192,5226,1,0,0:0:0:0:
320,192,5226,1,0,0:0:0:0:
192,192,5413,1,0,0:0:0:0:
320,192,5601,1,0,0:0:0:0:
320,192,5976,1,0,0:0:0:0:
320,192,6351,1,0,0:0:0:0:
64,192,6726,1,0,0:0:0:0:
448,192,6726,1,0,0:0:0:0:
448,192,7101,1,0,0:0:0:0:
320,192,7476,1,0,0:0:0:0:
320,192,7851,1,0,0:0:0:0:
192,192,8226,1,0,0:0:0:0:
448,192,8226,1,0,0:0:0:0:
448,192,8601,1,0,0:0:0:0:
320,192,8788,1,0,0:0:0:0:
320,192,8976,1,0,0:0:0:0:
320,192,9351,1,0,0:0:0:0:
64,192,9726,1,0,0:0:0:0:
320,192,9726,1,0,0:0:0:0:
320,192,10101,1,0,0:0:0:0:
320,192,10288,1,0,0:0:0:0:
448,192,10476,5,0,0:0:0:0:
64,192,10476,1,0,0:0:0:0:
320,192,10851,1,0,0:0:0:0:
320,192,11226,1,0,0:0:0:0:
64,192,11226,1,0,0:0:0:0:
192,192,11413,1,0,0:0:0:0:
320,192,11601,1,0,0:0:0:0:
320,192,11976,1,0,0:0:0:0:
320,192,12351,1,0,0:0:0:0:
448,192,12726,1,0,0:0:0:0:
64,192,12726,1,0,0:0:0:0:
448,192,13101,1,0,0:0:0:0:
320,192,13476,1,0,0:0:0:0:
320,192,13851,1,0,0:0:0:0:
448,192,14226,1,0,0:0:0:0:
192,192,14226,1,0,0:0:0:0:
448,192,14601,1,0,0:0:0:0:
320,192,14788,1,0,0:0:0:0:
320,192,14976,1,0,0:0:0:0:
320,192,15351,1,0,0:0:0:0:
320,192,15726,1,0,0:0:0:0:
64,192,15726,1,0,0:0:0:0:
320,192,16101,1,0,0:0:0:0:
448,192,16476,5,0,0:0:0:0:
64,192,16476,1,0,0:0:0:0:
320,192,16851,1,0,0:0:0:0:
192,192,17226,1,0,0:0:0:0:
64,192,17226,1,0,0:0:0:0:
64,192,17413,1,0,0:0:0:0:
320,192,17601,1,0,0:0:0:0:
320,192,17976,1,0,0:0:0:0:
320,192,18351,1,0,0:0:0:0:
448,192,18726,1,0,0:0:0:0:
320,192,18726,1,0,0:0:0:0:
448,192,19101,1,0,0:0:0:0:
448,192,19288,1,0,0:0:0:0:
320,192,19476,1,0,0:0:0:0:
320,192,19851,1,0,0:0:0:0:
320,192,20226,1,0,0:0:0:0:
192,192,20226,1,0,0:0:0:0:
448,192,20601,1,0,0:0:0:0:
320,192,20788,1,0,0:0:0:0:
320,192,20976,1,0,0:0:0:0:
448,192,21351,1,0,0:0:0:0:
320,192,21538,1,0,0:0:0:0:
320,192,21726,1,0,0:0:0:0:
448,192,21726,1,0,0:0:0:0:
320,192,22101,1,0,0:0:0:0:
320,192,22288,1,0,0:0:0:0:
448,192,22476,5,0,0:0:0:0:
64,192,22476,1,0,0:0:0:0:
320,192,22851,1,0,0:0:0:0:
64,192,23226,1,0,0:0:0:0:
192,192,23226,1,0,0:0:0:0:
64,192,23413,1,0,0:0:0:0:
64,192,23601,1,0,0:0:0:0:
64,192,23976,1,0,0:0:0:0:
64,192,24351,1,0,0:0:0:0:
448,192,24726,1,0,0:0:0:0:
320,192,24726,1,0,0:0:0:0:
64,192,25101,1,0,0:0:0:0:
448,192,25288,1,0,0:0:0:0:
64,192,25476,1,0,0:0:0:0:
64,192,25851,1,0,0:0:0:0:
448,192,26226,1,0,0:0:0:0:
320,192,26226,1,0,0:0:0:0:
64,192,26601,1,0,0:0:0:0:
64,192,26788,1,0,0:0:0:0:
64,192,26976,1,0,0:0:0:0:
192,192,27351,1,0,0:0:0:0:
320,192,27726,1,0,0:0:0:0:
448,192,27726,1,0,0:0:0:0:
192,192,28101,1,0,0:0:0:0:
192,192,28288,1,0,0:0:0:0:
64,192,28476,1,0,0:0:0:0:
192,192,28476,1,0,0:0:0:0:
320,192,28476,1,0,0:0:0:0:
448,192,28476,1,0,0:0:0:0:
448,192,28851,1,0,0:0:0:0:
64,192,28851,1,0,0:0:0:0:
192,192,28851,1,0,0:0:0:0:
64,192,29226,1,0,0:0:0:0:
320,192,29226,1,0,0:0:0:0:
320,192,29413,1,0,0:0:0:0:
192,192,29413,1,0,0:0:0:0:
320,192,29601,1,0,0:0:0:0:
448,192,29601,1,0,0:0:0:0:
192,192,29601,1,0,0:0:0:0:
192,192,29976,1,0,0:0:0:0:
320,192,29976,1,0,0:0:0:0:
448,192,29976,1,0,0:0:0:0:
64,192,30351,1,0,0:0:0:0:
320,192,30351,1,0,0:0:0:0:
448,192,30351,1,0,0:0:0:0:
64,192,30726,1,0,0:0:0:0:
192,192,30726,1,0,0:0:0:0:
320,192,30726,1,0,0:0:0:0:
64,192,31101,1,0,0:0:0:0:
448,192,31101,1,0,0:0:0:0:
320,192,31101,1,0,0:0:0:0:
192,192,31476,1,0,0:0:0:0:
320,192,31476,1,0,0:0:0:0:
448,192,31476,1,0,0:0:0:0:
192,192,31851,1,0,0:0:0:0:
320,192,31851,1,0,0:0:0:0:
448,192,31851,1,0,0:0:0:0:
320,192,32226,1,0,0:0:0:0:
448,192,32226,1,0,0:0:0:0:
64,192,32226,1,0,0:0:0:0:
192,192,32601,1,0,0:0:0:0:
64,192,32601,1,0,0:0:0:0:
192,192,32788,1,0,0:0:0:0:
448,192,32788,1,0,0:0:0:0:
64,192,32976,1,0,0:0:0:0:
320,192,32976,1,0,0:0:0:0:
448,192,32976,1,0,0:0:0:0:
64,192,33351,1,0,0:0:0:0:
320,192,33351,1,0,0:0:0:0:
448,192,33351,1,0,0:0:0:0:
64,192,33726,1,0,0:0:0:0:
192,192,33726,1,0,0:0:0:0:
448,192,33726,1,0,0:0:0:0:
192,192,34101,1,0,0:0:0:0:
320,192,34101,1,0,0:0:0:0:
64,192,34288,1,0,0:0:0:0:
192,192,34288,1,0,0:0:0:0:
64,192,34476,1,0,0:0:0:0:
320,192,34476,1,0,0:0:0:0:
448,192,34476,1,0,0:0:0:0:
320,192,34663,1,0,0:0:0:0:
192,192,34663,1,0,0:0:0:0:
192,192,34851,1,0,0:0:0:0:
448,192,34851,1,0,0:0:0:0:
448,192,35038,1,0,0:0:0:0:
320,192,35038,1,0,0:0:0:0:
64,192,35226,1,0,0:0:0:0:
320,192,35226,1,0,0:0:0:0:
64,192,35413,1,0,0:0:0:0:
192,192,35413,1,0,0:0:0:0:
64,192,35601,1,0,0:0:0:0:
320,192,35601,1,0,0:0:0:0:
192,192,35788,1,0,0:0:0:0:
320,192,35788,1,0,0:0:0:0:
192,192,35976,1,0,0:0:0:0:
448,192,35976,1,0,0:0:0:0:
320,192,36163,1,0,0:0:0:0:
448,192,36163,1,0,0:0:0:0:
64,192,36351,1,0,0:0:0:0:
320,192,36351,1,0,0:0:0:0:
64,192,36538,1,0,0:0:0:0:
192,192,36538,1,0,0:0:0:0:
192,192,36726,1,0,0:0:0:0:
448,192,36726,1,0,0:0:0:0:
320,192,36913,1,0,0:0:0:0:
448,192,36913,1,0,0:0:0:0:
320,192,37101,1,0,0:0:0:0:
64,192,37101,1,0,0:0:0:0:
64,192,37288,1,0,0:0:0:0:
192,192,37288,1,0,0:0:0:0:
192,192,37476,1,0,0:0:0:0:
320,192,37569,1,0,0:0:0:0:
448,192,37663,1,0,0:0:0:0:
192,192,37757,1,0,0:0:0:0:
448,192,37851,1,0,0:0:0:0:
320,192,37944,1,0,0:0:0:0:
64,192,38038,1,0,0:0:0:0:
448,192,38132,1,0,0:0:0:0:
192,192,38226,1,0,0:0:0:0:
320,192,38319,1,0,0:0:0:0:
64,192,38413,1,0,0:0:0:0:
192,192,38507,1,0,0:0:0:0:
448,192,38601,1,0,0:0:0:0:
320,192,38694,1,0,0:0:0:0:
64,192,38788,1,0,0:0:0:0:
320,192,38882,1,0,0:0:0:0:
64,192,38976,1,0,0:0:0:0:
448,192,38976,1,0,0:0:0:0:
192,192,38976,1,0,0:0:0:0:
192,192,39163,1,0,0:0:0:0:
320,192,39351,1,0,0:0:0:0:
448,192,39351,1,0,0:0:0:0:
64,192,39351,1,0,0:0:0:0:
192,192,39538,1,0,0:0:0:0:
320,192,39538,1,0,0:0:0:0:
64,192,39726,1,0,0:0:0:0:
192,192,39726,1,0,0:0:0:0:
320,192,39819,1,0,0:0:0:0:
64,192,39913,1,0,0:0:0:0:
448,192,39913,1,0,0:0:0:0:
192,192,40101,1,0,0:0:0:0:
320,192,40288,1,0,0:0:0:0:
64,192,40476,1,0,0:0:0:0:
448,192,40476,1,0,0:0:0:0:
192,192,40476,1,0,0:0:0:0:
320,192,40851,1,0,0:0:0:0:
192,192,40851,1,0,0:0:0:0:
192,192,41226,1,0,0:0:0:0:
448,192,41226,1,0,0:0:0:0:
64,192,41226,1,0,0:0:0:0:
320,192,41413,1,0,0:0:0:0:
448,192,41413,1,0,0:0:0:0:
64,192,41601,1,0,0:0:0:0:
192,192,41601,1,0,0:0:0:0:
448,192,41601,1,0,0:0:0:0:
320,192,41601,1,0,0:0:0:0:
192,192,41976,1,0,0:0:0:0:
320,192,41976,1,0,0:0:0:0:
64,192,42351,1,0,0:0:0:0:
192,192,42351,1,0,0:0:0:0:
320,192,42351,1,0,0:0:0:0:
448,192,42351,1,0,0:0:0:0:
64,192,42726,1,0,0:0:0:0:
192,192,42726,1,0,0:0:0:0:
448,192,42726,1,0,0:0:0:0:
320,192,43101,1,0,0:0:0:0:
448,192,43101,1,0,0:0:0:0:
64,192,43476,1,0,0:0:0:0:
192,192,43476,1,0,0:0:0:0:
320,192,43476,1,0,0:0:0:0:
448,192,43476,1,0,0:0:0:0:
192,192,43851,1,0,0:0:0:0:
320,192,43851,1,0,0:0:0:0:
64,192,44226,1,0,0:0:0:0:
192,192,44226,1,0,0:0:0:0:
448,192,44226,1,0,0:0:0:0:
64,192,44601,1,0,0:0:0:0:
192,192,44601,1,0,0:0:0:0:
320,192,44601,1,0,0:0:0:0:
448,192,44601,1,0,0:0:0:0:
64,192,44788,1,0,0:0:0:0:
320,192,44788,1,0,0:0:0:0:
192,192,44976,1,0,0:0:0:0:
320,192,44976,1,0,0:0:0:0:
64,192,45351,1,0,0:0:0:0:
192,192,45351,1,0,0:0:0:0:
320,192,45351,1,0,0:0:0:0:
448,192,45351,1,0,0:0:0:0:
192,192,45726,1,0,0:0:0:0:
64,192,45726,1,0,0:0:0:0:
448,192,45726,1,0,0:0:0:0:
320,192,46101,1,0,0:0:0:0:
448,192,46101,1,0,0:0:0:0:
320,192,46288,1,0,0:0:0:0:
448,192,46288,1,0,0:0:0:0:
64,192,46476,1,0,0:0:0:0:
192,192,46476,1,0,0:0:0:0:
448,192,46476,1,0,0:0:0:0:
320,192,46476,1,0,0:0:0:0:
192,192,46851,1,0,0:0:0:0:
320,192,46851,1,0,0:0:0:0:
192,192,47226,1,0,0:0:0:0:
448,192,47226,1,0,0:0:0:0:
64,192,47226,1,0,0:0:0:0:
192,192,47413,1,0,0:0:0:0:
320,192,47413,1,0,0:0:0:0:
64,192,47601,1,0,0:0:0:0:
192,192,47601,1,0,0:0:0:0:
448,192,47601,1,0,0:0:0:0:
320,192,47601,1,0,0:0:0:0:
192,192,47976,1,0,0:0:0:0:
320,192,47976,1,0,0:0:0:0:
64,192,48351,1,0,0:0:0:0:
192,192,48351,1,0,0:0:0:0:
320,192,48351,1,0,0:0:0:0:
448,192,48351,1,0,0:0:0:0:
64,192,48726,1,0,0:0:0:0:
192,192,48726,1,0,0:0:0:0:
448,192,48726,1,0,0:0:0:0:
320,192,49101,1,0,0:0:0:0:
448,192,49101,1,0,0:0:0:0:
64,192,49476,1,0,0:0:0:0:
192,192,49476,1,0,0:0:0:0:
320,192,49476,1,0,0:0:0:0:
448,192,49476,1,0,0:0:0:0:
192,192,49851,1,0,0:0:0:0:
320,192,49851,1,0,0:0:0:0:
64,192,50226,1,0,0:0:0:0:
192,192,50226,1,0,0:0:0:0:
448,192,50226,1,0,0:0:0:0:
64,192,50601,1,0,0:0:0:0:
192,192,50601,1,0,0:0:0:0:
320,192,50601,1,0,0:0:0:0:
448,192,50601,1,0,0:0:0:0:
64,192,50788,1,0,0:0:0:0:
320,192,50788,1,0,0:0:0:0:
192,192,50976,1,0,0:0:0:0:
320,192,50976,1,0,0:0:0:0:
448,192,50976,1,0,0:0:0:0:
192,192,51163,1,0,0:0:0:0:
64,192,51351,1,0,0:0:0:0:
448,192,51351,1,0,0:0:0:0:
320,192,51351,1,0,0:0:0:0:
192,192,51538,1,0,0:0:0:0:
320,192,51538,1,0,0:0:0:0:
64,192,51726,1,0,0:0:0:0:
192,192,51726,1,0,0:0:0:0:
320,192,51819,1,0,0:0:0:0:
64,192,51913,1,0,0:0:0:0:
448,192,51913,1,0,0:0:0:0:
192,192,52101,128,0,52476:0:0:0:0:
320,192,52288,128,0,52476:0:0:0:0:
448,192,52476,1,0,0:0:0:0:
64,192,52476,1,0,0:0:0:0:
192,192,52851,1,0,0:0:0:0:
320,192,52851,1,0,0:0:0:0:
64,192,53226,1,0,0:0:0:0:
320,192,53226,1,0,0:0:0:0:
448,192,53226,1,0,0:0:0:0:
64,192,53413,1,0,0:0:0:0:
192,192,53413,1,0,0:0:0:0:
64,192,53601,1,0,0:0:0:0:
192,192,53601,1,0,0:0:0:0:
320,192,53601,1,0,0:0:0:0:
448,192,53601,1,0,0:0:0:0:
192,192,53976,1,0,0:0:0:0:
320,192,53976,1,0,0:0:0:0:
64,192,54351,1,0,0:0:0:0:
192,192,54351,1,0,0:0:0:0:
320,192,54351,1,0,0:0:0:0:
448,192,54351,1,0,0:0:0:0:
64,192,54726,1,0,0:0:0:0:
320,192,54726,1,0,0:0:0:0:
448,192,54726,1,0,0:0:0:0:
64,192,55101,1,0,0:0:0:0:
192,192,55101,1,0,0:0:0:0:
64,192,55476,1,0,0:0:0:0:
192,192,55476,1,0,0:0:0:0:
320,192,55476,1,0,0:0:0:0:
448,192,55476,1,0,0:0:0:0:
64,192,55851,1,0,0:0:0:0:
192,192,55851,1,0,0:0:0:0:
320,192,55851,1,0,0:0:0:0:
448,192,55851,1,0,0:0:0:0:
64,192,56226,1,0,0:0:0:0:
320,192,56226,1,0,0:0:0:0:
448,192,56226,1,0,0:0:0:0:
64,192,56601,1,0,0:0:0:0:
320,192,56601,1,0,0:0:0:0:
448,192,56601,1,0,0:0:0:0:
192,192,56601,1,0,0:0:0:0:
192,192,56788,1,0,0:0:0:0:
448,192,56788,1,0,0:0:0:0:
192,192,56976,1,0,0:0:0:0:
320,192,56976,1,0,0:0:0:0:
64,192,57351,1,0,0:0:0:0:
192,192,57351,1,0,0:0:0:0:
320,192,57351,1,0,0:0:0:0:
448,192,57351,1,0,0:0:0:0:
64,192,57726,1,0,0:0:0:0:
320,192,57726,1,0,0:0:0:0:
448,192,57726,1,0,0:0:0:0:
64,192,58101,1,0,0:0:0:0:
192,192,58101,1,0,0:0:0:0:
320,192,58194,1,0,0:0:0:0:
448,192,58194,1,0,0:0:0:0:
192,192,58288,1,0,0:0:0:0:
64,192,58288,1,0,0:0:0:0:
64,192,58476,1,0,0:0:0:0:
192,192,58476,1,0,0:0:0:0:
320,192,58476,1,0,0:0:0:0:
448,192,58476,1,0,0:0:0:0:
448,192,58663,1,0,0:0:0:0:
192,192,58851,1,0,0:0:0:0:
320,192,58851,1,0,0:0:0:0:
64,192,59038,1,0,0:0:0:0:
64,192,59226,1,0,0:0:0:0:
448,192,59226,1,0,0:0:0:0:
320,192,59413,1,0,0:0:0:0:
192,192,59413,1,0,0:0:0:0:
64,192,59601,1,0,0:0:0:0:
448,192,59601,1,0,0:0:0:0:
448,192,59788,1,0,0:0:0:0:
192,192,59976,1,0,0:0:0:0:
320,192,59976,1,0,0:0:0:0:
64,192,60163,1,0,0:0:0:0:
192,192,60351,1,0,0:0:0:0:
320,192,60351,1,0,0:0:0:0:
448,192,60538,1,0,0:0:0:0:
192,192,60726,1,0,0:0:0:0:
320,192,60726,1,0,0:0:0:0:
64,192,60913,1,0,0:0:0:0:
320,192,61101,1,0,0:0:0:0:
192,192,61101,1,0,0:0:0:0:
192,192,61476,1,0,0:0:0:0:
448,192,61476,1,0,0:0:0:0:
192,192,61663,1,0,0:0:0:0:
64,192,61851,1,0,0:0:0:0:
320,192,61851,1,0,0:0:0:0:
320,192,62038,1,0,0:0:0:0:
192,192,62038,1,0,0:0:0:0:
192,192,62226,1,0,0:0:0:0:
448,192,62226,1,0,0:0:0:0:
320,192,62413,1,0,0:0:0:0:
192,192,62601,1,0,0:0:0:0:
320,192,62601,1,0,0:0:0:0:
192,192,62788,1,0,0:0:0:0:
320,192,62882,1,0,0:0:0:0:
64,192,62976,128,0,63022:0:0:0:0:
192,192,62976,128,0,63022:0:0:0:0:
448,192,62976,1,0,0:0:0:0:
64,192,63351,128,0,63397:0:0:0:0:
192,192,63351,128,0,63397:0:0:0:0:
448,192,63351,1,0,0:0:0:0:
64,192,63726,128,0,63772:0:0:0:0:
192,192,63726,128,0,63772:0:0:0:0:
448,192,63726,1,0,0:0:0:0:
320,192,63913,1,0,0:0:0:0:
192,192,64007,1,0,0:0:0:0:
64,192,64101,1,0,0:0:0:0:
448,192,64101,1,0,0:0:0:0:
64,192,64288,1,0,0:0:0:0:
320,192,64288,1,0,0:0:0:0:
448,192,64476,1,0,0:0:0:0:
192,192,64476,1,0,0:0:0:0:
320,192,64476,1,0,0:0:0:0:
192,192,64851,1,0,0:0:0:0:
64,192,64851,1,0,0:0:0:0:
64,192,65226,1,0,0:0:0:0:
448,192,65226,1,0,0:0:0:0:
192,192,65226,1,0,0:0:0:0:
448,192,65413,1,0,0:0:0:0:
320,192,65413,1,0,0:0:0:0:
448,192,65601,1,0,0:0:0:0:
320,192,65601,1,0,0:0:0:0:
64,192,65601,1,0,0:0:0:0:
192,192,65601,1,0,0:0:0:0:
320,192,65976,1,0,0:0:0:0:
192,192,65976,1,0,0:0:0:0:
320,192,66351,1,0,0:0:0:0:
448,192,66351,1,0,0:0:0:0:
64,192,66351,1,0,0:0:0:0:
192,192,66351,1,0,0:0:0:0:
448,192,66726,1,0,0:0:0:0:
192,192,66726,1,0,0:0:0:0:
64,192,66726,1,0,0:0:0:0:
448,192,67101,1,0,0:0:0:0:
320,192,67101,1,0,0:0:0:0:
320,192,67476,1,0,0:0:0:0:
448,192,67476,1,0,0:0:0:0:
64,192,67476,1,0,0:0:0:0:
192,192,67476,1,0,0:0:0:0:
320,192,67851,1,0,0:0:0:0:
192,192,67851,1,0,0:0:0:0:
448,192,68226,1,0,0:0:0:0:
192,192,68226,1,0,0:0:0:0:
64,192,68226,1,0,0:0:0:0:
320,192,68601,1,0,0:0:0:0:
448,192,68601,1,0,0:0:0:0:
64,192,68601,1,0,0:0:0:0:
192,192,68601,1,0,0:0:0:0:
320,192,68788,1,0,0:0:0:0:
64,192,68788,1,0,0:0:0:0:
320,192,68976,1,0,0:0:0:0:
192,192,68976,1,0,0:0:0:0:
320,192,69351,1,0,0:0:0:0:
448,192,69351,1,0,0:0:0:0:
64,192,69351,1,0,0:0:0:0:
192,192,69351,1,0,0:0:0:0:
448,192,69726,1,0,0:0:0:0:
64,192,69726,1,0,0:0:0:0:
192,192,69726,1,0,0:0:0:0:
448,192,70101,1,0,0:0:0:0:
320,192,70101,1,0,0:0:0:0:
448,192,70288,1,0,0:0:0:0:
320,192,70288,1,0,0:0:0:0:
448,192,70476,1,0,0:0:0:0:
320,192,70476,1,0,0:0:0:0:
64,192,70476,1,0,0:0:0:0:
192,192,70476,1,0,0:0:0:0:
320,192,70851,1,0,0:0:0:0:
192,192,70851,1,0,0:0:0:0:
64,192,71226,1,0,0:0:0:0:
448,192,71226,1,0,0:0:0:0:
192,192,71226,1,0,0:0:0:0:
320,192,71413,1,0,0:0:0:0:
192,192,71413,1,0,0:0:0:0:
448,192,71601,1,0,0:0:0:0:
320,192,71601,1,0,0:0:0:0:
64,192,71601,1,0,0:0:0:0:
192,192,71601,1,0,0:0:0:0:
320,192,71976,1,0,0:0:0:0:
192,192,71976,1,0,0:0:0:0:
320,192,72351,1,0,0:0:0:0:
448,192,72351,1,0,0:0:0:0:
64,192,72351,1,0,0:0:0:0:
192,192,72351,1,0,0:0:0:0:
448,192,72726,1,0,0:0:0:0:
192,192,72726,1,0,0:0:0:0:
64,192,72726,1,0,0:0:0:0:
448,192,73101,1,0,0:0:0:0:
320,192,73101,1,0,0:0:0:0:
320,192,73476,1,0,0:0:0:0:
448,192,73476,1,0,0:0:0:0:
64,192,73476,1,0,0:0:0:0:
192,192,73476,1,0,0:0:0:0:
320,192,73851,1,0,0:0:0:0:
192,192,73851,1,0,0:0:0:0:
448,192,74226,1,0,0:0:0:0:
192,192,74226,1,0,0:0:0:0:
64,192,74226,1,0,0:0:0:0:
320,192,74601,1,0,0:0:0:0:
448,192,74601,1,0,0:0:0:0:
64,192,74601,1,0,0:0:0:0:
192,192,74601,1,0,0:0:0:0:
320,192,74788,1,0,0:0:0:0:
64,192,74788,1,0,0:0:0:0:
448,192,74976,1,0,0:0:0:0:
320,192,74976,1,0,0:0:0:0:
192,192,74976,1,0,0:0:0:0:
192,192,75163,1,0,0:0:0:0:
320,192,75351,1,0,0:0:0:0:
448,192,75351,1,0,0:0:0:0:
64,192,75351,1,0,0:0:0:0:
320,192,75538,1,0,0:0:0:0:
192,192,75538,1,0,0:0:0:0:
64,192,75726,1,0,0:0:0:0:
192,192,75726,1,0,0:0:0:0:
320,192,75819,1,0,0:0:0:0:
448,192,75913,1,0,0:0:0:0:
64,192,75913,1,0,0:0:0:0:
192,192,76101,1,0,0:0:0:0:
448,192,76194,1,0,0:0:0:0:
64,192,76288,1,0,0:0:0:0:
320,192,76382,1,0,0:0:0:0:
64,192,76476,1,0,0:0:0:0:
448,192,76476,1,0,0:0:0:0:
320,192,76851,1,0,0:0:0:0:
192,192,76851,1,0,0:0:0:0:
448,192,77226,1,0,0:0:0:0:
320,192,77226,1,0,0:0:0:0:
64,192,77226,1,0,0:0:0:0:
192,192,77413,1,0,0:0:0:0:
64,192,77413,1,0,0:0:0:0:
320,192,77601,1,0,0:0:0:0:
448,192,77601,1,0,0:0:0:0:
64,192,77601,1,0,0:0:0:0:
192,192,77601,1,0,0:0:0:0:
320,192,77976,1,0,0:0:0:0:
192,192,77976,1,0,0:0:0:0:
320,192,78351,1,0,0:0:0:0:
448,192,78351,1,0,0:0:0:0:
64,192,78351,1,0,0:0:0:0:
192,192,78351,1,0,0:0:0:0:
448,192,78726,1,0,0:0:0:0:
320,192,78726,1,0,0:0:0:0:
64,192,78726,1,0,0:0:0:0:
192,192,79101,1,0,0:0:0:0:
64,192,79101,1,0,0:0:0:0:
320,192,79476,1,0,0:0:0:0:
448,192,79476,1,0,0:0:0:0:
64,192,79476,1,0,0:0:0:0:
192,192,79476,1,0,0:0:0:0:
320,192,79851,1,0,0:0:0:0:
448,192,79851,1,0,0:0:0:0:
64,192,79851,1,0,0:0:0:0:
192,192,79851,1,0,0:0:0:0:
448,192,80226,1,0,0:0:0:0:
320,192,80226,1,0,0:0:0:0:
64,192,80226,1,0,0:0:0:0:
448,192,80601,1,0,0:0:0:0:
192,192,80601,1,0,0:0:0:0:
64,192,80601,1,0,0:0:0:0:
320,192,80601,1,0,0:0:0:0:
448,192,80788,1,0,0:0:0:0:
192,192,80788,1,0,0:0:0:0:
320,192,80976,1,0,0:0:0:0:
192,192,80976,1,0,0:0:0:0:
320,192,81351,1,0,0:0:0:0:
448,192,81351,1,0,0:0:0:0:
64,192,81351,1,0,0:0:0:0:
192,192,81351,1,0,0:0:0:0:
448,192,81726,1,0,0:0:0:0:
320,192,81726,1,0,0:0:0:0:
64,192,81726,1,0,0:0:0:0:
192,192,82101,1,0,0:0:0:0:
64,192,82101,1,0,0:0:0:0:
448,192,82194,1,0,0:0:0:0:
320,192,82194,1,0,0:0:0:0:
64,192,82288,1,0,0:0:0:0:
192,192,82288,1,0,0:0:0:0:
320,192,82476,1,0,0:0:0:0:
448,192,82476,1,0,0:0:0:0:
192,192,82476,1,0,0:0:0:0:
192,192,82851,1,0,0:0:0:0:
320,192,82851,1,0,0:0:0:0:
64,192,83226,1,0,0:0:0:0:
192,192,83226,1,0,0:0:0:0:
448,192,83226,1,0,0:0:0:0:
192,192,83413,1,0,0:0:0:0:
320,192,83413,1,0,0:0:0:0:
64,192,83601,1,0,0:0:0:0:
192,192,83601,1,0,0:0:0:0:
320,192,83601,1,0,0:0:0:0:
448,192,83601,1,0,0:0:0:0:
192,192,83976,1,0,0:0:0:0:
320,192,83976,1,0,0:0:0:0:
64,192,84351,1,0,0:0:0:0:
192,192,84351,1,0,0:0:0:0:
320,192,84351,1,0,0:0:0:0:
448,192,84351,1,0,0:0:0:0:
64,192,84726,1,0,0:0:0:0:
448,192,84726,1,0,0:0:0:0:
320,192,84726,1,0,0:0:0:0:
192,192,85101,1,0,0:0:0:0:
320,192,85101,1,0,0:0:0:0:
64,192,85476,1,0,0:0:0:0:
192,192,85476,1,0,0:0:0:0:
320,192,85476,1,0,0:0:0:0:
448,192,85476,1,0,0:0:0:0:
192,192,85851,1,0,0:0:0:0:
320,192,85851,1,0,0:0:0:0:
192,192,86226,1,0,0:0:0:0:
64,192,86226,1,0,0:0:0:0:
448,192,86226,1,0,0:0:0:0:
64,192,86601,1,0,0:0:0:0:
192,192,86601,1,0,0:0:0:0:
320,192,86601,1,0,0:0:0:0:
448,192,86601,1,0,0:0:0:0:
192,192,86788,1,0,0:0:0:0:
448,192,86788,1,0,0:0:0:0:
192,192,86976,128,0,87022:0:0:0:0:
64,192,86976,128,0,87022:0:0:0:0:
320,192,86976,1,0,0:0:0:0:
192,192,87351,128,0,87397:0:0:0:0:
64,192,87351,128,0,87397:0:0:0:0:
320,192,87351,1,0,0:0:0:0:
192,192,87726,128,0,87772:0:0:0:0:
64,192,87726,128,0,87772:0:0:0:0:
448,192,87726,1,0,0:0:0:0:
448,192,94476,5,0,0:0:0:0:
64,192,94476,1,0,0:0:0:0:
320,192,94851,1,0,0:0:0:0:
64,192,95226,1,0,0:0:0:0:
320,192,95226,1,0,0:0:0:0:
192,192,95413,1,0,0:0:0:0:
320,192,95601,1,0,0:0:0:0:
320,192,95976,1,0,0:0:0:0:
320,192,96351,1,0,0:0:0:0:
64,192,96726,1,0,0:0:0:0:
448,192,96726,1,0,0:0:0:0:
448,192,97101,1,0,0:0:0:0:
320,192,97476,1,0,0:0:0:0:
320,192,97851,1,0,0:0:0:0:
192,192,98226,1,0,0:0:0:0:
448,192,98226,1,0,0:0:0:0:
448,192,98601,1,0,0:0:0:0:
320,192,98788,1,0,0:0:0:0:
320,192,98976,1,0,0:0:0:0:
320,192,99351,1,0,0:0:0:0:
64,192,99726,1,0,0:0:0:0:
320,192,99726,1,0,0:0:0:0:
320,192,100101,1,0,0:0:0:0:
320,192,100288,1,0,0:0:0:0:
448,192,100476,5,0,0:0:0:0:
64,192,100476,1,0,0:0:0:0:
320,192,100851,1,0,0:0:0:0:
320,192,101226,1,0,0:0:0:0:
64,192,101226,1,0,0:0:0:0:
192,192,101413,1,0,0:0:0:0:
320,192,101601,1,0,0:0:0:0:
320,192,101976,1,0,0:0:0:0:
320,192,102351,1,0,0:0:0:0:
448,192,102726,1,0,0:0:0:0:
64,192,102726,1,0,0:0:0:0:
448,192,103101,1,0,0:0:0:0:
320,192,103476,1,0,0:0:0:0:
320,192,103851,1,0,0:0:0:0:
448,192,104226,1,0,0:0:0:0:
192,192,104226,1,0,0:0:0:0:
448,192,104601,1,0,0:0:0:0:
320,192,104788,1,0,0:0:0:0:
320,192,104976,1,0,0:0:0:0:
320,192,105351,1,0,0:0:0:0:
320,192,105726,1,0,0:0:0:0:
64,192,105726,1,0,0:0:0:0:
320,192,106101,1,0,0:0:0:0:
320,192,106288,1,0,0:0:0:0:
448,192,106476,5,0,0:0:0:0:
64,192,106476,1,0,0:0:0:0:
320,192,106851,1,0,0:0:0:0:
192,192,107226,1,0,0:0:0:0:
64,192,107226,1,0,0:0:0:0:
64,192,107413,1,0,0:0:0:0:
320,192,107601,1,0,0:0:0:0:
320,192,107976,1,0,0:0:0:0:
320,192,108351,1,0,0:0:0:0:
448,192,108726,1,0,0:0:0:0:
320,192,108726,1,0,0:0:0:0:
448,192,109101,1,0,0:0:0:0:
448,192,109288,1,0,0:0:0:0:
320,192,109476,1,0,0:0:0:0:
320,192,109851,1,0,0:0:0:0:
192,192,110226,1,0,0:0:0:0:
320,192,110226,1,0,0:0:0:0:
448,192,110601,1,0,0:0:0:0:
320,192,110788,1,0,0:0:0:0:
320,192,110976,1,0,0:0:0:0:
320,192,111351,1,0,0:0:0:0:
320,192,111726,1,0,0:0:0:0:
448,192,111726,1,0,0:0:0:0:
320,192,112101,1,0,0:0:0:0:
320,192,112288,1,0,0:0:0:0:
448,192,112476,5,0,0:0:0:0:
64,192,112476,1,0,0:0:0:0:
320,192,112851,1,0,0:0:0:0:
64,192,113226,1,0,0:0:0:0:
192,192,113226,1,0,0:0:0:0:
64,192,113413,1,0,0:0:0:0:
64,192,113601,1,0,0:0:0:0:
64,192,113976,1,0,0:0:0:0:
64,192,114351,1,0,0:0:0:0:
448,192,114726,1,0,0:0:0:0:
320,192,114726,1,0,0:0:0:0:
64,192,115101,1,0,0:0:0:0:
448,192,115288,1,0,0:0:0:0:
64,192,115476,1,0,0:0:0:0:
64,192,115851,1,0,0:0:0:0:
448,192,116226,1,0,0:0:0:0:
320,192,116226,1,0,0:0:0:0:
64,192,116601,1,0,0:0:0:0:
64,192,116788,1,0,0:0:0:0:
64,192,116976,1,0,0:0:0:0:
64,192,117351,1,0,0:0:0:0:
320,192,117726,1,0,0:0:0:0:
448,192,117726,1,0,0:0:0:0:
64,192,118101,1,0,0:0:0:0:
64,192,118288,1,0,0:0:0:0:
320,192,119976,128,0,120726:0:0:0:0:
448,192,120726,128,0,122226:0:0:0:0:
192,192,121476,128,0,122226:0:0:0:0:
64,192,121476,128,0,122226:0:0:0:0:
192,192,125976,128,0,126726:0:0:0:0:
448,192,126726,128,0,128226:0:0:0:0:
320,192,127476,128,0,128226:0:0:0:0:
320,192,130476,1,0,0:0:0:0:
320,192,130851,1,0,0:0:0:0:
448,192,131226,1,0,0:0:0:0:
320,192,131413,1,0,0:0:0:0:
192,192,131601,1,0,0:0:0:0:
192,192,131976,1,0,0:0:0:0:
192,192,132351,1,0,0:0:0:0:
64,192,132726,1,0,0:0:0:0:
448,192,133101,1,0,0:0:0:0:
192,192,133476,1,0,0:0:0:0:
192,192,133851,1,0,0:0:0:0:
192,192,134226,1,0,0:0:0:0:
64,192,134601,1,0,0:0:0:0:
192,192,134788,1,0,0:0:0:0:
320,192,134976,1,0,0:0:0:0:
320,192,135351,1,0,0:0:0:0:
320,192,135726,1,0,0:0:0:0:
192,192,136101,1,0,0:0:0:0:
320,192,136288,1,0,0:0:0:0:
448,192,136476,1,0,0:0:0:0:
192,192,136476,1,0,0:0:0:0:
64,192,136663,1,0,0:0:0:0:
448,192,136851,1,0,0:0:0:0:
64,192,137038,1,0,0:0:0:0:
320,192,137226,1,0,0:0:0:0:
192,192,137413,1,0,0:0:0:0:
320,192,137601,1,0,0:0:0:0:
192,192,137788,1,0,0:0:0:0:
448,192,137976,1,0,0:0:0:0:
192,192,138163,1,0,0:0:0:0:
448,192,138351,1,0,0:0:0:0:
64,192,138538,1,0,0:0:0:0:
320,192,138726,1,0,0:0:0:0:
64,192,138913,1,0,0:0:0:0:
320,192,139101,1,0,0:0:0:0:
192,192,139288,1,0,0:0:0:0:
448,192,139476,1,0,0:0:0:0:
320,192,139476,1,0,0:0:0:0:
64,192,139569,1,0,0:0:0:0:
448,192,139663,1,0,0:0:0:0:
64,192,139757,1,0,0:0:0:0:
448,192,139851,1,0,0:0:0:0:
64,192,139944,1,0,0:0:0:0:
448,192,140038,1,0,0:0:0:0:
64,192,140132,1,0,0:0:0:0:
448,192,140226,1,0,0:0:0:0:
64,192,140319,1,0,0:0:0:0:
448,192,140413,1,0,0:0:0:0:
64,192,140507,1,0,0:0:0:0:
448,192,140601,1,0,0:0:0:0:
64,192,140694,1,0,0:0:0:0:
448,192,140788,1,0,0:0:0:0:
64,192,140882,1,0,0:0:0:0:
448,192,142476,1,0,0:0:0:0:
320,192,142476,1,0,0:0:0:0:
64,192,142476,1,0,0:0:0:0:
192,192,142851,1,0,0:0:0:0:
320,192,142851,1,0,0:0:0:0:
320,192,143226,1,0,0:0:0:0:
64,192,143226,1,0,0:0:0:0:
448,192,143226,1,0,0:0:0:0:
192,192,143413,1,0,0:0:0:0:
64,192,143413,1,0,0:0:0:0:
448,192,143601,1,0,0:0:0:0:
320,192,143601,1,0,0:0:0:0:
64,192,143601,1,0,0:0:0:0:
192,192,143601,1,0,0:0:0:0:
320,192,143976,1,0,0:0:0:0:
192,192,143976,1,0,0:0:0:0:
448,192,144351,1,0,0:0:0:0:
320,192,144351,1,0,0:0:0:0:
192,192,144351,1,0,0:0:0:0:
64,192,144351,1,0,0:0:0:0:
448,192,144726,1,0,0:0:0:0:
320,192,144726,1,0,0:0:0:0:
64,192,144726,1,0,0:0:0:0:
192,192,145101,1,0,0:0:0:0:
64,192,145101,1,0,0:0:0:0:
448,192,145476,1,0,0:0:0:0:
320,192,145476,1,0,0:0:0:0:
192,192,145476,1,0,0:0:0:0:
64,192,145476,1,0,0:0:0:0:
320,192,145851,1,0,0:0:0:0:
192,192,145851,1,0,0:0:0:0:
448,192,146226,1,0,0:0:0:0:
320,192,146226,1,0,0:0:0:0:
64,192,146226,1,0,0:0:0:0:
448,192,146601,1,0,0:0:0:0:
320,192,146601,1,0,0:0:0:0:
192,192,146601,1,0,0:0:0:0:
64,192,146601,1,0,0:0:0:0:
448,192,146788,1,0,0:0:0:0:
192,192,146788,1,0,0:0:0:0:
320,192,146976,1,0,0:0:0:0:
192,192,146976,1,0,0:0:0:0:
448,192,147351,1,0,0:0:0:0:
320,192,147351,1,0,0:0:0:0:
192,192,147351,1,0,0:0:0:0:
64,192,147351,1,0,0:0:0:0:
320,192,147726,1,0,0:0:0:0:
448,192,147726,1,0,0:0:0:0:
64,192,147726,1,0,0:0:0:0:
192,192,148101,1,0,0:0:0:0:
64,192,148101,1,0,0:0:0:0:
192,192,148288,1,0,0:0:0:0:
64,192,148288,1,0,0:0:0:0:
448,192,148476,1,0,0:0:0:0:
320,192,148476,1,0,0:0:0:0:
64,192,148476,1,0,0:0:0:0:
192,192,148476,1,0,0:0:0:0:
320,192,148851,1,0,0:0:0:0:
192,192,148851,1,0,0:0:0:0:
320,192,149226,1,0,0:0:0:0:
64,192,149226,1,0,0:0:0:0:
448,192,149226,1,0,0:0:0:0:
320,192,149413,1,0,0:0:0:0:
192,192,149413,1,0,0:0:0:0:
448,192,149601,1,0,0:0:0:0:
320,192,149601,1,0,0:0:0:0:
64,192,149601,1,0,0:0:0:0:
192,192,149601,1,0,0:0:0:0:
320,192,149976,1,0,0:0:0:0:
192,192,149976,1,0,0:0:0:0:
448,192,150351,1,0,0:0:0:0:
320,192,150351,1,0,0:0:0:0:
192,192,150351,1,0,0:0:0:0:
64,192,150351,1,0,0:0:0:0:
448,192,150726,1,0,0:0:0:0:
320,192,150726,1,0,0:0:0:0:
64,192,150726,1,0,0:0:0:0:
192,192,151101,1,0,0:0:0:0:
64,192,151101,1,0,0:0:0:0:
448,192,151476,1,0,0:0:0:0:
320,192,151476,1,0,0:0:0:0:
192,192,151476,1,0,0:0:0:0:
64,192,151476,1,0,0:0:0:0:
320,192,151851,1,0,0:0:0:0:
192,192,151851,1,0,0:0:0:0:
448,192,152226,1,0,0:0:0:0:
320,192,152226,1,0,0:0:0:0:
64,192,152226,1,0,0:0:0:0:
448,192,152601,1,0,0:0:0:0:
320,192,152601,1,0,0:0:0:0:
192,192,152601,1,0,0:0:0:0:
64,192,152601,1,0,0:0:0:0:
448,192,152788,1,0,0:0:0:0:
192,192,152788,1,0,0:0:0:0:
320,192,152976,1,0,0:0:0:0:
448,192,152976,1,0,0:0:0:0:
64,192,152976,1,0,0:0:0:0:
192,192,153069,1,0,0:0:0:0:
320,192,153163,1,0,0:0:0:0:
448,192,153351,1,0,0:0:0:0:
64,192,153351,1,0,0:0:0:0:
192,192,153351,1,0,0:0:0:0:
320,192,153538,1,0,0:0:0:0:
192,192,153538,1,0,0:0:0:0:
192,192,153726,1,0,0:0:0:0:
64,192,153726,1,0,0:0:0:0:
320,192,153819,1,0,0:0:0:0:
448,192,153913,1,0,0:0:0:0:
64,192,153913,1,0,0:0:0:0:
192,192,154101,1,0,0:0:0:0:
448,192,154194,1,0,0:0:0:0:
192,192,154288,1,0,0:0:0:0:
320,192,154382,1,0,0:0:0:0:
64,192,154476,1,0,0:0:0:0:
448,192,154476,1,0,0:0:0:0:
320,192,154851,1,0,0:0:0:0:
192,192,154851,1,0,0:0:0:0:
448,192,155226,1,0,0:0:0:0:
192,192,155226,1,0,0:0:0:0:
64,192,155226,1,0,0:0:0:0:
448,192,155413,1,0,0:0:0:0:
320,192,155413,1,0,0:0:0:0:
448,192,155601,1,0,0:0:0:0:
320,192,155601,1,0,0:0:0:0:
192,192,155601,1,0,0:0:0:0:
64,192,155601,1,0,0:0:0:0:
320,192,155976,1,0,0:0:0:0:
192,192,155976,1,0,0:0:0:0:
448,192,156351,1,0,0:0:0:0:
320,192,156351,1,0,0:0:0:0:
192,192,156351,1,0,0:0:0:0:
64,192,156351,1,0,0:0:0:0:
448,192,156726,1,0,0:0:0:0:
192,192,156726,1,0,0:0:0:0:
64,192,156726,1,0,0:0:0:0:
448,192,157101,1,0,0:0:0:0:
320,192,157101,1,0,0:0:0:0:
448,192,157476,1,0,0:0:0:0:
320,192,157476,1,0,0:0:0:0:
192,192,157476,1,0,0:0:0:0:
64,192,157476,1,0,0:0:0:0:
448,192,157851,1,0,0:0:0:0:
320,192,157851,1,0,0:0:0:0:
192,192,157851,1,0,0:0:0:0:
64,192,157851,1,0,0:0:0:0:
448,192,158226,1,0,0:0:0:0:
192,192,158226,1,0,0:0:0:0:
64,192,158226,1,0,0:0:0:0:
448,192,158601,1,0,0:0:0:0:
192,192,158601,1,0,0:0:0:0:
64,192,158601,1,0,0:0:0:0:
320,192,158601,1,0,0:0:0:0:
320,192,158788,1,0,0:0:0:0:
64,192,158788,1,0,0:0:0:0:
320,192,158976,1,0,0:0:0:0:
192,192,158976,1,0,0:0:0:0:
448,192,159351,1,0,0:0:0:0:
320,192,159351,1,0,0:0:0:0:
192,192,159351,1,0,0:0:0:0:
64,192,159351,1,0,0:0:0:0:
448,192,159726,1,0,0:0:0:0:
192,192,159726,1,0,0:0:0:0:
64,192,159726,1,0,0:0:0:0:
448,192,160101,1,0,0:0:0:0:
320,192,160101,1,0,0:0:0:0:
192,192,160194,1,0,0:0:0:0:
64,192,160194,1,0,0:0:0:0:
320,192,160288,1,0,0:0:0:0:
448,192,160288,1,0,0:0:0:0:
448,192,160476,1,0,0:0:0:0:
320,192,160476,1,0,0:0:0:0:
192,192,160476,1,0,0:0:0:0:
64,192,160476,1,0,0:0:0:0:
64,192,160663,1,0,0:0:0:0:
320,192,160851,1,0,0:0:0:0:
192,192,160851,1,0,0:0:0:0:
448,192,161038,1,0,0:0:0:0:
448,192,161226,1,0,0:0:0:0:
64,192,161226,1,0,0:0:0:0:
192,192,161413,1,0,0:0:0:0:
320,192,161413,1,0,0:0:0:0:
448,192,161601,1,0,0:0:0:0:
64,192,161601,1,0,0:0:0:0:
64,192,161788,1,0,0:0:0:0:
320,192,161976,1,0,0:0:0:0:
192,192,161976,1,0,0:0:0:0:
448,192,162163,1,0,0:0:0:0:
320,192,162351,1,0,0:0:0:0:
192,192,162351,1,0,0:0:0:0:
64,192,162538,1,0,0:0:0:0:
320,192,162726,1,0,0:0:0:0:
192,192,162726,1,0,0:0:0:0:
448,192,162913,1,0,0:0:0:0:
192,192,163101,1,0,0:0:0:0:
320,192,163101,1,0,0:0:0:0:
320,192,163476,1,0,0:0:0:0:
64,192,163476,1,0,0:0:0:0:
320,192,163663,1,0,0:0:0:0:
448,192,163851,1,0,0:0:0:0:
192,192,163851,1,0,0:0:0:0:
192,192,164038,1,0,0:0:0:0:
320,192,164038,1,0,0:0:0:0:
320,192,164226,1,0,0:0:0:0:
64,192,164226,1,0,0:0:0:0:
192,192,164413,1,0,0:0:0:0:
320,192,164601,1,0,0:0:0:0:
192,192,164601,1,0,0:0:0:0:
320,192,164788,1,0,0:0:0:0:
192,192,164882,1,0,0:0:0:0:
448,192,164976,128,0,165022:0:0:0:0:
320,192,164976,128,0,165022:0:0:0:0:
64,192,164976,1,0,0:0:0:0:
192,192,165163,1,0,0:0:0:0:
448,192,165351,128,0,165397:0:0:0:0:
320,192,165351,128,0,165397:0:0:0:0:
64,192,165351,1,0,0:0:0:0:
192,192,165538,1,0,0:0:0:0:
448,192,165726,128,0,165772:0:0:0:0:
320,192,165726,128,0,165772:0:0:0:0:
64,192,165726,1,0,0:0:0:0:
192,192,165913,1,0,0:0:0:0:
320,192,166007,1,0,0:0:0:0:
448,192,166101,1,0,0:0:0:0:
64,192,166101,1,0,0:0:0:0:
448,192,166288,1,0,0:0:0:0:
192,192,166288,1,0,0:0:0:0:
64,192,166476,1,0,0:0:0:0:
320,192,166476,1,0,0:0:0:0:
192,192,166476,1,0,0:0:0:0:
320,192,166851,1,0,0:0:0:0:
448,192,166851,1,0,0:0:0:0:
448,192,167226,1,0,0:0:0:0:
64,192,167226,1,0,0:0:0:0:
320,192,167226,1,0,0:0:0:0:
64,192,167413,1,0,0:0:0:0:
192,192,167413,1,0,0:0:0:0:
64,192,167601,1,0,0:0:0:0:
192,192,167601,1,0,0:0:0:0:
448,192,167601,1,0,0:0:0:0:
320,192,167601,1,0,0:0:0:0:
192,192,167976,1,0,0:0:0:0:
320,192,167976,1,0,0:0:0:0:
192,192,168351,1,0,0:0:0:0:
64,192,168351,1,0,0:0:0:0:
448,192,168351,1,0,0:0:0:0:
320,192,168351,1,0,0:0:0:0:
64,192,168726,1,0,0:0:0:0:
320,192,168726,1,0,0:0:0:0:
448,192,168726,1,0,0:0:0:0:
64,192,169101,1,0,0:0:0:0:
192,192,169101,1,0,0:0:0:0:
192,192,169476,1,0,0:0:0:0:
64,192,169476,1,0,0:0:0:0:
448,192,169476,1,0,0:0:0:0:
320,192,169476,1,0,0:0:0:0:
192,192,169851,1,0,0:0:0:0:
320,192,169851,1,0,0:0:0:0:
64,192,170226,1,0,0:0:0:0:
320,192,170226,1,0,0:0:0:0:
448,192,170226,1,0,0:0:0:0:
192,192,170601,1,0,0:0:0:0:
64,192,170601,1,0,0:0:0:0:
448,192,170601,1,0,0:0:0:0:
320,192,170601,1,0,0:0:0:0:
192,192,170788,1,0,0:0:0:0:
448,192,170788,1,0,0:0:0:0:
192,192,170976,1,0,0:0:0:0:
320,192,170976,1,0,0:0:0:0:
192,192,171351,1,0,0:0:0:0:
64,192,171351,1,0,0:0:0:0:
448,192,171351,1,0,0:0:0:0:
320,192,171351,1,0,0:0:0:0:
64,192,171726,1,0,0:0:0:0:
448,192,171726,1,0,0:0:0:0:
320,192,171726,1,0,0:0:0:0:
64,192,172101,1,0,0:0:0:0:
192,192,172101,1,0,0:0:0:0:
64,192,172288,1,0,0:0:0:0:
192,192,172288,1,0,0:0:0:0:
64,192,172476,1,0,0:0:0:0:
192,192,172476,1,0,0:0:0:0:
448,192,172476,1,0,0:0:0:0:
320,192,172476,1,0,0:0:0:0:
192,192,172851,1,0,0:0:0:0:
320,192,172851,1,0,0:0:0:0:
448,192,173226,1,0,0:0:0:0:
64,192,173226,1,0,0:0:0:0:
320,192,173226,1,0,0:0:0:0:
192,192,173413,1,0,0:0:0:0:
320,192,173413,1,0,0:0:0:0:
64,192,173601,1,0,0:0:0:0:
192,192,173601,1,0,0:0:0:0:
448,192,173601,1,0,0:0:0:0:
320,192,173601,1,0,0:0:0:0:
192,192,173976,1,0,0:0:0:0:
320,192,173976,1,0,0:0:0:0:
192,192,174351,1,0,0:0:0:0:
64,192,174351,1,0,0:0:0:0:
448,192,174351,1,0,0:0:0:0:
320,192,174351,1,0,0:0:0:0:
64,192,174726,1,0,0:0:0:0:
320,192,174726,1,0,0:0:0:0:
448,192,174726,1,0,0:0:0:0:
64,192,175101,1,0,0:0:0:0:
192,192,175101,1,0,0:0:0:0:
192,192,175476,1,0,0:0:0:0:
64,192,175476,1,0,0:0:0:0:
448,192,175476,1,0,0:0:0:0:
320,192,175476,1,0,0:0:0:0:
192,192,175851,1,0,0:0:0:0:
320,192,175851,1,0,0:0:0:0:
64,192,176226,1,0,0:0:0:0:
320,192,176226,1,0,0:0:0:0:
448,192,176226,1,0,0:0:0:0:
192,192,176601,1,0,0:0:0:0:
64,192,176601,1,0,0:0:0:0:
448,192,176601,1,0,0:0:0:0:
320,192,176601,1,0,0:0:0:0:
192,192,176788,1,0,0:0:0:0:
448,192,176788,1,0,0:0:0:0:
64,192,176976,1,0,0:0:0:0:
192,192,176976,1,0,0:0:0:0:
320,192,176976,1,0,0:0:0:0:
320,192,177163,1,0,0:0:0:0:
192,192,177351,1,0,0:0:0:0:
64,192,177351,1,0,0:0:0:0:
448,192,177351,1,0,0:0:0:0:
192,192,177538,1,0,0:0:0:0:
320,192,177538,1,0,0:0:0:0:
192,192,177726,1,0,0:0:0:0:
64,192,177726,1,0,0:0:0:0:
320,192,177819,1,0,0:0:0:0:
64,192,177913,1,0,0:0:0:0:
448,192,177913,1,0,0:0:0:0:
320,192,178101,1,0,0:0:0:0:
192,192,178194,1,0,0:0:0:0:
448,192,178288,1,0,0:0:0:0:
192,192,178382,1,0,0:0:0:0:
448,192,178476,1,0,0:0:0:0:
64,192,178476,1,0,0:0:0:0:
192,192,178851,1,0,0:0:0:0:
320,192,178851,1,0,0:0:0:0:
64,192,179226,1,0,0:0:0:0:
192,192,179226,1,0,0:0:0:0:
448,192,179226,1,0,0:0:0:0:
320,192,179413,1,0,0:0:0:0:
448,192,179413,1,0,0:0:0:0:
192,192,179601,1,0,0:0:0:0:
64,192,179601,1,0,0:0:0:0:
448,192,179601,1,0,0:0:0:0:
320,192,179601,1,0,0:0:0:0:
192,192,179976,1,0,0:0:0:0:
320,192,179976,1,0,0:0:0:0:
192,192,180351,1,0,0:0:0:0:
64,192,180351,1,0,0:0:0:0:
448,192,180351,1,0,0:0:0:0:
320,192,180351,1,0,0:0:0:0:
64,192,180726,1,0,0:0:0:0:
192,192,180726,1,0,0:0:0:0:
448,192,180726,1,0,0:0:0:0:
320,192,181101,1,0,0:0:0:0:
448,192,181101,1,0,0:0:0:0:
192,192,181476,1,0,0:0:0:0:
64,192,181476,1,0,0:0:0:0:
448,192,181476,1,0,0:0:0:0:
320,192,181476,1,0,0:0:0:0:
192,192,181851,1,0,0:0:0:0:
64,192,181851,1,0,0:0:0:0:
448,192,181851,1,0,0:0:0:0:
320,192,181851,1,0,0:0:0:0:
64,192,182226,1,0,0:0:0:0:
192,192,182226,1,0,0:0:0:0:
448,192,182226,1,0,0:0:0:0:
64,192,182601,1,0,0:0:0:0:
320,192,182601,1,0,0:0:0:0:
448,192,182601,1,0,0:0:0:0:
192,192,182601,1,0,0:0:0:0:
64,192,182788,1,0,0:0:0:0:
320,192,182788,1,0,0:0:0:0:
192,192,182976,1,0,0:0:0:0:
320,192,182976,1,0,0:0:0:0:
192,192,183351,1,0,0:0:0:0:
64,192,183351,1,0,0:0:0:0:
448,192,183351,1,0,0:0:0:0:
320,192,183351,1,0,0:0:0:0:
64,192,183726,1,0,0:0:0:0:
192,192,183726,1,0,0:0:0:0:
448,192,183726,1,0,0:0:0:0:
320,192,184101,1,0,0:0:0:0:
448,192,184101,1,0,0:0:0:0:
64,192,184194,1,0,0:0:0:0:
192,192,184194,1,0,0:0:0:0:
448,192,184288,1,0,0:0:0:0:
320,192,184288,1,0,0:0:0:0:
192,192,184476,1,0,0:0:0:0:
64,192,184476,1,0,0:0:0:0:
320,192,184476,1,0,0:0:0:0:
320,192,184851,1,0,0:0:0:0:
192,192,184851,1,0,0:0:0:0:
448,192,185226,1,0,0:0:0:0:
320,192,185226,1,0,0:0:0:0:
64,192,185226,1,0,0:0:0:0:
320,192,185413,1,0,0:0:0:0:
192,192,185413,1,0,0:0:0:0:
448,192,185601,1,0,0:0:0:0:
320,192,185601,1,0,0:0:0:0:
192,192,185601,1,0,0:0:0:0:
64,192,185601,1,0,0:0:0:0:
320,192,185976,1,0,0:0:0:0:
192,192,185976,1,0,0:0:0:0:
448,192,186351,1,0,0:0:0:0:
320,192,186351,1,0,0:0:0:0:
192,192,186351,1,0,0:0:0:0:
64,192,186351,1,0,0:0:0:0:
448,192,186726,1,0,0:0:0:0:
64,192,186726,1,0,0:0:0:0:
192,192,186726,1,0,0:0:0:0:
320,192,187101,1,0,0:0:0:0:
192,192,187101,1,0,0:0:0:0:
448,192,187476,1,0,0:0:0:0:
320,192,187476,1,0,0:0:0:0:
192,192,187476,1,0,0:0:0:0:
64,192,187476,1,0,0:0:0:0:
320,192,187851,1,0,0:0:0:0:
192,192,187851,1,0,0:0:0:0:
320,192,188226,1,0,0:0:0:0:
448,192,188226,1,0,0:0:0:0:
64,192,188226,1,0,0:0:0:0:
448,192,188601,1,0,0:0:0:0:
320,192,188601,1,0,0:0:0:0:
192,192,188601,1,0,0:0:0:0:
64,192,188601,1,0,0:0:0:0:
320,192,188788,1,0,0:0:0:0:
64,192,188788,1,0,0:0:0:0:
320,192,188976,128,0,189022:0:0:0:0:
448,192,188976,128,0,189022:0:0:0:0:
192,192,188976,1,0,0:0:0:0:
64,192,189351,128,0,189538:0:0:0:0:
448,192,189351,128,0,189538:0:0:0:0:
192,192,189351,1,0,0:0:0:0:
320,192,189726,128,0,189772:0:0:0:0:
448,192,189726,128,0,189772:0:0:0:0:
64,192,189726,1,0,0:0:0:0:
192,192,190101,128,0,190288:0:0:0:0:
320,192,190288,1,0,0:0:0:0:
64,192,190476,1,0,0:0:0:0:
448,192,190476,1,0,0:0:0:0:
192,192,190851,1,0,0:0:0:0:
192,192,191226,1,0,0:0:0:0:
448,192,191226,1,0,0:0:0:0:
320,192,191413,1,0,0:0:0:0:
320,192,191601,1,0,0:0:0:0:
192,192,191601,1,0,0:0:0:0:
192,192,191976,1,0,0:0:0:0:
192,192,192351,1,0,0:0:0:0:
320,192,192351,1,0,0:0:0:0:
320,192,192726,1,0,0:0:0:0:
64,192,192726,1,0,0:0:0:0:
64,192,193101,1,0,0:0:0:0:
192,192,193476,1,0,0:0:0:0:
320,192,193476,1,0,0:0:0:0:
320,192,193851,1,0,0:0:0:0:
320,192,194226,1,0,0:0:0:0:
64,192,194226,1,0,0:0:0:0:
192,192,194601,1,0,0:0:0:0:
64,192,194601,1,0,0:0:0:0:
320,192,194788,1,0,0:0:0:0:
320,192,194976,1,0,0:0:0:0:
192,192,195351,1,0,0:0:0:0:
320,192,195351,1,0,0:0:0:0:
192,192,195726,1,0,0:0:0:0:
448,192,195726,1,0,0:0:0:0:
192,192,196101,1,0,0:0:0:0:
192,192,196288,1,0,0:0:0:0:
448,192,196476,1,0,0:0:0:0:
320,192,196851,1,0,0:0:0:0:
64,192,197226,1,0,0:0:0:0:
320,192,197226,1,0,0:0:0:0:
192,192,197413,1,0,0:0:0:0:
320,192,197601,1,0,0:0:0:0:
192,192,197601,1,0,0:0:0:0:
320,192,197976,1,0,0:0:0:0:
192,192,198351,1,0,0:0:0:0:
320,192,198351,1,0,0:0:0:0:
192,192,198726,1,0,0:0:0:0:
448,192,198726,1,0,0:0:0:0:
448,192,199101,1,0,0:0:0:0:
192,192,199476,1,0,0:0:0:0:
320,192,199476,1,0,0:0:0:0:
192,192,199851,1,0,0:0:0:0:
320,192,199851,1,0,0:0:0:0:
64,192,200226,1,0,0:0:0:0:
448,192,200226,1,0,0:0:0:0:
192,192,200601,5,0,0:0:0:0:
320,192,200601,1,0,0:0:0:0:
192,192,200788,1,0,0:0:0:0:
320,192,200976,1,0,0:0:0:0:
320,192,201351,1,0,0:0:0:0:
192,192,201351,1,0,0:0:0:0:
64,192,201726,5,0,0:0:0:0:
448,192,201726,1,0,0:0:0:0:
