osu file format v14

[General]
AudioFilename: audio.mp3
AudioLeadIn: 0
PreviewTime: -1
Countdown: 1
SampleSet: Soft
StackLeniency: 0.2
Mode: 0
LetterboxInBreaks: 0
WidescreenStoryboard: 0

[Editor]
DistanceSpacing: 1.3
BeatDivisor: 4
GridSize: 16
TimelineZoom: 1

[Metadata]
Title:MAYDAY -Nightcore remix
TitleUnicode:MAYDAY -Nightcore remix
Artist:TheFatRat ft. Laura Brehm
ArtistUnicode:TheFatRat ft. Laura Brehm
Creator:blueloniess
Version:Collab
Source:
Tags:TheFatRat ft. Laura Brehm MAYDAY -Nightcore remix anya maki blueloniess collab
BeatmapID:1757359
BeatmapSetID:839498

[Difficulty]
HPDrainRate:4
CircleSize:4
OverallDifficulty:8
ApproachRate:9
SliderMultiplier:1.6
SliderTickRate:1

[Events]
//Background and Video events
0,0,"1432015413490874.jpg",0,0
//Break Periods
2,38836,43697
2,105768,110480
//Storyboard Layer 0 (Background)
//Storyboard Layer 1 (Fail)
//Storyboard Layer 2 (Pass)
//Storyboard Layer 3 (Foreground)
//Storyboard Sound Samples

[TimingPoints]
376,347.826086956522,4,2,0,40,1,0
33767,-133.333333333333,4,2,0,40,0,0
56028,-80,4,2,0,40,0,0
78289,-100,4,2,0,40,0,0
103332,-400,4,2,0,40,0,0
103680,-133.333333333333,4,2,0,40,0,0
103854,-400,4,2,0,40,0,0
104202,-133.333333333333,4,2,0,40,0,0
104376,-5000,4,2,0,40,0,0
105419,-133.333333333333,4,2,0,40,0,0
111680,-111.111111111111,4,2,0,40,0,0
112723,-88.4955752212389,4,2,0,40,0,0
114289,-133.333333333333,4,2,0,40,0,0
114462,-400,4,2,0,40,0,0
114810,-133.333333333333,4,2,0,40,0,0
114984,-400,4,2,0,40,0,0
115332,-133.333333333333,4,2,0,40,0,0
115506,-1000,4,2,0,40,0,0
122810,-111.111111111111,4,2,0,40,0,0
145071,-1000,4,2,0,40,0,0
147158,-200,4,2,0,40,0,0
147854,-5000,4,2,0,40,0,0
149941,-200,4,2,0,40,0,0
150636,-5000,4,2,0,40,0,0
152376,-200,4,2,0,40,0,0
153419,-1000,4,2,0,40,0,0
155158,-111.111111111111,4,2,0,40,0,0
167332,-66.6666666666667,4,2,0,40,0,0
167332,-66.6666666666667,4,2,0,40,0,0
189593,-133.333333333333,4,2,0,40,0,0
209071,-1000,4,2,0,5,0,0

[Colours]
Combo1 : 141,28,255
Combo2 : 128,0,128
Combo3 : 255,100,177
Combo4 : 192,192,192
Combo5 : 188,121,255
Combo6 : 74,74,255

[HitObjects]
82,63,11506,5,0,0:0:0:0:
169,197,11854,2,0,P|222:202|271:184,1,80
301,135,12202,1,0,0:0:0:0:
301,135,12376,1,0,0:0:0:0:
295,287,12549,6,0,P|321:257|333:220,1,80
301,135,12897,1,0,0:0:0:0:
301,135,13071,1,0,0:0:0:0:
424,216,13245,6,0,P|420:176|401:142,1,80
301,135,13593,1,0,0:0:0:0:
301,135,13767,1,0,0:0:0:0:
243,75,13941,6,0,P|223:109|219:149,1,80
205,228,14289,2,0,B|169:278|129:288|61:282|-14:228|-31:127|12:60|57:56|122:66|160:122|173:175|113:303|52:330|-29:274,1,640
430,321,17071,5,0,0:0:0:0:
343,187,17419,2,0,P|290:182|241:200,1,80
211,249,17767,1,0,0:0:0:0:
211,249,17941,1,0,0:0:0:0:
209,102,18115,6,0,P|183:132|171:169,1,80
211,249,18462,1,0,0:0:0:0:
211,249,18636,1,0,0:0:0:0:
88,168,18810,6,0,P|92:208|111:242,1,80
211,249,19158,1,0,0:0:0:0:
211,249,19332,1,0,0:0:0:0:
269,309,19506,6,0,P|289:275|293:235,1,80
307,156,19854,2,0,B|343:106|383:96|451:102|526:156|543:257|500:324|455:328|390:318|352:262|339:209|399:81|460:54|541:110,1,640
257,7,22462,5,0,0:0:0:0:
196,59,22636,2,0,P|152:75|106:62,1,80
42,50,22984,2,0,L|54:242,1,160
4,274,23506,1,0,0:0:0:0:
4,274,23593,1,0,0:0:0:0:
4,274,23680,1,0,0:0:0:0:
132,206,23854,1,0,0:0:0:0:
51,339,24028,5,0,0:0:0:0:
4,274,24202,1,0,0:0:0:0:
51,209,24376,1,0,0:0:0:0:
132,206,24549,5,0,0:0:0:0:
179,271,24723,1,0,0:0:0:0:
132,336,24897,1,0,0:0:0:0:
51,209,25071,2,0,L|46:129,1,80
41,48,25419,5,0,0:0:0:0:
110,88,25593,1,0,0:0:0:0:
178,47,25767,2,0,P|242:29|275:36,1,80
311,86,26115,1,0,0:0:0:0:
234,110,26289,1,0,0:0:0:0:
351,18,26462,6,0,B|435:-5|494:48|494:48|439:59|429:126,1,240
433,104,27158,1,0,0:0:0:0:
492,204,27332,2,0,P|506:144|506:106,1,80
391,175,27680,1,0,0:0:0:0:
459,302,27854,1,0,0:0:0:0:
492,204,28028,1,0,0:0:0:0:
392,258,28202,6,0,B|349:273|349:273|217:273,1,160
176,217,28723,1,0,0:0:0:0:
176,217,28810,1,0,0:0:0:0:
176,217,28897,2,0,P|158:258|163:306,1,80
213,359,29245,1,0,0:0:0:0:
315,272,29419,5,0,0:0:0:0:
176,217,29593,2,0,L|80:225,1,80
45,285,29941,1,0,0:0:0:0:
0,144,30115,2,0,L|96:152,1,80
176,217,30463,1,0,0:0:0:0:
153,72,30636,1,0,0:0:0:0:
79,150,30810,1,0,0:0:0:0:
79,150,30897,1,0,0:0:0:0:
79,150,30984,6,0,B|42:253|118:328|118:328|179:211,1,320
176,216,31854,1,0,0:0:0:0:
176,216,32028,1,0,0:0:0:0:
79,150,32376,5,0,0:0:0:0:
48,223,32723,1,0,0:0:0:0:
63,301,33071,1,0,0:0:0:0:
63,301,33245,1,0,0:0:0:0:
63,301,33419,1,0,0:0:0:0:
176,216,33767,6,0,P|293:204|382:279,1,240.000009155274
381,278,34636,1,0,0:0:0:0:
260,304,34810,2,0,P|143:316|54:241,1,240.000009155274
54,241,35680,1,0,0:0:0:0:
55,163,35854,2,0,P|60:116|52:83,1,60.0000022888184
127,16,36202,2,0,P|125:46|131:76,1,60.0000022888184
148,152,36549,6,0,P|207:136|287:144,1,120.000004577637
287,213,37071,2,0,P|346:229|426:221,1,120.000004577637
403,130,37593,2,0,P|343:152|368:316,1,240.000009155274
346,303,38636,1,0,0:0:0:0:
336,168,44897,6,0,P|219:180|130:105,1,240.000009155274
130,105,45766,1,0,0:0:0:0:
252,80,45940,2,0,P|369:68|458:143,1,240.000009155274
457,142,46810,1,0,0:0:0:0:
457,221,46984,2,0,P|452:268|460:301,1,60.0000022888184
384,367,47332,2,0,P|386:337|381:308,1,60.0000022888184
364,232,47680,6,0,P|305:248|225:240,1,120.000004577637
225,171,48202,2,0,P|166:155|86:163,1,120.000004577637
109,254,48723,6,0,P|169:232|144:68,1,240.000009155274
166,81,49766,1,0,0:0:0:0:
107,157,50115,1,0,0:0:0:0:
109,254,50289,1,0,0:0:0:0:
109,254,50376,1,0,0:0:0:0:
109,254,50462,6,0,L|109:310,3,30.0000011444092
187,212,50810,2,0,L|187:156,3,30.0000011444092
189,288,51158,6,0,L|189:344,3,30.0000011444092
267,246,51506,2,0,L|267:190,3,30.0000011444092
270,320,51854,6,0,L|270:376,3,30.0000011444092
348,278,52202,2,0,L|348:222,3,30.0000011444092
349,351,52549,6,0,L|349:407,3,30.0000011444092
427,309,52897,2,0,L|427:253,3,30.0000011444092
426,383,53245,5,0,0:0:0:0:
256,192,53332,12,0,54636,0:0:0:0:
111,101,56028,5,0,0:0:0:0:
111,101,56202,1,0,0:0:0:0:
227,71,56376,1,0,0:0:0:0:
111,101,56549,1,0,0:0:0:0:
216,158,56723,1,0,0:0:0:0:
111,101,56897,1,0,0:0:0:0:
61,210,57071,5,0,0:0:0:0:
61,210,57245,1,0,0:0:0:0:
61,210,57419,5,0,0:0:0:0:
216,158,57593,1,0,0:0:0:0:
159,265,57767,1,0,0:0:0:0:
111,101,57941,1,0,0:0:0:0:
224,58,58115,2,0,L|214:174,1,100
69,309,58462,2,0,L|60:209,1,100
111,101,58810,5,0,0:0:0:0:
215,157,58984,1,0,0:0:0:0:
111,101,59158,5,0,0:0:0:0:
224,58,59332,1,0,0:0:0:0:
98,104,59506,5,0,0:0:0:0:
228,163,59680,1,0,0:0:0:0:
60,209,59854,5,0,0:0:0:0:
235,164,60028,1,0,0:0:0:0:
167,326,60202,6,0,P|154:271|154:227,1,100
304,102,60549,2,0,P|317:157|317:201,1,100
256,294,60897,5,0,0:0:0:0:
235,164,61071,1,0,0:0:0:0:
392,243,61245,1,0,0:0:0:0:
153,227,61419,1,0,0:0:0:0:
317,200,61593,5,0,0:0:0:0:
317,200,61767,1,0,0:0:0:0:
167,326,61941,5,0,0:0:0:0:
167,326,62115,1,0,0:0:0:0:
235,164,62289,5,0,0:0:0:0:
235,164,62462,1,0,0:0:0:0:
256,294,62636,5,0,0:0:0:0:
153,133,62810,1,0,0:0:0:0:
300,116,62984,5,0,0:0:0:0:
300,116,63158,1,0,0:0:0:0:
181,234,63332,5,0,0:0:0:0:
181,234,63506,1,0,0:0:0:0:
214,65,63680,5,0,0:0:0:0:
214,65,63854,1,0,0:0:0:0:
317,200,64028,5,0,0:0:0:0:
235,164,64202,2,0,B|142:196|142:116|36:153,1,200
53,316,64723,6,0,P|84:257|85:215,1,100
0,89,65071,1,0,0:0:0:0:
0,89,65245,1,0,0:0:0:0:
8,245,65419,5,0,0:0:0:0:
138,154,65593,1,0,0:0:0:0:
0,72,65767,6,0,L|6:190,2,100
138,154,66289,1,0,0:0:0:0:
100,233,66462,2,0,P|47:255|-2:238,1,100
73,52,66810,2,0,L|296:109,1,200
463,145,67332,5,0,0:0:0:0:
270,220,67506,1,0,0:0:0:0:
381,45,67680,1,0,0:0:0:0:
395,247,67854,1,0,0:0:0:0:
266,101,68028,1,0,0:0:0:0:
266,101,68115,1,0,0:0:0:0:
266,101,68202,1,0,0:0:0:0:
463,145,68376,1,0,0:0:0:0:
270,220,68549,5,0,0:0:0:0:
381,45,68723,1,0,0:0:0:0:
395,247,68897,2,0,L|395:357,1,100
270,220,69245,2,0,L|270:120,1,100
395,247,69593,1,0,0:0:0:0:
269,339,69767,1,0,0:0:0:0:
143,235,69941,5,0,0:0:0:0:
270,220,70115,1,0,0:0:0:0:
132,236,70289,5,0,0:0:0:0:
279,224,70462,1,0,0:0:0:0:
76,180,70636,5,0,0:0:0:0:
229,279,70810,1,0,0:0:0:0:
111,79,70984,1,0,0:0:0:0:
78,270,71158,1,0,0:0:0:0:
78,270,71245,1,0,0:0:0:0:
78,270,71332,5,0,0:0:0:0:
232,141,71506,1,0,0:0:0:0:
2,166,71680,1,0,0:0:0:0:
196,263,71854,1,0,0:0:0:0:
111,79,72028,2,0,L|11:99,1,100
232,141,72376,2,0,L|330:121,1,100
205,25,72723,5,0,0:0:0:0:
205,25,72897,1,0,0:0:0:0:
117,191,73071,1,0,0:0:0:0:
117,191,73245,1,0,0:0:0:0:
332,116,73419,6,0,L|330:229,1,100
118,290,73767,2,0,L|116:190,1,100
205,25,74115,5,0,0:0:0:0:
205,25,74289,1,0,0:0:0:0:
232,187,74462,1,0,0:0:0:0:
232,187,74636,1,0,0:0:0:0:
111,79,74810,1,0,0:0:0:0:
332,116,74984,1,0,0:0:0:0:
214,299,75158,2,0,P|163:304|106:283,1,100
12,98,75506,5,0,0:0:0:0:
116,190,75680,1,0,0:0:0:0:
0,262,75854,5,0,0:0:0:0:
100,96,76028,1,0,0:0:0:0:
117,289,76202,1,0,0:0:0:0:
12,98,76376,1,0,0:0:0:0:
176,32,76549,2,0,L|281:32,1,100
432,116,76897,6,0,L|327:116,1,100
192,114,77245,1,0,0:0:0:0:
321,210,77419,1,0,0:0:0:0:
274,37,77593,1,0,0:0:0:0:
219,208,77767,1,0,0:0:0:0:
441,215,77941,2,0,L|431:108,1,100
418,1,78289,5,0,0:0:0:0:
433,12,81071,5,0,0:0:0:0:
347,127,81245,1,0,0:0:0:0:
347,127,81332,1,0,0:0:0:0:
347,127,81419,1,0,0:0:0:0:
335,32,81593,1,0,0:0:0:0:
455,133,81767,2,0,L|456:237,1,80
324,350,82115,1,0,0:0:0:0:
459,353,82289,1,0,0:0:0:0:
365,272,82462,6,0,L|247:272,1,80
324,350,82810,1,0,0:0:0:0:
455,232,82984,1,0,0:0:0:0:
349,171,83158,6,0,L|220:171,1,120
164,161,83506,2,0,P|114:99|124:39,1,120
219,66,83854,5,0,0:0:0:0:
108,215,84028,1,0,0:0:0:0:
238,251,84202,2,0,L|226:154,1,80
112,81,84549,1,0,0:0:0:0:
108,215,84723,1,0,0:0:0:0:
305,190,84897,2,0,P|253:171|193:179,1,80
155,334,85245,6,0,B|195:363|195:363|191:237,1,160
180,143,85767,1,0,0:0:0:0:
15,216,85941,2,0,P|66:231|121:205,1,80
267,264,86289,2,0,P|220:248|173:263,1,80
255,333,86636,6,0,P|313:319|309:210,1,160
174,258,87158,1,0,0:0:0:0:
262,344,87332,2,0,L|370:344,1,80
458,304,87680,1,0,0:0:0:0:
458,304,87854,1,0,0:0:0:0:
426,144,88028,5,0,0:0:0:0:
426,144,88376,5,0,0:0:0:0:
426,144,88723,5,0,0:0:0:0:
426,144,88897,1,0,0:0:0:0:
426,144,89071,1,0,0:0:0:0:
348,52,89245,1,0,0:0:0:0:
257,121,89419,6,0,P|206:131|156:107,1,80
149,96,89680,1,0,0:0:0:0:
149,96,89767,2,0,L|150:186,1,80
150,318,90115,1,0,0:0:0:0:
252,241,90289,1,0,0:0:0:0:
47,276,90462,5,0,0:0:0:0:
161,332,90636,2,0,B|250:364|250:295|344:317,1,160
494,338,91158,1,0,0:0:0:0:
386,381,91332,5,0,0:0:0:0:
388,365,91506,1,0,0:0:0:0:
390,349,91680,1,0,0:0:0:0:
405,180,91854,5,0,0:0:0:0:
256,175,92028,2,0,B|178:206|178:122|77:166,1,160
102,156,92462,1,0,0:0:0:0:
102,156,92549,1,0,0:0:0:0:
134,236,92723,1,0,0:0:0:0:
226,108,92897,6,0,L|221:-3,2,80
236,260,93419,1,0,0:0:0:0:
409,168,93593,2,0,P|366:161|307:169,1,80
156,264,93941,2,0,P|199:257|258:265,1,80
406,362,94289,2,0,P|344:320|379:232,1,160
506,205,94810,1,0,0:0:0:0:
388,48,94984,5,0,0:0:0:0:
117,129,95332,1,0,0:0:0:0:
178,271,95506,1,0,0:0:0:0:
178,271,95593,1,0,0:0:0:0:
178,271,95680,2,0,P|187:207|183:172,1,80
77,215,96028,1,0,0:0:0:0:
107,355,96202,1,0,0:0:0:0:
107,355,96289,1,0,0:0:0:0:
107,355,96376,2,0,L|202:356,1,80
387,307,96723,5,0,0:0:0:0:
284,381,96897,1,0,0:0:0:0:
339,231,97071,2,0,P|389:217|442:228,1,80
499,157,97419,2,0,P|459:153|392:66,1,120
380,67,97767,5,0,0:0:0:0:
214,97,97941,1,0,0:0:0:0:
292,22,98115,1,0,0:0:0:0:
244,216,98289,5,0,0:0:0:0:
244,216,98462,5,0,0:0:0:0:
244,216,98636,1,0,0:0:0:0:
244,216,98810,1,0,0:0:0:0:
85,120,98984,5,0,0:0:0:0:
106,321,99158,5,0,0:0:0:0:
106,321,99506,5,0,0:0:0:0:
106,321,99854,5,0,0:0:0:0:
106,321,100028,1,0,0:0:0:0:
106,321,100202,1,0,0:0:0:0:
256,192,100549,6,0,B|309:59|432:78|432:78|499:115|483:193|403:198,1,400
256,192,101593,6,0,B|203:59|67:70|67:70|0:119|6:201|79:222|145:190,1,480
138,193,103158,2,0,L|158:240,1,40
170,273,103332,2,0,L|195:295,1,30
230,316,103680,2,0,P|265:288|265:288,1,30.0000011444092
296,280,103854,2,0,P|335:251|335:251,1,30.0000011444092
368,240,104202,2,0,P|389:277|389:277,1,30.0000011444092
411,307,104376,2,0,P|431:351|431:351,1,48
290,125,111680,6,0,B|170:169|51:106|51:106|117:148|128:204,1,359.999989013672
172,280,112723,2,0,P|348:315|344:174,1,361.600001103516
386,170,114289,2,0,B|371:143,1,30.0000011444092
342,111,114463,2,0,L|317:89,1,30
282,68,114811,2,0,P|247:96|247:96,1,30.0000011444092
216,104,114985,2,0,P|177:133|177:133,1,30.0000011444092
144,144,115333,2,0,P|123:107|123:107,1,30.0000011444092
101,77,115507,2,0,P|81:33|81:33,1,48
256,192,117245,12,0,121419,0:0:0:0:
113,184,122810,6,0,L|112:240,1,35.9999989013672
112,320,122984,6,0,L|111:264,1,35.9999989013672
205,214,123158,6,0,L|204:270,1,35.9999989013672
204,350,123332,6,0,L|203:294,1,35.9999989013672
289,264,123506,6,0,L|288:320,3,35.9999989013672
399,200,123854,6,0,L|400:144,1,35.9999989013672
400,64,124028,6,0,L|401:120,1,35.9999989013672
307,170,124202,6,0,L|308:114,1,35.9999989013672
308,34,124376,6,0,L|309:90,1,35.9999989013672
223,120,124550,6,0,L|224:64,5,35.9999989013672
62,275,125071,6,0,L|62:240,1,35.9999989013672
131,234,125245,6,0,L|131:199,1,35.9999989013672
208,194,125419,6,0,L|208:159,1,35.9999989013672
287,124,125593,6,0,L|286:68,1,35.9999989013672
379,69,125767,6,0,L|378:13,1,35.9999989013672
468,137,125941,6,0,L|467:81,1,35.9999989013672
486,236,126115,6,0,L|487:292,1,35.9999989013672
415,276,126289,6,0,L|416:332,1,35.9999989013672
357,310,126463,6,0,L|358:366,1,35.9999989013672
327,336,126636,6,0,L|326:392,5,35.9999989013672
279,338,127158,6,0,L|278:302,1,35.9999989013672
207,276,127332,6,0,L|206:240,1,35.9999989013672
110,209,127506,6,0,L|109:173,1,35.9999989013672
207,108,127680,6,0,L|208:164,1,35.9999989013672
287,131,127854,6,0,L|288:187,1,35.9999989013672
358,164,128028,6,0,L|359:220,1,35.9999989013672
407,199,128202,6,0,L|408:255,1,35.9999989013672
435,225,128376,6,0,L|436:281,11,35.9999989013672
435,225,129419,6,0,L|434:189,13,35.9999989013672
382,181,130636,6,0,L|381:145,1,35.9999989013672
326,203,130810,6,0,L|327:259,1,35.9999989013672
278,177,130984,6,0,L|277:141,1,35.9999989013672
226,202,131158,6,0,L|227:258,15,35.9999989013672
144,240,132549,6,0,L|80:240,1,35.9999989013672
176,176,132723,6,0,L|212:176,1,35.9999989013672
144,112,132897,6,0,L|80:112,1,35.9999989013672
219,175,133245,6,0,L|255:175,3,35.9999989013672
296,102,133593,6,0,L|232:102,3,35.9999989013672
399,184,133941,6,0,L|400:240,1,35.9999989013672
400,320,134115,6,0,L|401:264,1,35.9999989013672
307,214,134289,6,0,L|308:270,1,35.9999989013672
308,350,134463,6,0,L|309:294,1,35.9999989013672
223,264,134637,6,0,L|224:320,3,35.9999989013672
113,200,134985,6,0,L|112:144,1,35.9999989013672
112,64,135159,6,0,L|111:120,1,35.9999989013672
205,170,135333,6,0,L|204:114,1,35.9999989013672
204,34,135507,6,0,L|203:90,1,35.9999989013672
289,120,135681,6,0,L|288:64,5,35.9999989013672
491,342,136202,6,0,L|491:307,1,35.9999989013672
478,323,136376,6,0,L|478:288,1,35.9999989013672
450,305,136550,6,0,L|450:270,1,35.9999989013672
413,284,136724,6,0,L|414:228,1,35.9999989013672
364,264,136898,6,0,L|365:208,1,35.9999989013672
310,238,137072,6,0,L|311:182,1,35.9999989013672
239,204,137246,6,0,L|239:168,1,35.9999989013672
162,167,137420,6,0,L|162:131,1,35.9999989013672
81,123,137594,6,0,L|81:87,1,35.9999989013672
0,65,137767,6,0,L|-1:29,5,35.9999989013672
38,115,138289,6,0,L|39:151,1,35.9999989013672
123,157,138463,6,0,L|124:193,1,35.9999989013672
209,192,138637,6,0,L|210:228,1,35.9999989013672
286,220,138811,6,0,L|289:269,1,35.9999989013672
354,253,138985,6,0,L|355:309,1,35.9999989013672
409,281,139159,6,0,L|410:337,1,35.9999989013672
447,307,139333,6,0,L|448:363,1,35.9999989013672
474,325,139507,6,0,L|475:381,11,35.9999989013672
474,325,140549,6,0,L|475:269,13,35.9999989013672
406,295,141767,6,0,L|405:259,1,35.9999989013672
327,255,141941,6,0,L|326:219,1,35.9999989013672
240,214,142115,6,0,L|239:178,1,35.9999989013672
123,155,142289,6,0,L|122:119,31,35.9999989013672
91,259,145071,6,0,L|152:329,1,92
195,345,147158,2,0,L|263:339,1,60
297,333,147506,2,0,L|341:279,1,60
367,253,147854,2,0,L|445:202,1,92
420,166,149941,6,0,L|360:136,1,60
328,163,150289,2,0,L|264:127,1,60
244,170,150636,2,0,L|177:133,1,76
146,105,152376,6,0,L|210:69,1,60
257,86,152723,2,0,L|321:50,1,60
355,96,153071,2,0,L|419:60,1,60
462,97,153419,2,0,L|487:23,1,76
452,197,155158,6,0,P|452:234|452:234,3,35.9999989013672
384,160,155506,2,0,P|384:161|384:124,3,35.9999989013672
314,199,155854,2,0,P|314:236|314:236,3,35.9999989013672
224,166,156202,2,0,P|224:167|224:130,7,35.9999989013672
132,196,156897,2,0,P|132:233|132:233,7,35.9999989013672
69,130,157593,6,0,P|69:131|69:94,5,35.9999989013672
166,52,158115,2,0,P|166:89|166:89,5,35.9999989013672
268,128,158636,2,0,P|268:129|268:92,3,35.9999989013672
384,54,158984,2,0,P|384:91|384:91,7,35.9999989013672
471,163,159680,2,0,P|471:200|471:200,7,35.9999989013672
375,283,160376,6,0,P|375:284|375:247,5,35.9999989013672
274,311,160897,2,0,P|274:312|274:275,5,35.9999989013672
165,310,161419,2,0,P|165:347|165:347,3,35.9999989013672
49,190,161767,2,0,P|49:191|49:154,15,35.9999989013672
256,192,163158,12,0,165593,0:0:0:0:
160,97,167332,5,0,0:0:0:0:
75,183,167506,2,0,L|75:72,1,60.0000022888184
76,10,167680,1,0,0:0:0:0:
271,172,167854,2,0,B|228:187|228:187|191:171|191:171|119:198,1,120.000004577637
18,270,168202,1,0,0:0:0:0:
219,384,168376,5,0,0:0:0:0:
117,271,168549,2,0,P|107:338|135:370,1,60.0000022888184
353,338,168723,2,0,B|278:360|269:277|180:314,1,180.000006866455
103,327,169071,5,0,0:0:0:0:
205,226,169245,2,0,P|204:196|191:169,1,60.0000022888184
75,184,169419,1,0,0:0:0:0:
182,312,169593,5,0,0:0:0:0:
305,129,169767,1,0,0:0:0:0:
353,338,169941,1,0,0:0:0:0:
191,169,170115,5,0,0:0:0:0:
305,129,170289,2,0,L|290:216,1,60.0000022888184
182,312,170462,1,0,0:0:0:0:
6,247,170636,2,0,B|40:224|40:224|64:237|64:237|89:228|89:228|144:270|144:270,1,120.000004577637
232,285,170984,6,0,P|178:311|140:290,1,60.0000022888184
123,147,171158,2,0,P|152:153|173:173,1,60.0000022888184
100,334,171332,2,0,B|92:326|89:323|85:319|81:315|49:273|49:273|117:226|180:315,1,180.000006866455
245,371,171680,5,0,0:0:0:0:
100,334,171854,2,0,P|85:239|102:174,1,120.000004577637
116,162,172115,1,0,0:0:0:0:
116,162,172202,2,0,L|192:162,1,60.0000022888184
394,222,172376,1,0,0:0:0:0:
348,87,172549,6,0,P|326:154|348:189,1,60.0000022888184
508,227,172723,1,0,0:0:0:0:
278,228,172897,2,0,B|388:275|388:171|512:229,1,240.000009155274
455,356,173419,2,0,L|443:275,1,60.0000022888184
324,139,173593,5,0,0:0:0:0:
306,363,173767,1,0,0:0:0:0:
160,231,173941,2,0,P|239:219|300:237,1,120.000004577637
92,270,174202,1,0,0:0:0:0:
92,270,174289,2,0,L|79:169,1,60.0000022888184
64,40,174462,1,0,0:0:0:0:
132,125,174636,6,0,B|91:136|74:120|74:120|63:140|15:140,1,120.000004577637
278,228,174984,1,0,0:0:0:0:
216,100,175158,2,0,L|207:178,1,60.0000022888184
55,317,175332,2,0,L|61:257,1,60.0000022888184
138,300,175506,5,0,0:0:0:0:
132,125,175680,2,0,B|126:189|126:189|146:237|146:237|137:310,1,180.000006866455
134,360,176028,5,0,0:0:0:0:
209,159,176202,1,0,0:0:0:0:
61,257,176376,1,0,0:0:0:0:
278,228,176549,1,0,0:0:0:0:
20,139,176723,5,0,0:0:0:0:
134,360,176897,1,0,0:0:0:0:
271,287,177071,6,0,L|277:227,1,60.0000022888184
299,33,177245,1,0,0:0:0:0:
412,144,177419,2,0,L|292:130,1,120.000004577637
183,117,177680,1,0,0:0:0:0:
183,117,177767,2,0,P|177:153|191:189,1,60.0000022888184
369,298,177941,1,0,0:0:0:0:
368,298,178028,2,0,P|374:268|368:239,1,60.0000022888184
292,130,178289,5,0,0:0:0:0:
269,369,178462,2,0,L|294:111,1,240.000009155274
134,272,178984,2,0,P|179:288|229:261,1,60.0000022888184
368,239,179158,1,0,0:0:0:0:
269,369,179332,1,0,0:0:0:0:
139,164,179506,2,0,P|109:164|82:178,1,60.0000022888184
20,87,179680,2,0,P|13:156|23:170,1,60.0000022888184
58,309,179854,5,0,0:0:0:0:
142,223,180028,2,0,L|137:147,1,60.0000022888184
236,35,180202,2,0,L|228:154,1,120.000004577637
217,293,180549,1,0,0:0:0:0:
80,170,180723,2,0,P|124:160|179:188,1,60.0000022888184
368,239,180897,2,0,P|324:249|269:221,1,60.0000022888184
126,245,181071,5,0,0:0:0:0:
339,113,181245,2,0,L|328:206,1,60.0000022888184
224,352,181419,2,0,L|216:292,1,60.0000022888184
211,94,181593,5,0,0:0:0:0:
171,81,181680,1,0,0:0:0:0:
171,39,181767,1,0,0:0:0:0:
211,26,181854,1,0,0:0:0:0:
235,60,181941,2,0,L|229:132,1,60.0000022888184
216,292,182115,1,0,0:0:0:0:
376,255,182289,2,0,P|320:203|200:241,1,180.000006866455
216,292,182636,5,0,0:0:0:0:
348,117,182810,1,0,0:0:0:0:
348,117,182897,1,0,0:0:0:0:
348,117,182984,1,0,0:0:0:0:
94,157,183158,1,0,0:0:0:0:
95,321,183332,6,0,P|111:262|102:233,1,60.0000022888184
217,297,183506,2,0,P|214:267|200:240,1,60.0000022888184
285,189,183680,2,0,P|267:164|242:148,1,60.0000022888184
284,59,183854,2,0,P|256:46|227:44,1,60.0000022888184
94,157,184028,5,0,0:0:0:0:
339,271,184202,2,0,B|228:315|228:199|107:266,1,240.000009155274
174,333,184723,1,0,0:0:0:0:
291,207,184897,2,0,L|291:120,1,60.0000022888184
288,50,185071,1,0,0:0:0:0:
62,154,185245,6,0,B|173:198|173:82|294:149,1,240.000009155274
108,81,185767,1,0,0:0:0:0:
233,270,185941,2,0,P|227:196|233:167,1,60.0000022888184
288,50,186115,1,0,0:0:0:0:
391,204,186289,1,0,0:0:0:0:
290,146,186462,2,0,B|263:131|236:124|206:124|183:133|157:156,1,120.000004577637
32,238,186810,6,0,L|107:259,1,60.0000022888184
168,226,186984,2,0,L|225:209,1,60.0000022888184
287,266,187158,6,0,L|362:287,1,60.0000022888184
423,254,187332,2,0,L|480:237,1,60.0000022888184
480,237,187506,6,0,L|423:254,1,60.0000022888184
344,282,187680,2,0,L|287:266,1,60.0000022888184
225,209,187854,6,0,L|168:226,1,60.0000022888184
89,254,188028,2,0,L|32:238,1,60.0000022888184
151,367,188202,6,0,L|146:281,1,60.0000022888184
299,136,188376,2,0,L|295:195,1,60.0000022888184
398,384,188549,6,0,L|403:298,1,60.0000022888184
105,121,188723,2,0,L|108:180,1,60.0000022888184
224,350,188897,6,0,L|219:264,1,60.0000022888184
373,144,189071,2,0,L|369:203,1,60.0000022888184
401,324,189245,6,0,P|359:331|306:300,1,60.0000022888184
108,180,189419,2,0,P|150:173|203:204,1,60.0000022888184
286,169,189593,6,0,P|169:181|80:106,1,240.000009155274
81,107,190462,1,0,0:0:0:0:
252,80,190636,2,0,P|369:68|458:143,1,240.000009155274
458,143,191506,1,0,0:0:0:0:
457,221,191680,2,0,P|452:268|460:301,1,60.0000022888184
385,368,192028,2,0,P|387:338|381:308,1,60.0000022888184
364,232,192375,6,0,P|305:248|225:240,1,120.000004577637
225,171,192897,2,0,P|166:155|86:163,1,120.000004577637
109,254,193419,2,0,P|169:232|144:68,1,240.000009155274
166,81,194462,1,0,0:0:0:0:
28,182,194810,5,0,0:0:0:0:
109,254,195158,2,0,P|182:259|224:242,1,120.000004577637
274,189,195680,2,0,P|347:184|389:201,1,120.000004577637
458,238,196202,2,0,L|443:372,1,120.000004577637
274,189,196897,1,0,0:0:0:0:
411,97,197245,1,0,0:0:0:0:
336,296,197593,1,0,0:0:0:0:
237,260,197941,6,0,P|189:249|118:279,1,120.000004577637
51,299,198462,2,0,P|40:251|70:180,1,120.000004577637
128,141,198984,2,0,P|138:82|114:28,1,120.000004577637
30,95,199680,5,0,0:0:0:0:
176,216,200028,1,0,0:0:0:0:
114,28,200376,1,0,0:0:0:0:
64,186,200723,5,0,0:0:0:0:
260,76,201071,1,0,0:0:0:0:
260,76,201245,2,0,L|259:146,1,60.0000022888184
355,36,201593,1,0,0:0:0:0:
355,36,201767,2,0,L|356:112,1,60.0000022888184
258,195,202115,6,0,L|258:135,1,60.0000022888184
357,223,202462,2,0,L|357:282,1,60.0000022888184
252,361,202810,1,0,0:0:0:0:
252,361,202984,1,0,0:0:0:0:
252,361,203158,2,0,L|252:301,1,60.0000022888184
357,223,203506,5,0,0:0:0:0:
357,223,203680,1,0,0:0:0:0:
357,223,203854,2,0,L|427:223,1,60.0000022888184
312,301,204202,2,0,L|242:301,1,60.0000022888184
111,224,204549,2,0,L|181:224,1,60.0000022888184
252,301,204897,5,0,0:0:0:0:
171,224,205071,1,0,0:0:0:0:
252,301,205245,1,0,0:0:0:0:
171,224,205419,1,0,0:0:0:0:
252,301,205593,5,0,0:0:0:0:
171,224,205767,1,0,0:0:0:0:
165,113,205941,5,0,0:0:0:0:
246,36,206115,1,0,0:0:0:0:
314,73,206289,6,0,L|314:156,1,60.0000022888184
404,219,206636,2,0,L|404:159,1,60.0000022888184
316,220,206984,2,0,L|316:303,1,60.0000022888184
405,361,207332,2,0,L|405:301,1,60.0000022888184
316,364,207680,5,0,0:0:0:0:
405,301,207854,1,0,0:0:0:0:
316,364,208028,1,0,0:0:0:0:
405,301,208202,1,0,0:0:0:0:
316,364,208376,5,0,0:0:0:0:
405,301,208549,1,0,0:0:0:0:
418,193,208723,5,0,0:0:0:0:
329,130,208896,1,0,0:0:0:0:
228,127,209071,2,0,L|108:126,1,120
