osu file format v14

[General]
AudioFilename: audio.mp3
AudioLeadIn: 0
PreviewTime: 54138
Countdown: 0
SampleSet: Soft
StackLeniency: 0.3
Mode: 0
LetterboxInBreaks: 0
WidescreenStoryboard: 1

[Editor]
Bookmarks: 11095,22225,33355,44486,55616,66747,77877,89008
DistanceSpacing: 1.2
BeatDivisor: 4
GridSize: 8
TimelineZoom: 2

[Metadata]
Title:MAYDAY (Nightcore Mix)
TitleUnicode:MAYDAY (Nightcore Mix)
Artist:TheFatRat ft. Laura Brehm
ArtistUnicode:TheFatRat ft. Laura Brehm
Creator:Peter
Version:hyper's Hyper
Source:
Tags:dance edm female vocal Marianna hypercyte
BeatmapID:1588277
BeatmapSetID:754219

[Difficulty]
HPDrainRate:5.5
CircleSize:4
OverallDifficulty:7.5
ApproachRate:8.5
SliderMultiplier:1.6
SliderTickRate:1

[Events]
//Background and Video events
0,0,"110821.jpg",0,0
//Break Periods
//Storyboard Layer 0 (Background)
//Storyboard Layer 1 (Fail)
//Storyboard Layer 2 (Pass)
//Storyboard Layer 3 (Foreground)
Sprite,Foreground,Centre,"SB\hyper.png",320,240 M,0,11095,,319.4182,105.0182 S,0,11095,,0.6741818 F,0,11095,11181,0,0.8283636 F,0,11181,33355,0.8283636,0.8624588 F,0,33355,33529,0.8624588,0.3010061 F,0,33529,44486,0.3010061,0.4029185 F,0,44486,44834,0.4029185,0.8214844 F,0,44834,50051,0.8214844,0.8626333 F,0,50051,54225,0.8626333,0 F,0,54225,55612,0 F,0,55612,55616,0,0.6673873 F,0,55616,100138,0.6673873,1 F,0,100138,100486,1,0
//Storyboard Sound Samples

[TimingPoints]
-28,347.826086956522,4,2,0,40,1,0
11102,-111.111111111111,4,2,0,40,0,0
33363,-166.666666666666,4,2,0,30,0,0
38754,-200,4,2,0,20,0,0
41537,-250,4,2,0,10,0,0
44493,-125,4,2,0,50,0,0
54232,-125,4,2,0,30,0,0
55624,-100,4,2,0,60,0,1
77885,-111.111111111111,4,2,0,40,0,0
80667,-111.111111111111,4,2,0,50,0,0
105711,-100,4,2,0,20,0,0

[Colours]
Combo1 : 45,92,217
Combo2 : 141,177,245
Combo3 : 151,129,254

[HitObjects]
334,263,11103,6,0,P|340:228|335:193,1,71.9999978027344,4|0,0:3|0:0,0:0:0:0:
248,113,11450,1,2,0:0:0:0:
346,80,11624,1,2,0:0:0:0:
218,7,11798,2,0,L|136:18,1,71.9999978027344,10|0,0:0|0:0,0:0:0:0:
117,127,12146,1,4,0:3:0:0:
35,52,12320,1,4,0:3:0:0:
19,163,12494,6,0,P|18:203|30:245,1,71.9999978027344,2|0,0:0|0:0,0:0:0:0:
91,326,12842,1,2,0:0:0:0:
133,220,13016,1,2,0:0:0:0:
262,235,13189,2,0,P|266:271|255:318,1,71.9999978027344,10|0,0:0|0:0,0:0:0:0:
203,170,13537,2,0,P|199:134|210:87,1,71.9999978027344,2|0,0:0|0:0,0:0:0:0:
412,109,13885,6,0,B|393:138|393:138|275:142,1,143.999995605469,4|0,0:3|0:0,0:0:0:0:
284,142,14581,1,8,0:0:0:0:
284,142,14929,6,0,P|222:223|351:216,1,287.999991210938,4|4,0:3|0:3,0:0:0:0:
348,226,15972,1,8,0:0:0:0:
348,226,16320,2,0,P|351:182|269:144,1,143.999995605469,4|4,0:0|0:3,0:0:0:0:
215,333,17016,5,2,0:0:0:0:
260,244,17189,1,2,0:0:0:0:
301,373,17363,2,0,L|388:360,1,71.9999978027344,10|0,0:0|0:0,0:0:0:0:
494,292,17711,1,4,0:3:0:0:
388,252,17885,1,4,0:3:0:0:
458,122,18059,6,0,P|469:157|462:205,1,71.9999978027344,2|0,0:0|0:0,0:0:0:0:
368,95,18407,1,2,0:0:0:0:
446,28,18581,1,2,0:0:0:0:
288,43,18755,2,0,P|252:47|212:38,1,71.9999978027344,10|0,0:0|0:0,0:0:0:0:
76,97,19103,2,0,P|109:89|147:93,1,71.9999978027344,2|0,0:0|0:0,0:0:0:0:
176,231,19450,6,0,P|169:202|68:203,1,143.999995605469,4|0,0:3|0:0,0:0:0:0:
64,308,19972,1,2,0:0:0:0:
175,329,20146,2,0,L|254:323,1,71.9999978027344,10|2,0:0|0:0,0:0:0:0:
379,252,20494,5,4,0:3:0:0:
266,223,20668,1,4,0:3:0:0:
266,223,21016,5,4,0:3:0:0:
343,138,21189,1,4,0:3:0:0:
343,138,21537,6,0,L|340:52,1,71.9999978027344,10|2,0:0|0:0,0:0:0:0:
269,20,21885,1,4,0:3:0:0:
269,20,22233,6,0,P|231:20|192:32,1,71.9999978027344,4|2,0:3|0:0,0:0:0:0:
128,101,22581,2,0,P|95:89|59:88,1,71.9999978027344,2|0,0:0|0:0,0:0:0:0:
117,251,22929,1,10,0:0:0:0:
78,174,23103,1,0,0:0:0:0:
204,230,23276,1,4,0:3:0:0:
204,230,23450,6,0,L|355:221,1,143.999995605469,4|0,0:3|0:3,0:0:0:0:
395,123,23972,2,0,L|323:127,1,71.9999978027344,0|0,0:0|0:0,0:0:0:0:
192,51,24320,2,0,L|263:46,2,71.9999978027344,8|0|0,0:0|0:0|0:0,0:0:0:0:
231,141,24842,1,2,0:0:0:0:
89,178,25016,6,0,P|115:143|151:125,1,71.9999978027344,4|2,0:3|0:0,0:0:0:0:
186,309,25363,2,0,P|142:303|109:281,1,71.9999978027344,2|2,0:0|0:0,0:0:0:0:
174,215,25711,1,8,0:0:0:0:
279,278,25885,1,0,0:0:0:0:
407,167,26059,6,0,B|340:185|268:180|268:180|299:181|318:185|346:204,1,215.999993408203,4|0,0:3|0:0,0:0:0:0:
199,237,26755,2,0,P|178:195|202:120,1,107.999996704102,4|0,0:3|0:0,0:0:0:0:
219,103,27103,2,0,B|152:127|137:76|48:117,1,143.999995605469,10|0,0:0|0:0,0:0:0:0:
26,206,27624,1,0,0:0:0:0:
38,38,27798,6,0,P|80:25|123:26,1,71.9999978027344,4|0,0:3|0:0,0:0:0:0:
219,103,28146,1,2,0:0:0:0:
319,43,28320,1,2,0:0:0:0:
471,133,28494,2,0,P|434:132|401:146,1,71.9999978027344,8|0,0:0|0:0,0:0:0:0:
394,293,28842,1,4,0:3:0:0:
453,218,29016,1,4,0:3:0:0:
505,384,29189,6,0,L|419:379,1,71.9999978027344,2|0,0:0|0:0,0:0:0:0:
325,346,29537,1,2,0:0:0:0:
338,227,29711,1,2,0:0:0:0:
239,356,29885,2,0,P|203:359|169:349,1,71.9999978027344,10|0,0:0|0:0,0:0:0:0:
100,250,30233,2,0,P|65:247|30:258,1,71.9999978027344,2|0,0:0|0:0,0:0:0:0:
217,259,30581,6,0,B|242:229|242:229|234:105,1,143.999995605469,4|0,0:3|0:0,0:0:0:0:
82,91,31103,2,0,P|116:98|144:120,2,71.9999978027344,2|10|2,0:0|0:0|0:0,0:0:0:0:
154,225,31624,5,4,0:3:0:0:
292,204,31798,1,4,0:3:0:0:
292,204,32146,5,4,0:3:0:0:
235,346,32320,1,4,0:3:0:0:
235,346,32668,6,0,L|233:253,1,71.9999978027344,10|2,0:0|0:0,0:0:0:0:
316,166,33016,1,4,0:3:0:0:
316,166,33363,6,0,P|298:79|237:186,1,287.999991210938,6|2,0:0|0:0,0:0:0:0:
228,180,36146,6,0,B|159:157|155:197|72:177,2,143.999995605469,2|2|2,0:0|0:0|0:0,0:0:0:0:
228,180,38929,6,0,P|251:237|228:302,2,120,2|2|2,0:0|0:0|0:0,0:0:0:0:
228,180,41711,6,0,L|231:78,2,96,2|2|2,0:0|0:0|0:0,0:0:0:0:
344,179,44494,6,0,P|282:157|209:202,1,128,2|0,0:3|0:0,0:0:0:0:
199,286,45016,1,2,0:3:0:0:
120,200,45189,2,0,B|103:169|103:169|115:58,1,128,2|2,0:3|0:3,0:0:0:0:
112,76,45885,5,0,0:0:0:0:
188,29,46059,1,2,0:3:0:0:
243,122,46233,2,0,P|274:102|366:102,1,128,2|2,0:3|0:3,0:0:0:0:
362,100,46929,1,2,0:3:0:0:
319,195,47103,1,2,0:3:0:0:
315,205,47189,1,2,0:3:0:0:
311,215,47276,6,0,L|312:307,1,64,2|0,0:3|0:0,0:0:0:0:
360,373,47624,1,2,0:3:0:0:
234,329,47798,2,0,B|200:317|200:317|105:339,1,128,2|0,0:3|0:0,0:0:0:0:
0,383,48320,1,2,0:3:0:0:
0,383,48668,5,2,0:3:0:0:
8,255,48842,1,2,0:3:0:0:
110,338,49016,2,0,P|136:305|135:206,1,128,2|2,0:3|0:3,0:0:0:0:
141,221,49711,1,2,0:3:0:0:
80,118,49885,1,2,0:3:0:0:
81,108,49972,1,2,0:3:0:0:
82,98,50059,1,2,0:3:0:0:
256,192,50146,12,2,54233,0:0:0:0:
176,205,55624,6,0,L|261:208,1,80,4|0,0:0|0:0,0:0:0:0:
389,143,55972,2,0,L|309:145,1,80,0|0,0:0|0:0,0:0:0:0:
273,288,56320,2,0,P|317:266|335:219,1,80,8|0,0:0|0:0,0:0:0:0:
231,132,56668,1,4,0:3:0:0:
187,267,56842,1,4,0:3:0:0:
141,129,57016,6,0,L|143:38,1,80,0|0,0:0|0:0,0:0:0:0:
89,269,57363,2,0,L|91:360,1,80
62,181,57711,1,8,0:0:0:0:
2,288,57885,1,0,0:0:0:0:
169,308,58058,1,0,0:0:0:0:
141,129,58232,1,0,0:0:0:0:
298,190,58407,6,0,B|273:224|273:224|154:219,1,160,4|0,0:3|0:0,0:0:0:0:
233,136,58929,1,0,0:0:0:0:
380,160,59103,2,0,L|376:244,1,80,8|0,0:0|0:0,0:0:0:0:
284,70,59450,6,0,P|216:52|148:120,1,160,4|0,0:3|0:0,0:0:0:0:
141,225,59972,1,0,0:0:0:0:
45,53,60146,2,0,B|35:104|35:104|58:154|58:154|48:235,1,160,4|8,0:3|0:0,0:0:0:0:
9,373,60668,1,0,0:0:0:0:
124,299,60842,2,0,L|42:295,1,80,0|0,0:0|0:0,0:0:0:0:
298,205,61189,6,0,L|115:213,1,160,4|0,0:3|0:0,0:0:0:0:
245,292,61711,1,0,0:0:0:0:
212,128,61885,2,0,L|215:33,1,80,8|0,0:0|0:0,0:0:0:0:
295,142,62233,1,4,0:3:0:0:
133,91,62407,1,4,0:3:0:0:
284,6,62581,6,0,L|364:9,1,80,0|0,0:0|0:0,0:0:0:0:
512,47,62929,2,0,L|432:49,1,80,0|0,0:0|0:0,0:0:0:0:
447,206,63276,2,0,P|471:162|461:113,1,80,8|0,0:0|0:0,0:0:0:0:
362,201,63624,2,0,P|364:239|386:272,1,80,0|0,0:0|0:0,0:0:0:0:
264,52,63972,6,0,P|265:133|209:206,1,160,4|0,0:3|0:0,0:0:0:0:
78,186,64494,1,0,0:0:0:0:
37,339,64668,2,0,L|131:331,1,80,8|0,0:0|0:0,0:0:0:0:
257,286,65016,5,4,0:3:0:0:
143,250,65189,1,4,0:3:0:0:
380,323,65537,5,4,0:3:0:0:
494,287,65711,1,4,0:3:0:0:
407,116,66059,6,0,L|408:203,1,80,8|0,0:0|0:0,0:0:0:0:
512,79,66407,2,0,L|513:-8,1,80,4|0,0:3|0:0,0:0:0:0:
277,59,66755,6,0,B|307:30|307:30|444:30,1,160,4|0,0:0|0:0,0:0:0:0:
286,147,67276,1,0,0:0:0:0:
189,84,67450,2,0,L|96:79,1,80,8|0,0:0|0:0,0:0:0:0:
84,241,67798,1,4,0:3:0:0:
193,192,67972,1,4,0:3:0:0:
190,356,68146,6,0,L|93:351,1,80,0|0,0:0|0:0,0:0:0:0:
249,274,68494,2,0,L|328:269,1,80,0|0,0:0|0:0,0:0:0:0:
428,327,68842,1,8,0:0:0:0:
506,253,69016,1,0,0:0:0:0:
328,268,69189,1,0,0:0:0:0:
460,130,69363,1,0,0:0:0:0:
259,156,69537,6,0,B|284:190|284:190|403:185,1,160,4|0,0:3|0:0,0:0:0:0:
326,106,70059,1,0,0:0:0:0:
177,121,70233,2,0,L|181:205,1,80,8|0,0:0|0:0,0:0:0:0:
230,52,70581,6,0,P|162:34|92:101,1,160,4|0,0:3|0:0,0:0:0:0:
90,190,71103,1,0,0:0:0:0:
297,270,71276,2,0,B|246:260|246:260|196:283|196:283|115:273,1,160,4|8,2:3|2:0,2:2:0:0:
257,346,71798,1,0,2:0:0:0:
176,199,71972,2,0,L|180:117,1,80,0|0,0:0|0:0,0:0:0:0:
297,270,72320,6,0,L|289:87,1,160,4|0,0:3|0:0,0:0:0:0:
404,128,72842,1,0,0:0:0:0:
400,254,73016,2,0,L|397:333,1,80,8|0,0:0|0:0,0:0:0:0:
512,384,73363,1,4,0:3:0:0:
487,221,73537,1,4,0:3:0:0:
317,330,73711,6,0,L|397:333,1,80,0|0,0:0|0:0,0:0:0:0:
272,251,74059,2,0,L|192:253,1,80,0|0,0:0|0:0,0:0:0:0:
321,178,74407,2,0,P|351:214|351:267,1,80,8|0,0:0|0:0,0:0:0:0:
238,166,74755,2,0,P|252:127|284:103,1,80,0|0,0:0|0:0,0:0:0:0:
61,178,75103,6,0,P|121:168|169:80,1,160,4|0,0:3|0:0,0:0:0:0:
94,5,75624,1,0,0:0:0:0:
233,34,75798,2,0,L|327:26,1,80,8|0,0:0|0:0,0:0:0:0:
457,96,76146,5,4,0:3:0:0:
353,177,76320,1,4,0:3:0:0:
149,190,76668,5,4,0:3:0:0:
261,274,76842,1,4,0:3:0:0:
352,97,77189,6,0,L|353:184,1,80,8|0,0:0|0:0,0:0:0:0:
413,338,77537,2,0,L|414:251,1,80,4|0,0:3|0:0,0:0:0:0:
239,165,77885,6,0,P|198:171|163:163,1,71.9999978027344,4|0,0:0|0:0,0:0:0:0:
272,87,78233,1,2,0:0:0:0:
352,176,78407,1,2,0:0:0:0:
432,46,78581,2,0,L|347:54,1,71.9999978027344,2|0,0:0|0:0,0:0:0:0:
439,213,78929,1,2,0:0:0:0:
487,112,79103,1,2,0:0:0:0:
512,287,79276,6,0,L|508:365,1,71.9999978027344,2|0,0:0|0:0,0:0:0:0:
351,383,79624,1,2,0:0:0:0:
427,293,79798,1,0,0:0:0:0:
304,204,79972,1,2,0:0:0:0:
345,298,80146,1,0,0:0:0:0:
371,151,80320,2,0,P|375:115|364:68,1,71.9999978027344,2|0,0:0|0:0,0:0:0:0:
147,89,80668,6,0,B|166:118|166:118|284:122,1,143.999995605469,4|0,0:3|0:0,0:0:0:0:
275,121,81363,1,8,0:0:0:0:
275,121,81711,6,0,P|240:93|225:235,1,287.999991210938,4|4,0:3|0:3,0:0:0:0:
196,233,82755,1,8,0:0:0:0:
196,233,83103,2,0,P|162:194|68:241,1,143.999995605469,2|4,0:0|0:3,0:0:0:0:
252,56,83798,5,2,0:0:0:0:
269,178,83972,1,2,0:0:0:0:
430,123,84146,2,0,P|389:102|345:108,1,71.9999978027344,8|0,0:0|0:0,0:0:0:0:
301,289,84494,1,4,0:3:0:0:
375,191,84668,1,4,0:3:0:0:
352,364,84842,6,0,P|303:378|248:372,1,71.9999978027344,2|0,0:0|0:0,0:0:0:0:
215,207,85189,1,2,0:0:0:0:
188,333,85363,1,2,0:0:0:0:
98,186,85537,2,0,L|100:95,1,71.9999978027344,8|0,0:0|0:0,0:0:0:0:
203,30,85885,2,0,L|205:121,1,71.9999978027344,2|0,0:0|0:0,0:0:0:0:
310,261,86233,6,0,L|313:91,1,143.999995605469,4|0,0:3|0:0,0:0:0:0:
405,206,86755,1,2,0:0:0:0:
357,334,86929,2,0,P|317:348|276:340,1,71.9999978027344,10|2,0:0|0:0,0:0:0:0:
204,220,87276,5,4,0:3:0:0:
192,361,87450,1,4,0:3:0:0:
192,361,87798,5,4,0:3:0:0:
76,281,87972,1,4,0:3:0:0:
76,281,88320,6,0,L|79:195,1,71.9999978027344,10|2,0:0|0:0,0:0:0:0:
128,101,88668,1,4,0:3:0:0:
128,101,89016,6,0,P|162:91|198:91,1,71.9999978027344,4|2,0:3|0:0,0:0:0:0:
299,170,89363,2,0,P|334:170|369:160,1,71.9999978027344,2|2,0:0|0:0,0:0:0:0:
291,81,89711,1,10,0:0:0:0:
211,181,89885,1,2,0:0:0:0:
315,259,90059,1,4,0:3:0:0:
315,259,90233,6,0,P|320:333|244:355,1,143.999995605469,4|0,0:3|0:3,0:0:0:0:
128,216,90755,2,0,P|123:168|135:129,1,71.9999978027344,0|0,0:0|0:0,0:0:0:0:
46,44,91103,2,0,P|51:79|46:114,2,71.9999978027344,8|0|2,0:0|0:0|0:0,0:0:0:0:
163,45,91624,1,0,0:0:0:0:
233,152,91798,6,0,P|268:122|314:108,1,71.9999978027344,4|2,0:3|0:0,0:0:0:0:
438,104,92146,2,0,P|403:134|357:148,1,71.9999978027344,2|0,0:0|0:0,0:0:0:0:
398,18,92494,1,10,0:0:0:0:
512,45,92668,1,2,0:0:0:0:
480,178,92842,6,0,B|473:246|473:246|513:309|513:309|505:401,1,215.999993408203,4|0,0:3|0:0,0:0:0:0:
411,311,93537,2,0,P|359:299|310:321,1,107.999996704102,4|0,0:3|0:0,0:0:0:0:
269,350,93885,2,0,B|202:374|187:323|98:364,1,143.999995605469,10|0,0:0|0:0,0:0:0:0:
12,384,94407,1,0,0:0:0:0:
56,265,94581,6,0,L|55:192,1,71.9999978027344,4|0,0:3|0:0,0:0:0:0:
87,34,94928,1,2,0:0:0:0:
0,117,95102,1,2,0:0:0:0:
139,129,95276,2,0,P|189:126|224:105,1,71.9999978027344,8|0,0:0|0:0,0:0:0:0:
315,0,95624,1,4,0:3:0:0:
298,134,95798,1,4,0:3:0:0:
483,78,95972,6,0,L|397:73,1,71.9999978027344,2|0,0:0|0:0,0:0:0:0:
382,225,96320,1,2,0:0:0:0:
475,178,96494,1,2,0:0:0:0:
401,315,96668,2,0,P|365:318|331:308,1,71.9999978027344,10|0,0:0|0:0,0:0:0:0:
193,222,97016,2,0,P|158:219|123:230,1,71.9999978027344,2|0,0:0|0:0,0:0:0:0:
230,301,97363,6,0,P|273:255|254:162,1,143.999995605469,4|0,0:3|0:0,0:0:0:0:
160,112,97885,2,0,L|167:38,2,71.9999978027344,2|10|2,0:0|0:0|0:0,0:0:0:0:
123,229,98407,5,4,0:3:0:0:
266,178,98581,1,4,0:3:0:0:
266,178,98929,5,4,0:3:0:0:
199,312,99103,1,4,0:3:0:0:
199,312,99450,6,0,L|285:308,1,71.9999978027344,10|2,0:0|0:0,0:0:0:0:
371,239,99798,1,4,0:3:0:0:
371,239,100146,5,6,0:0:0:0:
256,192,100233,12,2,105711,0:0:0:0:
