osu file format v14

[General]
AudioFilename: audio.mp3
AudioLeadIn: 0
PreviewTime: 54138
Countdown: 0
SampleSet: Soft
StackLeniency: 0.7
Mode: 0
LetterboxInBreaks: 0
WidescreenStoryboard: 1

[Editor]
DistanceSpacing: 1
BeatDivisor: 4
GridSize: 8
TimelineZoom: 1

[Metadata]
Title:MAYDAY (Nightcore Mix)
TitleUnicode:MAYDAY (Nightcore Mix)
Artist:TheFatRat ft. Laura Brehm
ArtistUnicode:TheFatRat ft. Laura Brehm
Creator:Peter
Version:Normal
Source:
Tags:dance edm female vocal Marianna hypercyte
BeatmapID:1587911
BeatmapSetID:754219

[Difficulty]
HPDrainRate:4
CircleSize:3
OverallDifficulty:4
ApproachRate:5.5
SliderMultiplier:1.1
SliderTickRate:1

[Events]
//Background and Video events
0,0,"110821.jpg",0,0
//Break Periods
2,33563,43368
2,78085,79542
//Storyboard Layer 0 (Background)
//Storyboard Layer 1 (Fail)
//Storyboard Layer 2 (Pass)
//Storyboard Layer 3 (Foreground)
//Storyboard Sound Samples

[TimingPoints]
-28,347.826086956522,4,2,0,40,1,0
11102,-111.111111111111,4,2,0,40,0,0
44493,-111.111111111111,4,2,0,50,0,0
54232,-111.111111111111,4,2,0,30,0,0
55624,-100,4,2,0,60,0,1
77885,-111.111111111111,4,2,0,40,0,0
80667,-111.111111111111,4,2,0,50,0,0
105711,-111.111111111111,4,2,0,20,0,0

[Colours]
Combo1 : 45,92,217
Combo2 : 141,177,245
Combo3 : 151,129,254

[HitObjects]
27,96,11102,6,0,L|129:94,1,98.9999969787599,4|2,0:3|0:0,0:0:0:0:
212,46,11798,2,0,L|314:48,1,98.9999969787599,10|4,0:0|0:3,0:0:0:0:
363,50,12319,1,4,0:3:0:0:
363,50,12493,2,0,P|350:113|361:159,1,98.9999969787599,2|2,0:0|0:0,0:0:0:0:
396,236,13189,1,10,0:0:0:0:
321,300,13537,1,2,0:0:0:0:
227,267,13885,6,0,L|112:265,1,98.9999969787599,4|0,0:3|0:0,0:0:0:0:
40,312,14580,2,0,P|30:241|51:210,1,98.9999969787599,8|4,0:0|0:3,0:0:0:0:
191,350,15624,2,0,B|242:337|242:365|298:350,1,98.9999969787599,4|8,0:3|0:0,0:0:0:0:
379,313,16319,1,4,0:0:0:0:
320,237,16667,6,0,L|327:127,1,98.9999969787599,4|2,0:3|0:0,0:0:0:0:
283,48,17363,2,0,P|229:61|183:47,1,98.9999969787599,10|4,0:0|0:3,0:0:0:0:
142,30,17885,1,4,0:3:0:0:
142,30,18058,2,0,P|88:17|42:31,1,98.9999969787599,2|2,0:0|0:0,0:0:0:0:
90,117,18754,1,10,0:0:0:0:
20,187,19102,1,2,0:0:0:0:
67,273,19450,6,0,L|182:269,1,98.9999969787599,4|0,0:3|0:0,0:0:0:0:
206,240,19972,2,0,L|187:178,2,49.4999984893799,2|10|2,0:0|0:0|0:0,0:0:0:0:
253,254,20493,1,4,0:3:0:0:
336,307,20841,2,0,P|353:263|337:208,1,98.9999969787599,2|2,0:0|0:0,0:0:0:0:
293,126,21537,2,0,L|303:76,2,49.4999984893799,10|2|4,0:0|0:0|0:3,0:0:0:0:
194,142,22232,6,0,P|133:125|84:138,1,98.9999969787599,4|2,0:3|0:0,0:0:0:0:
38,210,22928,2,0,L|46:320,1,98.9999969787599,10|4,0:0|0:3,0:0:0:0:
50,358,23450,1,4,0:3:0:0:
319,314,24319,2,0,L|430:320,1,98.9999969787599,8|0,0:0|0:0,0:0:0:0:
494,256,25015,6,0,P|480:215|493:143,1,98.9999969787599,4|2,0:3|0:0,0:0:0:0:
401,107,25711,2,0,P|415:66|402:-6,1,98.9999969787599,8|4,0:0|0:3,0:0:0:0:
295,173,26754,1,4,0:3:0:0:
225,101,27102,2,0,L|113:99,1,98.9999969787599,10|0,0:0|0:0,0:0:0:0:
33,133,27798,6,0,P|43:180|26:238,1,98.9999969787599,4|2,0:3|0:0,0:0:0:0:
6,325,28493,2,0,L|126:318,1,98.9999969787599,10|4,0:0|0:3,0:0:0:0:
135,352,29015,1,4,0:3:0:0:
135,352,29189,2,0,L|255:359,1,98.9999969787599,2|2,0:0|0:0,0:0:0:0:
318,306,29885,1,10,0:0:0:0:
255,228,30232,1,2,0:0:0:0:
346,185,30580,6,0,P|359:121|343:75,1,98.9999969787599,4|0,0:3|0:0,0:0:0:0:
337,41,31102,2,0,P|362:44|407:41,2,49.4999984893799,2|10|2,0:0|0:0|0:0,0:0:0:0:
292,19,31624,1,2,0:0:0:0:
216,83,31972,2,0,L|226:193,1,98.9999969787599,2|2,0:0|0:0,0:0:0:0:
277,266,32667,2,0,L|272:329,2,49.4999984893799,10|2|2,0:0|0:0|0:0,0:0:0:0:
330,182,33363,5,6,0:0:0:0:
0,54,44493,6,0,P|47:72|104:54,1,98.9999969787599,2|0,0:3|0:0,0:0:0:0:
138,41,45015,2,0,L|202:48,1,49.4999984893799,2|2,0:3|0:3,0:0:0:0:
214,137,45537,2,0,L|207:244,1,98.9999969787599,2|0,0:3|0:0,0:0:0:0:
205,285,46058,2,0,P|238:289|267:284,1,49.4999984893799,2|2,0:3|0:3,0:0:0:0:
346,265,46580,2,0,P|422:257|457:267,1,98.9999969787599,2|2,0:3|0:3,0:0:0:0:
485,281,47102,1,2,0:3:0:0:
485,281,47276,6,0,L|489:167,1,98.9999969787599,2|2,0:3|0:3,0:0:0:0:
448,152,47798,2,0,L|444:38,1,98.9999969787599,2|0,0:3|0:0,0:0:0:0:
406,21,48319,1,2,0:3:0:0:
321,72,48667,2,0,L|257:68,2,49.4999984893799,2|2|2,0:3|0:3|0:3,0:0:0:0:
352,166,49363,1,2,0:3:0:0:
279,233,49711,2,0,P|276:262|284:296,1,49.4999984893799,2|2,0:3|0:3,0:0:0:0:
288,328,50058,5,2,0:3:0:0:
256,192,50232,12,2,54232,0:0:0:0:
481,91,55624,6,0,L|495:215,1,110,4|0,0:0|0:0,0:0:0:0:
461,305,56319,1,8,0:0:0:0:
364,255,56667,1,4,0:3:0:0:
364,255,56841,2,0,P|307:239|248:250,1,110,4|0,0:3|0:0,0:0:0:0:
208,271,57363,1,0,0:0:0:0:
134,189,57711,1,8,0:0:0:0:
41,248,58058,2,0,L|41:326,1,55,0|0,0:0|0:0,0:0:0:0:
77,344,58406,6,0,P|130:326|194:341,1,110,4|0,0:3|0:0,0:0:0:0:
228,365,58928,1,0,0:0:0:0:
228,365,59102,1,8,0:0:0:0:
329,323,59450,2,0,L|322:204,1,110,4|0,0:3|0:0,0:0:0:0:
370,119,60145,1,4,0:3:0:0:
286,54,60493,1,8,0:0:0:0:
206,123,60841,1,0,0:0:0:0:
102,100,61189,6,0,B|115:235,1,110,4|0,0:3|0:0,0:0:0:0:
178,292,61885,1,8,0:0:0:0:
279,264,62232,1,4,0:3:0:0:
279,264,62406,2,0,P|331:252|392:271,1,110,4|0,0:3|0:0,0:0:0:0:
433,293,62928,1,0,0:0:0:0:
504,215,63276,1,8,0:0:0:0:
435,134,63624,2,0,L|438:59,1,55
403,38,63972,6,0,P|362:55|278:40,1,110,4|0,0:3|0:0,0:0:0:0:
198,13,64667,1,8,0:0:0:0:
121,85,65015,1,4,0:3:0:0:
121,85,65189,1,4,0:3:0:0:
29,24,65537,1,4,0:3:0:0:
29,24,65711,1,4,0:3:0:0:
2,130,66058,2,0,L|10:249,1,110,8|4,0:0|0:3,0:0:0:0:
94,316,66754,6,0,P|168:299|212:310,1,110,4|0,0:0|0:0,0:0:0:0:
303,343,67450,1,8,0:0:0:0:
386,271,67798,1,4,0:3:0:0:
386,271,67972,2,0,L|384:145,1,110,4|0,0:3|0:0,0:0:0:0:
383,105,68493,1,0,0:0:0:0:
281,146,68841,1,8,0:0:0:0:
182,97,69189,2,0,L|114:102,1,55,0|0,0:0|0:0,0:0:0:0:
71,104,69537,6,0,P|89:145|59:222,1,110,4|0,0:3|0:0,0:0:0:0:
50,256,70058,1,0,0:0:0:0:
50,256,70232,1,8,0:0:0:0:
134,326,70580,2,0,L|247:320,1,110,4|0,0:3|0:0,0:0:0:0:
308,236,71276,1,4,2:3:0:0:
230,164,71624,1,8,2:2:0:0:
253,60,71972,1,0,2:2:0:0:
350,100,72319,6,0,L|459:92,1,110,4|0,0:3|0:0,0:0:0:0:
408,189,73015,1,8,0:0:0:0:
507,235,73363,1,4,0:3:0:0:
507,235,73537,2,0,P|514:304|475:351,1,110,4|0,0:3|0:0,0:0:0:0:
450,371,74058,1,0,0:0:0:0:
405,270,74406,1,8,0:0:0:0:
329,350,74754,2,0,L|267:344,1,55,0|0,0:0|0:0,0:0:0:0:
227,315,75102,6,0,P|181:340|107:323,1,110,4|0,0:3|0:0,0:0:0:0:
55,249,75798,1,8,0:0:0:0:
155,204,76145,1,4,0:3:0:0:
155,204,76319,1,4,0:3:0:0:
103,106,76667,1,4,0:3:0:0:
103,106,76841,1,4,0:3:0:0:
182,30,77189,2,0,L|299:33,1,110,8|4,0:0|0:3,0:0:0:0:
391,37,77885,5,4,0:0:0:0:
355,281,80667,6,0,P|299:260|243:269,1,98.9999969787599,4|0,0:3|0:0,0:0:0:0:
166,292,81363,1,8,0:0:0:0:
96,221,81711,2,0,L|101:117,1,98.9999969787599,4|0,0:3|0:0,0:0:0:0:
168,49,82406,1,4,0:3:0:0:
239,117,82754,1,10,0:0:0:0:
321,62,83102,1,2,0:0:0:0:
393,128,83450,6,0,L|389:243,1,98.9999969787599,4|2,0:3|0:0,0:0:0:0:
309,285,84145,2,0,P|243:272|208:283,1,98.9999969787599,8|4,0:0|0:3,0:0:0:0:
168,301,84667,1,4,0:3:0:0:
168,301,84841,2,0,L|67:291,1,98.9999969787599,2|2,0:0|0:0,0:0:0:0:
18,206,85537,1,8,0:0:0:0:
87,135,85885,1,2,0:0:0:0:
29,54,86232,6,0,P|117:43|140:55,1,98.9999969787599,4|0,0:3|0:0,0:0:0:0:
167,68,86754,2,0,P|188:55|221:50,2,49.4999984893799,2|10|2,0:0|0:0|0:0,0:0:0:0:
168,117,87276,1,4,0:3:0:0:
110,197,87624,2,0,L|124:305,1,98.9999969787599,2|2,0:0|0:0,0:0:0:0:
215,330,88319,2,0,L|206:381,2,49.4999984893799,10|2|2,0:0|0:0|0:0,0:0:0:0:
298,276,89015,6,0,P|371:288|410:275,1,98.9999969787599,4|2,0:3|0:0,0:0:0:0:
353,191,89711,1,10,0:0:0:0:
451,186,90058,1,4,0:3:0:0:
451,186,90232,2,0,L|446:81,1,98.9999969787599,4|0,0:3|0:3,0:0:0:0:
445,37,90754,1,0,0:0:0:0:
348,59,91102,2,0,P|298:71|234:60,1,98.9999969787599,8|2,0:0|0:0,0:0:0:0:
154,44,91798,6,0,L|171:156,1,98.9999969787599,4|2,0:3|0:0,0:0:0:0:
244,205,92493,1,10,0:0:0:0:
171,272,92841,2,0,P|112:280|61:268,1,98.9999969787599,4|0,0:3|0:0,0:0:0:0:
0,206,93537,1,4,0:3:0:0:
81,150,93885,2,0,L|59:38,1,98.9999969787599,10|0,0:0|0:0,0:0:0:0:
158,28,94580,6,0,P|211:42|267:29,1,98.9999969787599,4|2,0:3|0:0,0:0:0:0:
349,10,95276,1,10,0:0:0:0:
428,68,95624,1,4,0:3:0:0:
428,68,95798,2,0,L|428:187,1,98.9999969787599,4|0,0:3|0:0,0:0:0:0:
428,216,96319,1,2,0:0:0:0:
335,180,96667,2,0,P|287:167|228:184,1,98.9999969787599,10|2,0:0|0:0,0:0:0:0:
148,216,97363,6,0,L|127:105,1,98.9999969787599,4|0,0:3|0:0,0:0:0:0:
99,78,97885,2,0,P|46:87|34:85,2,49.4999984893799,2|10|2,0:0|0:0|0:0,0:0:0:0:
136,45,98406,1,2,0:0:0:0:
227,82,98754,2,0,L|331:73,1,98.9999969787599,2|2,0:0|0:0,0:0:0:0:
394,144,99450,2,0,L|455:148,2,49.4999984893799,10|2|2,0:0|0:0|0:0,0:0:0:0:
312,200,100145,5,6,0:0:0:0:
256,192,100319,12,2,105711,0:0:0:0:
