osu file format v14

[General]
AudioFilename: audio.mp3
AudioLeadIn: 0
PreviewTime: 54138
Countdown: 0
SampleSet: Soft
StackLeniency: 0.3
Mode: 0
LetterboxInBreaks: 0
WidescreenStoryboard: 1

[Editor]
Bookmarks: 11095,22225,33355,44486,55616,66747,77877,89008
DistanceSpacing: 1.2
BeatDivisor: 4
GridSize: 4
TimelineZoom: 1.3

[Metadata]
Title:MAYDAY (Nightcore Mix)
TitleUnicode:MAYDAY (Nightcore Mix)
Artist:TheFatRat ft. Laura Brehm
ArtistUnicode:TheFatRat ft. Laura Brehm
Creator:Peter
Version:Collab Insane
Source:
Tags:dance edm female vocal Marianna hypercyte
BeatmapID:1587909
BeatmapSetID:754219

[Difficulty]
HPDrainRate:6
CircleSize:4
OverallDifficulty:8
ApproachRate:9
SliderMultiplier:1.7
SliderTickRate:1

[Events]
//Background and Video events
0,0,"110821.jpg",0,0
//Break Periods
//Storyboard Layer 0 (Background)
//Storyboard Layer 1 (Fail)
//Storyboard Layer 2 (Pass)
//Storyboard Layer 3 (Foreground)
Sprite,Foreground,Centre,"SB\Mar.png",320,240 M,0,11102,,471.2728,94.54547 S,0,11102,,0.7090908 F,0,11102,11188,0,1 F,0,11188,22145,1 F,0,22145,22232,1,0 F,0,22232,33362,0 F,0,33362,33449,0,0.4210909 F,0,33449,33457,0.4210909,0.7556427 F,0,33457,44413,0.7556427,0.7152351 F,0,44413,44493,0.7152351,0 F,0,44493,55623,0 F,0,55623,55710,0,1 F,0,55710,66667,1 F,0,66667,66754,1,0 F,0,66754,77884,0 F,0,77884,77971,0,1 F,0,77971,88928,1 F,0,88928,89015,1,0
Sprite,Foreground,Centre,"SB\me.png",320,240 M,0,11095,,139.0546,95.70911 S,0,11095,,0.6974547 F,0,22232,22319,0,1 F,0,22319,33275,1 F,0,33275,33362,1,0 F,0,33362,44493,0 F,0,44493,44580,0,1 F,0,44580,53884,1 F,0,53884,54232,1,0 F,0,54232,66754,0 F,0,66754,66841,0,1 F,0,66841,77797,1 F,0,77797,77884,1,0 F,0,77884,89015,0 F,0,89015,89102,0,1 F,0,89102,100145,1 F,0,100145,100841,1,0
//Storyboard Sound Samples

[TimingPoints]
-28,347.826086956522,4,2,0,40,1,0
11102,-111.111111111111,4,2,0,40,0,0
33363,-166.666666666666,4,2,0,30,0,0
38754,-199.999999999999,4,2,0,20,0,0
41537,-250,4,2,0,10,0,0
44493,-125,4,2,0,50,0,0
54232,-125,4,2,0,30,0,0
54928,-125,4,2,0,30,0,0
55015,-125,4,2,0,5,0,0
55276,-125,4,2,0,30,0,0
55363,-125,4,2,0,5,0,0
55624,-100,4,2,0,60,0,1
77885,-111.111111111111,4,2,0,40,0,0
80667,-111.111111111111,4,2,0,50,0,0
105711,-100,4,2,0,20,0,0

[Colours]
Combo1 : 45,92,217
Combo2 : 141,177,245
Combo3 : 151,129,254

[HitObjects]
108,116,11102,6,0,L|112:192,1,76.4999976654053,4|0,0:3|0:0,0:0:0:0:
184,96,11450,1,2,0:0:0:0:
32,108,11624,1,2,0:0:0:0:
188,172,11798,2,0,L|184:96,1,76.4999976654053,10|0,0:0|0:0,0:0:0:0:
116,268,12145,1,4,0:3:0:0:
259,244,12319,1,4,0:3:0:0:
112,192,12493,6,0,L|116:268,1,76.4999976654053,2|0,0:0|0:0,0:0:0:0:
36,176,12841,1,2,0:0:0:0:
188,172,13015,1,2,0:0:0:0:
40,252,13189,2,0,L|36:176,1,76.4999976654053,10|0,0:0|0:0,0:0:0:0:
183,95,13537,2,0,L|187:171,1,76.4999976654053,2|0,0:0|0:0,0:0:0:0:
84,340,13885,6,0,B|144:332|144:332|168:340|168:340|236:332,1,152.999995330811,4|0,0:3|0:0,0:0:0:0:
356,316,14406,1,0,0:0:0:0:
278,192,14580,2,0,L|289:268,1,76.4999976654053,8|0,0:0|0:0,0:0:0:0:
402,130,14928,6,0,B|318:146|330:98|253:109,1,152.999995330811,4|0,0:3|0:0,0:0:0:0:
158,124,15450,1,0,0:0:0:0:
143,274,15624,6,0,B|131:376,1,76.4999976654053,4|0,0:3|0:0,0:0:0:0:
263,185,15972,2,0,B|251:83,1,76.4999976654053,8|0,0:0|0:0,0:0:0:0:
413,251,16319,2,0,P|374:248|336:258,1,76.4999976654053,4|0,0:0|0:0,0:0:0:0:
127,187,16667,6,0,P|195:216|263:186,1,152.999995330811,4|2,0:3|0:0,0:0:0:0:
193,125,17189,1,2,0:0:0:0:
123,280,17363,2,0,L|126:356,1,76.4999976654053,10|0,0:0|0:0,0:0:0:0:
196,215,17711,1,4,0:3:0:0:
51,236,17885,1,4,0:3:0:0:
199,291,18058,6,0,L|195:214,1,76.4999976654053,2|0,0:0|0:0,0:0:0:0:
123,280,18406,1,2,0:0:0:0:
275,268,18580,1,2,0:0:0:0:
191,138,18754,2,0,L|194:214,1,76.4999976654053,10|0,0:0|0:0,0:0:0:0:
278,344,19102,2,0,L|274:267,1,76.4999976654053,2|0,0:0|0:0,0:0:0:0:
179,124,19450,6,0,B|111:116|111:116|95:120|95:120|27:112,1,152.999995330811,4|0,0:3|0:0,0:0:0:0:
115,20,19972,1,2,0:0:0:0:
131,196,20145,2,0,L|123:272,1,76.4999976654053,10|2,0:0|0:0,0:0:0:0:
278,344,20493,2,0,L|270:268,1,76.4999976654053,2|0,0:0|0:0,0:0:0:0:
251,64,20841,5,2,0:0:0:0:
278,344,21189,1,2,0:0:0:0:
251,64,21537,5,10,0:0:0:0:
131,192,21711,1,2,0:0:0:0:
299,260,21885,1,2,0:0:0:0:
299,260,22232,6,0,L|377:256,1,76.4999976654053,4|2,0:3|0:0,0:0:0:0:
446,166,22580,2,0,L|284:154,1,152.999995330811,2|10,0:0|0:0,0:0:0:0:
190,107,23102,1,2,0:0:0:0:
205,212,23276,1,4,0:3:0:0:
205,212,23450,6,0,P|216:276|150:347,1,152.999995330811,4|0,0:3|0:3,0:0:0:0:
123,170,23972,1,0,0:0:0:0:
124,259,24145,1,0,0:0:0:0:
268,128,24319,2,0,B|326:128|326:128|371:149|371:149|445:150,1,152.999995330811,8|0,0:0|0:0,0:0:0:0:
388,71,24841,1,2,0:0:0:0:
304,208,25015,6,0,L|297:305,1,76.4999976654053,4|2,0:3|0:0,0:0:0:0:
292,376,25363,1,2,0:0:0:0:
395,285,25537,1,2,0:0:0:0:
216,234,25711,2,0,P|169:229|130:232,1,76.4999976654053,8|0,0:0|0:0,0:0:0:0:
288,104,26058,6,0,P|363:127|452:89,1,152.999995330811,4|0,0:3|0:0,0:0:0:0:
361,31,26580,1,0,0:0:0:0:
305,200,26754,2,0,L|317:289,1,76.4999976654053,4|0,0:3|0:0,0:0:0:0:
178,165,27102,2,0,P|185:89|185:5,1,152.999995330811,10|0,0:0|0:0,0:0:0:0:
90,68,27624,1,0,0:0:0:0:
284,23,27798,6,0,P|320:28|368:31,1,76.4999976654053,4|0,0:3|0:0,0:0:0:0:
474,159,28145,1,2,0:0:0:0:
365,113,28319,1,2,0:0:0:0:
361,247,28493,2,0,P|397:252|445:255,1,76.4999976654053,10|0,0:0|0:0,0:0:0:0:
257,296,28841,1,4,0:3:0:0:
280,171,29015,1,4,0:3:0:0:
170,345,29189,6,0,P|160:302|164:254,1,76.4999976654053,2|0,0:0|0:0,0:0:0:0:
127,105,29537,1,2,0:0:0:0:
71,203,29711,1,2,0:0:0:0:
203,175,29885,2,0,L|298:170,1,76.4999976654053,10|0,0:0|0:0,0:0:0:0:
402,274,30232,2,0,L|299:284,1,76.4999976654053,2|0,0:0|0:0,0:0:0:0:
462,201,30580,6,0,P|504:264|464:344,1,152.999995330811,4|0,0:3|0:0,0:0:0:0:
369,179,31102,1,2,0:0:0:0:
402,274,31276,1,10,0:0:0:0:
428,114,31450,1,2,0:0:0:0:
394,297,31624,2,0,L|401:386,1,76.4999976654053,2|4,0:0|0:3,0:0:0:0:
263,293,31972,6,0,L|171:286,1,76.4999976654053,2|0,0:0|0:0,0:0:0:0:
292,184,32319,2,0,L|384:177,1,76.4999976654053,2|0,0:0|0:0,0:0:0:0:
190,147,32667,1,10,0:0:0:0:
263,293,32841,1,2,0:0:0:0:
176,130,33015,1,2,0:0:0:0:
355,267,33363,6,0,P|449:295|513:224,1,203.999993774414,6|0,0:0|0:0,0:0:0:0:
422,205,34406,1,2,0:0:0:0:
252,360,35972,5,2,0:0:0:0:
252,360,36145,2,0,L|150:360,1,101.999996887207,2|0,0:0|0:0,0:0:0:0:
83,311,36667,2,0,P|63:266|83:220,1,101.999996887207,2|0,0:0|0:0,0:0:0:0:
139,163,37189,2,0,P|84:51|26:161,1,305.999990661621,2|0,0:0|0:0,0:0:0:0:
334,265,38754,5,2,0:0:0:0:
334,265,38928,2,0,B|342:213|314:213|326:165,1,85,2|0,0:0|0:0,0:0:0:0:
371,122,39450,2,0,P|323:105|276:121,1,85,2|0,0:0|0:0,0:0:0:0:
244,174,39972,2,0,B|155:203|157:129|64:177,1,170,2|0,0:0|0:0,0:0:0:0:
389,302,41537,5,2,0:0:0:0:
389,302,41711,2,0,L|389:228,1,68,2|0,0:0|0:0,0:0:0:0:
436,179,42232,2,0,P|388:162|359:169,1,68,2|0,0:0|0:0,0:0:0:0:
312,212,42754,2,0,P|261:175|314:139,1,136,2|0,0:0|0:0,0:0:0:0:
186,240,44493,6,0,P|161:170|209:107,1,136,2|0,0:3|0:0,0:0:0:0:
357,255,45015,1,2,0:3:0:0:
249,182,45189,2,0,B|318:210|318:151|392:181,1,136,2|2,0:3|0:3,0:0:0:0:
380,176,45711,1,0,0:0:0:0:
278,105,45885,5,0,0:0:0:0:
357,255,46058,1,2,0:3:0:0:
432,120,46232,2,0,L|421:53,1,68,2|0,0:3|0:0,0:0:0:0:
249,182,46580,2,0,L|260:115,1,68,2|0,0:3|0:0,0:0:0:0:
357,255,46928,1,2,0:3:0:0:
242,307,47102,1,2,0:3:0:0:
215,302,47189,1,2,0:3:0:0:
188,296,47276,6,0,B|142:287|142:287|98:299|98:299|46:282,1,136,2|2,0:3|0:3,0:0:0:0:
188,180,47798,2,0,L|341:210,1,136,2|0,0:3|0:0,0:0:0:0:
148,99,48319,6,0,P|98:143|105:220,1,136,2|2,0:3|0:3,0:0:0:0:
188,180,48841,2,0,P|238:136|231:59,1,136,2|0,0:3|0:0,0:0:0:0:
148,99,49363,2,0,L|70:91,1,68,2|0,0:3|0:0,0:0:0:0:
170,271,49711,2,0,L|248:263,1,68,2|2,0:3|0:3,0:0:0:0:
323,256,49972,1,2,0:3:0:0:
323,256,50058,5,2,0:3:0:0:
256,192,50145,12,2,54232,0:0:0:0:
40,192,54928,6,0,L|107:188,1,68,2|0,0:0|0:0,0:0:0:0:
164,80,55276,2,0,L|96:76,1,68,2|0,0:0|0:0,0:0:0:0:
208,240,55624,6,0,B|288:236|288:236|300:240|300:240|377:236,1,170,4|0,0:0|0:0,0:0:0:0:
320,160,56145,1,0,0:0:0:0:
272,312,56319,1,8,0:0:0:0:
332,128,56493,1,0,0:0:0:0:
208,240,56667,1,4,0:3:0:0:
207,240,56841,6,0,P|125:238|76:173,1,170,4|0,0:3|0:0,0:0:0:0:
169,152,57363,1,0,0:0:0:0:
84,320,57537,1,0,0:0:0:0:
188,116,57711,2,0,L|191:31,1,85,8|0,0:0|0:0,0:0:0:0:
272,120,58058,1,0,0:0:0:0:
104,80,58232,1,0,0:0:0:0:
328,48,58406,5,4,0:3:0:0:
232,200,58580,1,0,0:0:0:0:
191,31,58754,1,0,0:0:0:0:
320,148,58928,1,0,0:0:0:0:
156,124,59102,1,8,0:0:0:0:
268,0,59276,1,0,0:0:0:0:
336,192,59450,6,0,P|422:203|488:146,1,170,4|0,0:3|0:0,0:0:0:0:
391,110,59972,1,0,0:0:0:0:
296,264,60145,2,0,L|304:348,1,85,4|0,0:3|0:0,0:0:0:0:
384,296,60493,1,8,0:0:0:0:
216,264,60667,1,0,0:0:0:0:
392,380,60841,2,0,L|384:296,1,85,0|0,0:0|0:0,0:0:0:0:
391,110,61189,6,0,B|323:134|275:90|275:90|318:76,1,170,4|0,0:3|0:0,0:0:0:0:
428,28,61711,1,0,0:0:0:0:
448,184,61885,2,0,L|455:268,1,85,8|0,0:0|0:0,0:0:0:0:
256,340,62232,1,4,0:3:0:0:
256,340,62406,6,0,P|334:311|412:340,1,170,4|0,0:3|0:0,0:0:0:0:
240,224,62928,1,0,0:0:0:0:
256,340,63102,1,0,0:0:0:0:
360,192,63276,2,0,L|352:108,1,85,8|0,0:0|0:0,0:0:0:0:
176,52,63624,2,0,L|184:136,1,85,0|0,0:0|0:0,0:0:0:0:
344,220,63972,6,0,B|420:228|420:228|440:224|440:224|512:231,1,170,4|0,0:3|0:0,0:0:0:0:
412,140,64493,1,0,0:0:0:0:
452,300,64667,2,0,L|444:384,1,85,8|0,0:0|0:0,0:0:0:0:
344,220,65015,1,4,0:3:0:0:
452,284,65189,1,4,0:3:0:0:
240,336,65363,6,0,L|232:252,1,85,2|4,0:0|0:3,0:0:0:0:
420,55,65711,2,0,L|412:139,1,85,4|0,0:3|0:0,0:0:0:0:
140,196,66058,2,0,L|132:112,1,85,8|0,0:0|0:0,0:0:0:0:
300,4,66406,2,0,L|292:88,1,85,4|0,0:3|0:0,0:0:0:0:
397,340,66754,6,0,L|411:156,1,170,4|0,0:0|0:0,0:0:0:0:
490,223,67276,1,0,0:0:0:0:
341,98,67450,1,8,0:0:0:0:
445,77,67624,1,0,0:0:0:0:
323,185,67798,1,4,0:3:0:0:
323,185,67972,6,0,B|263:177|263:177|218:182|218:182|123:161,1,170,4|0,0:3|0:0,0:0:0:0:
266,254,68493,1,0,0:0:0:0:
218,106,68667,1,0,0:0:0:0:
67,171,68841,2,0,L|78:264,1,85,8|0,0:0|0:0,0:0:0:0:
0,111,69189,1,0,0:0:0:0:
155,168,69363,1,0,0:0:0:0:
0,219,69537,5,4,0:3:0:0:
99,62,69711,1,0,0:0:0:0:
165,258,69885,2,0,P|217:225|235:198,1,85
128,382,70232,1,8,0:0:0:0:
155,168,70406,1,0,0:0:0:0:
346,277,70580,6,0,B|427:253|431:307|519:279,1,170,4|0,0:3|0:0,0:0:0:0:
464,170,71102,1,0,0:0:0:0:
386,355,71276,2,0,P|330:361|287:344,1,85,4|0,2:3|2:0,2:2:0:0:
186,258,71624,1,8,2:0:0:0:
294,205,71798,1,0,2:0:0:0:
196,362,71972,1,0,0:0:0:0:
279,235,72145,1,0,0:0:0:0:
170,384,72319,6,0,L|181:192,1,170,4|0,0:3|0:0,0:0:0:0:
266,265,72841,1,0,0:0:0:0:
124,140,73015,1,8,0:0:0:0:
228,125,73189,1,0,0:0:0:0:
159,294,73363,1,4,0:3:0:0:
159,294,73537,6,0,P|86:331|-2:307,1,170,4|0,0:3|0:0,0:0:0:0:
71,157,74058,1,0,0:0:0:0:
0,212,74232,1,0,0:0:0:0:
159,294,74406,2,0,P|201:303|266:282,1,85,8|0,0:0|0:0,0:0:0:0:
308,158,74754,1,0,0:0:0:0:
200,210,74928,1,0,0:0:0:0:
302,359,75102,6,0,L|478:366,1,170,4|0,0:3|0:0,0:0:0:0:
342,263,75624,1,0,0:0:0:0:
194,330,75798,1,8,0:0:0:0:
200,210,75972,1,0,0:0:0:0:
302,359,76145,1,4,0:3:0:0:
366,169,76319,6,0,L|365:69,1,85,4|0,0:3|0:0,0:0:0:0:
252,274,76667,1,4,0:3:0:0:
393,170,76841,2,0,L|392:70,1,85,4|0,0:3|0:0,0:0:0:0:
271,190,77189,1,8,0:0:0:0:
284,104,77363,1,0,0:0:0:0:
367,243,77537,2,0,P|410:247|462:239,1,85,4|0,0:3|0:0,0:0:0:0:
295,309,77885,5,4,0:0:0:0:
244,69,78232,1,2,0:0:0:0:
271,190,78406,1,2,0:0:0:0:
104,160,78580,2,0,L|180:148,1,76.4999976654053,2|0,0:0|0:0,0:0:0:0:
120,244,78928,1,2,0:0:0:0:
88,80,79102,1,2,0:0:0:0:
255,136,79276,6,0,L|179:148,1,76.4999976654053,2|0,0:0|0:0,0:0:0:0:
88,80,79624,2,0,L|164:68,1,76.4999976654053,2|0,0:0|0:0,0:0:0:0:
249,228,79972,1,2,0:0:0:0:
305,66,80145,1,0,0:0:0:0:
179,147,80319,1,2,0:0:0:0:
355,166,80493,1,0,0:0:0:0:
235,324,80667,6,0,P|310:333|369:288,1,152.999995330811,4|0,0:3|0:0,0:0:0:0:
287,239,81189,1,0,0:0:0:0:
156,356,81363,2,0,L|80:348,1,76.4999976654053,8|0,0:0|0:0,0:0:0:0:
8,156,81711,6,0,B|76:160|76:160|88:156|88:156|160:160,1,152.999995330811,4|0,0:3|0:0,0:0:0:0:
72,76,82232,1,0,0:0:0:0:
120,236,82406,2,0,L|116:312,1,76.4999976654053,4|0,0:3|0:0,0:0:0:0:
40,232,82754,1,10,0:0:0:0:
196,296,82928,1,0,0:0:0:0:
35,308,83102,2,0,L|39:232,1,76.4999976654053,2|0,0:0|0:0,0:0:0:0:
168,139,83450,6,0,P|240:124|300:170,1,152.999995330811,4|2,0:3|0:0,0:0:0:0:
221,208,83972,1,2,0:0:0:0:
90,119,84145,2,0,L|96:42,1,76.4999976654053,8|0,0:0|0:0,0:0:0:0:
168,139,84493,1,4,0:3:0:0:
8,120,84667,1,4,0:3:0:0:
174,63,84841,6,0,L|167:139,1,76.4999976654053,2|0,0:0|0:0,0:0:0:0:
96,42,85189,1,2,0:0:0:0:
252,68,85363,1,2,0:0:0:0:
161,215,85537,2,0,L|167:138,1,76.4999976654053,8|0,0:0|0:0,0:0:0:0:
280,68,85885,2,0,L|273:144,1,76.4999976654053,2|0,0:0|0:0,0:0:0:0:
215,285,86232,6,0,P|142:302|83:257,1,152.999995330811,4|0,0:3|0:0,0:0:0:0:
161,215,86754,1,2,0:0:0:0:
270,362,86928,2,0,L|346:357,1,76.4999976654053,10|2,0:0|0:0,0:0:0:0:
480,244,87276,2,0,L|404:239,1,76.4999976654053,4|0,0:3|0:0,0:0:0:0:
253,228,87624,5,2,0:0:0:0:
480,244,87972,1,2,0:0:0:0:
253,228,88319,5,8,0:0:0:0:
325,160,88493,1,2,0:0:0:0:
128,57,88667,2,0,L|131:133,1,76.4999976654053,2|0,0:0|0:0,0:0:0:0:
325,160,89015,6,0,L|235:150,1,76.4999976654053,4|2,0:3|0:0,0:0:0:0:
128,57,89363,2,0,L|218:47,1,76.4999976654053,2|2,0:0|0:0,0:0:0:0:
29,129,89711,1,10,0:0:0:0:
39,24,89885,1,2,0:0:0:0:
122,165,90058,1,4,0:3:0:0:
122,165,90232,6,0,P|133:230|50:303,1,152.999995330811,4|0,0:3|0:3,0:0:0:0:
29,129,90754,1,0,0:0:0:0:
49,213,90928,1,0,0:0:0:0:
224,153,91102,2,0,B|300:128|300:181|389:146,1,152.999995330811,8|2,0:0|0:0,0:0:0:0:
329,66,91624,1,2,0:0:0:0:
262,233,91798,6,0,P|261:279|274:334,1,76.4999976654053,4|2,0:3|0:0,0:0:0:0:
140,205,92145,2,0,P|141:159|128:104,1,76.4999976654053,2|0,0:0|0:0,0:0:0:0:
58,281,92493,1,10,0:0:0:0:
32,167,92667,1,2,0:0:0:0:
158,309,92841,6,0,P|229:299|325:296,1,152.999995330811,4|0,0:3|0:0,0:0:0:0:
390,353,93363,1,0,0:0:0:0:
327,214,93537,2,0,P|278:213|229:217,1,76.4999976654053,4|0,0:3|0:0,0:0:0:0:
425,269,93885,2,0,B|435:111,1,152.999995330811,10|0,0:0|0:0,0:0:0:0:
512,182,94406,1,0,0:0:0:0:
355,103,94580,6,0,B|306:103|306:103|257:82|257:82|196:82,1,152.999995330811,4|2,0:3|0:0,0:0:0:0:
335,7,95102,1,2,0:0:0:0:
237,170,95276,2,0,L|243:255,1,76.4999976654053,10|0,0:0|0:0,0:0:0:0:
355,103,95624,1,4,0:3:0:0:
264,66,95798,1,4,0:3:0:0:
210,188,95972,6,0,L|216:273,1,76.4999976654053,2|0,0:0|0:0,0:0:0:0:
83,216,96319,1,2,0:0:0:0:
127,300,96493,1,2,0:0:0:0:
123,136,96667,2,0,P|63:129|35:140,1,76.4999976654053,10|0,0:0|0:0,0:0:0:0:
210,188,97015,2,0,P|269:194|297:183,1,76.4999976654053,2|0,0:0|0:0,0:0:0:0:
508,269,97363,6,0,P|420:241|348:269,1,152.999995330811,4|0,0:3|0:0,0:0:0:0:
248,308,97885,1,2,0:0:0:0:
284,189,98058,1,10,0:0:0:0:
328,360,98232,1,2,0:0:0:0:
196,225,98406,2,0,L|112:233,1,76.4999976654053,2|4,0:0|0:3,0:0:0:0:
12,192,98754,6,0,P|5:229|12:266,1,76.4999976654053,2|0,0:0|0:0,0:0:0:0:
110,89,99102,2,0,P|117:51|109:14,1,76.4999976654053,2|0,0:0|0:0,0:0:0:0:
84,162,99450,1,10,0:0:0:0:
32,56,99624,1,2,0:0:0:0:
166,145,99798,1,2,0:0:0:0:
166,145,100145,5,6,0:0:0:0:
256,192,100232,12,2,105711,0:0:0:0:
