osu file format v14

[General]
AudioFilename: audio.mp3
AudioLeadIn: 0
PreviewTime: -1
Countdown: 1
SampleSet: Normal
StackLeniency: 0.7
Mode: 0
LetterboxInBreaks: 0
WidescreenStoryboard: 0

[Editor]
DistanceSpacing: 1.2
BeatDivisor: 4
GridSize: 8
TimelineZoom: 0.9

[Metadata]
Title:
TitleUnicode:
Artist:TheFatRat Monody
ArtistUnicode:TheFatRat Monody
Creator:Kiozom
Version:
Source:
Tags:
BeatmapID:1473921
BeatmapSetID:695692

[Difficulty]
HPDrainRate:5
CircleSize:5
OverallDifficulty:5
ApproachRate:5
SliderMultiplier:1
SliderTickRate:1

[Events]
//Background and Video events
//Break Periods
2,36187,53067
2,69885,71067
2,90397,106927
//Storyboard Layer 0 (Background)
//Storyboard Layer 1 (Fail)
//Storyboard Layer 2 (Pass)
//Storyboard Layer 3 (Foreground)
//Storyboard Sound Samples

[TimingPoints]
-12,279.06976744186,4,1,0,100,1,0

[HitObjects]
256,192,685,12,0,8150,0:0:0:0:
133,84,8499,5,0,0:0:0:0:
262,51,8987,1,0,0:0:0:0:
281,57,9127,1,0,0:0:0:0:
389,186,9406,1,0,0:0:0:0:
256,307,9685,1,0,0:0:0:0:
112,189,10174,1,0,0:0:0:0:
119,164,10313,1,0,0:0:0:0:
262,51,10662,1,0,0:0:0:0:
389,186,10941,1,0,0:0:0:0:
256,307,11429,1,0,0:0:0:0:
236,297,11569,1,0,0:0:0:0:
112,189,11918,1,0,0:0:0:0:
133,84,12197,1,0,0:0:0:0:
262,51,12685,1,0,0:0:0:0:
281,57,12825,1,0,0:0:0:0:
389,186,13174,1,0,0:0:0:0:
256,307,13453,1,0,0:0:0:0:
112,189,13941,1,0,0:0:0:0:
119,164,14081,1,0,0:0:0:0:
262,51,14429,1,0,0:0:0:0:
389,186,14708,1,0,0:0:0:0:
256,307,15197,1,0,0:0:0:0:
236,297,15336,1,0,0:0:0:0:
112,189,15685,1,0,0:0:0:0:
133,84,15964,1,0,0:0:0:0:
262,51,16383,1,0,0:0:0:0:
281,57,16522,1,0,0:0:0:0:
389,186,16871,1,0,0:0:0:0:
256,307,17150,1,0,0:0:0:0:
116,294,17778,1,0,0:0:0:0:
255,27,18127,1,0,0:0:0:0:
396,294,18406,1,0,0:0:0:0:
116,90,19104,1,0,0:0:0:0:
396,90,19453,1,0,0:0:0:0:
255,357,19732,1,0,0:0:0:0:
196,111,20360,2,0,P|255:34|313:112,1,225
396,294,21615,1,0,0:0:0:0:
255,27,21964,1,0,0:0:0:0:
116,294,22243,1,0,0:0:0:0:
396,90,22871,1,0,0:0:0:0:
116,90,23220,1,0,0:0:0:0:
255,357,23499,1,0,0:0:0:0:
196,111,24127,2,0,P|255:34|313:112,1,225
32,190,25383,1,0,0:0:0:0:
255,192,25732,1,0,0:0:0:0:
480,190,26011,1,0,0:0:0:0:
7,192,27825,2,0,P|236:192|234:192,1,225
389,186,28941,1,0,0:0:0:0:
383,203,29081,1,0,0:0:0:0:
256,307,29429,1,0,0:0:0:0:
112,189,29708,1,0,0:0:0:0:
262,51,30336,1,0,0:0:0:0:
389,186,30685,1,0,0:0:0:0:
256,307,30964,1,0,0:0:0:0:
112,189,31453,1,0,0:0:0:0:
119,164,31592,1,0,0:0:0:0:
262,51,31941,1,0,0:0:0:0:
389,186,32220,1,0,0:0:0:0:
30,23,32848,1,0,0:0:0:0:
89,282,33127,1,0,0:0:0:0:
145,23,33476,1,0,0:0:0:0:
208,285,34034,1,0,0:0:0:0:
256,24,34383,1,0,0:0:0:0:
304,285,34732,1,0,0:0:0:0:
367,23,35360,1,0,0:0:0:0:
423,282,35639,1,0,0:0:0:0:
482,23,35987,1,0,0:0:0:0:
96,192,54267,5,0,0:0:0:0:
256,192,54755,1,0,0:0:0:0:
256,176,54825,1,0,0:0:0:0:
256,32,55174,1,0,0:0:0:0:
416,192,55453,1,0,0:0:0:0:
256,192,55871,1,0,0:0:0:0:
240,192,55941,1,0,0:0:0:0:
96,192,56290,1,0,0:0:0:0:
168,32,56569,2,0,L|320:168,1,200
317,218,57685,2,0,L|160:360,1,200
96,192,58801,1,0,0:0:0:0:
256,192,59220,1,0,0:0:0:0:
256,176,59290,1,0,0:0:0:0:
256,32,59639,1,0,0:0:0:0:
416,192,59918,1,0,0:0:0:0:
256,192,60336,1,0,0:0:0:0:
240,192,60406,1,0,0:0:0:0:
56,192,60755,1,0,0:0:0:0:
136,80,61034,1,0,0:0:0:0:
192,304,61313,1,0,0:0:0:0:
256,80,61592,1,0,0:0:0:0:
320,304,61871,1,0,0:0:0:0:
376,80,62150,1,0,0:0:0:0:
456,192,62429,1,0,0:0:0:0:
256,192,62708,1,0,0:0:0:0:
64,56,63267,1,0,0:0:0:0:
120,96,63755,1,0,0:0:0:0:
120,96,63825,1,0,0:0:0:0:
192,136,64104,1,0,0:0:0:0:
256,184,64383,1,0,0:0:0:0:
312,232,64871,1,0,0:0:0:0:
312,232,64941,1,0,0:0:0:0:
384,296,65220,1,0,0:0:0:0:
272,320,65499,2,0,L|136:320,1,125
144,240,66127,2,0,L|286:240,1,125
269,144,66615,2,0,L|144:144,1,125
384,296,67732,1,0,0:0:0:0:
312,232,68220,1,0,0:0:0:0:
312,232,68290,1,0,0:0:0:0:
256,184,68569,1,0,0:0:0:0:
192,136,68848,1,0,0:0:0:0:
120,96,69336,1,0,0:0:0:0:
120,96,69406,1,0,0:0:0:0:
64,56,69685,1,0,0:0:0:0:
160,96,72267,5,0,0:0:0:0:
352,96,72685,1,0,0:0:0:0:
352,96,72755,1,0,0:0:0:0:
440,192,73034,1,0,0:0:0:0:
255,193,73313,1,0,0:0:0:0:
160,96,73801,1,0,0:0:0:0:
160,96,73871,1,0,0:0:0:0:
440,192,74150,1,0,0:0:0:0:
296,344,74429,2,0,L|217:343,1,75
224,280,74708,2,0,L|303:281,1,75
298,104,75615,2,0,L|202:104,1,75
216,40,75894,2,0,L|312:40,1,75
320,128,76732,1,0,0:0:0:0:
192,256,77150,1,0,0:0:0:0:
192,256,77290,1,0,0:0:0:0:
192,128,77569,1,0,0:0:0:0:
320,256,77848,1,0,0:0:0:0:
320,128,78267,1,0,0:0:0:0:
320,128,78406,1,0,0:0:0:0:
200,56,78685,2,0,B|376:56|376:56|376:344|320:376|264:376|208:336|192:288|200:256,1,625
192,256,81197,1,0,0:0:0:0:
320,128,81615,1,0,0:0:0:0:
320,128,81755,1,0,0:0:0:0:
320,256,82034,1,0,0:0:0:0:
192,128,82313,1,0,0:0:0:0:
192,256,82732,1,0,0:0:0:0:
192,256,82871,1,0,0:0:0:0:
320,256,83150,1,0,0:0:0:0:
256,320,83429,2,0,B|256:160|256:160|360:160|360:160|248:128|248:128|248:32|248:32|440:32,1,650
424,72,85662,1,0,0:0:0:0:
424,312,86150,1,0,0:0:0:0:
424,312,86290,1,0,0:0:0:0:
344,72,86569,1,0,0:0:0:0:
344,312,86778,1,0,0:0:0:0:
256,72,87267,1,0,0:0:0:0:
256,72,87406,1,0,0:0:0:0:
256,312,87685,1,0,0:0:0:0:
168,72,87964,1,0,0:0:0:0:
168,312,88243,1,0,0:0:0:0:
88,72,88522,1,0,0:0:0:0:
88,312,88801,1,0,0:0:0:0:
16,80,89081,1,0,0:0:0:0:
168,312,89360,1,0,0:0:0:0:
168,72,89639,1,0,0:0:0:0:
256,192,90197,1,0,0:0:0:0:
32,192,108127,5,0,0:0:0:0:
88,152,108615,1,0,0:0:0:0:
88,152,108685,1,0,0:0:0:0:
152,120,108964,1,0,0:0:0:0:
208,152,109104,1,0,0:0:0:0:
256,192,109383,1,0,0:0:0:0:
304,232,109732,1,0,0:0:0:0:
304,232,109801,1,0,0:0:0:0:
360,264,110081,1,0,0:0:0:0:
432,200,110360,2,0,L|255:29,1,225
248,24,111057,2,0,P|128:32|80:96,1,200
88,128,111685,2,0,L|256:292,1,225
480,192,112592,1,0,0:0:0:0:
424,152,113081,1,0,0:0:0:0:
424,152,113150,1,0,0:0:0:0:
360,120,113429,1,0,0:0:0:0:
304,152,113639,1,0,0:0:0:0:
256,192,113918,1,0,0:0:0:0:
208,232,114197,1,0,0:0:0:0:
208,232,114267,1,0,0:0:0:0:
152,264,114546,1,0,0:0:0:0:
88,232,114825,1,0,0:0:0:0:
104,192,117057,1,0,0:0:0:0:
408,192,117615,1,0,0:0:0:0:
408,192,117685,1,0,0:0:0:0:
256,40,117964,1,0,0:0:0:0:
256,344,118104,1,0,0:0:0:0:
104,192,118732,1,0,0:0:0:0:
104,192,118801,1,0,0:0:0:0:
408,192,119081,1,0,0:0:0:0:
256,40,119360,2,0,L|256:288,1,225
104,192,121592,1,0,0:0:0:0:
408,192,122081,1,0,0:0:0:0:
408,192,122150,1,0,0:0:0:0:
256,40,122429,1,0,0:0:0:0:
256,344,122639,1,0,0:0:0:0:
104,192,122918,1,0,0:0:0:0:
408,192,123197,1,0,0:0:0:0:
408,192,123267,1,0,0:0:0:0:
256,192,123546,2,0,B|248:224|224:240|200:232|184:200|176:168|176:136|184:128|208:128|224:120|288:128|320:144|336:168|344:200|344:232|328:264|288:296|240:296|216:304|184:296|152:272|128:248|120:216|120:176|128:152|152:120,1,600
