osu file format v14

[General]
AudioFilename: audio.mp3
AudioLeadIn: 0
PreviewTime: -1
Countdown: 1
SampleSet: Normal
StackLeniency: 0.7
Mode: 0
LetterboxInBreaks: 0
WidescreenStoryboard: 0

[Editor]
DistanceSpacing: 1.1
BeatDivisor: 2
GridSize: 8
TimelineZoom: 1

[Metadata]
Title:Xenogenesis
TitleUnicode:Xenogenesis
Artist:TheFatRat
ArtistUnicode:TheFatRat
Creator:CleanlyWolf
Version:Normal
Source:Xenogenesis
Tags:
BeatmapID:1729378
BeatmapSetID:825320

[Difficulty]
HPDrainRate:5
CircleSize:5
OverallDifficulty:5
ApproachRate:5
SliderMultiplier:1.4
SliderTickRate:1

[Events]
//Background and Video events
//Break Periods
2,34729,45743
//Storyboard Layer 0 (Background)
//Storyboard Layer 1 (Fail)
//Storyboard Layer 2 (Pass)
//Storyboard Layer 3 (Foreground)
//Storyboard Sound Samples

[TimingPoints]
8047,413.793103448276,4,1,0,100,1,0

[HitObjects]
256,192,4736,12,0,8046,0:0:0:0:
204,157,9702,5,0,0:0:0:0:
301,238,11357,1,0,0:0:0:0:
392,155,13012,2,0,L|101:99,2,280
413,117,16322,1,0,0:0:0:0:
343,198,17978,5,0,0:0:0:0:
277,124,19633,2,0,P|159:31|111:108,2,280
129,212,22943,1,0,0:0:0:0:
256,238,24598,1,0,0:0:0:0:
184,245,26253,6,0,P|56:158|107:74,2,280
296,214,29564,1,0,0:0:0:0:
312,199,31219,1,0,0:0:0:0:
256,191,32874,2,0,P|106:167|174:110,2,280
256,192,46943,12,0,57702,0:0:0:0:
297,149,58115,5,0,0:0:0:0:
297,149,58322,1,0,0:0:0:0:
297,149,58529,1,0,0:0:0:0:
297,149,58736,1,0,0:0:0:0:
297,149,58943,1,0,0:0:0:0:
297,149,59150,1,0,0:0:0:0:
297,149,59357,1,0,0:0:0:0:
297,149,59564,1,0,0:0:0:0:
297,149,59771,1,0,0:0:0:0:
297,149,59978,1,0,0:0:0:0:
297,149,60184,1,0,0:0:0:0:
297,149,60391,1,0,0:0:0:0:
297,149,60598,1,0,0:0:0:0:
297,149,60805,1,0,0:0:0:0:
297,149,61012,6,0,P|95:63|81:266,1,490
308,263,63081,2,0,P|91:83|77:71,2,280
225,167,66391,1,0,0:0:0:0:
326,229,66805,1,0,0:0:0:0:
281,207,67633,6,0,P|-7:121|8:96,1,490
0,136,69702,1,0,0:0:0:0:
81,86,70115,1,0,0:0:0:0:
156,84,70943,2,0,B|446:170|208:327|86:186|71:176,1,420
68,111,72598,5,0,0:0:0:0:
255,192,73426,1,0,0:0:0:0:
306,241,74253,2,0,P|525:280|448:122,1,490
464,93,76322,1,0,0:0:0:0:
297,148,76736,5,0,0:0:0:0:
180,100,77564,2,0,P|-54:32|-52:227,1,490
91,242,79633,1,0,0:0:0:0:
261,209,80047,1,0,0:0:0:0:
246,184,80874,6,0,P|62:49|-5:233,1,490
62,243,82943,1,0,0:0:0:0:
113,259,83357,1,0,0:0:0:0:
206,246,83771,1,0,0:0:0:0:
289,242,84184,6,0,B|524:103|437:63|438:64|240:57,1,420
221,137,87495,2,0,B|154:87|56:228|-43:49|-79:159|-76:153,1,280
16,235,89150,2,0,B|117:122|180:259|284:137|375:134|355:283|358:276,1,350
335,246,90598,1,0,0:0:0:0:
420,186,90805,6,0,B|297:46|151:184|167:176,1,280
85,192,91840,1,0,0:0:0:0:
53,161,92047,1,0,0:0:0:0:
182,253,92460,2,0,B|393:186|345:258|259:149|269:159,1,210
203,166,93702,5,0,0:0:0:0:
116,147,94115,2,0,B|-29:161|138:191|281:204|152:89,1,280
204,68,95771,2,0,B|397:156|151:77|83:49|66:48,1,280
64,106,97426,2,0,B|318:259|-25:149|-41:134,1,280
28,163,99081,5,0,0:0:0:0:
126,115,99495,1,0,0:0:0:0:
209,210,99909,1,0,0:0:0:0:
178,132,100736,2,0,B|453:186|106:184|106:175,1,280
15,187,102391,6,0,B|243:126|251:237|254:233,1,210
281,239,103633,1,0,0:0:0:0:
372,237,104047,2,0,P|345:81|245:168,1,350
214,162,105702,2,0,P|56:88|123:73,1,490
121,71,107357,5,0,0:0:0:0:
175,132,108805,1,0,0:0:0:0:
208,138,109012,2,0,P|425:193|209:267,1,560
178,133,113150,1,0,0:0:0:0:
290,137,113564,5,0,0:0:0:0:
428,136,113978,2,0,P|385:324|242:219,1,420
178,172,116047,1,0,0:0:0:0:
273,104,116460,1,0,0:0:0:0:
366,208,116874,5,0,0:0:0:0:
245,254,117288,2,0,P|32:149|200:98,1,560
243,102,119357,1,0,0:0:0:0:
260,120,119564,1,0,0:0:0:0:
315,184,119771,5,0,0:0:0:0:
341,258,120391,2,0,P|63:250|186:86,1,560
192,91,122667,1,0,0:0:0:0:
211,109,122874,1,0,0:0:0:0:
223,168,123081,5,0,0:0:0:0:
194,184,123495,1,0,0:0:0:0:
156,192,123909,2,0,P|15:120|129:118,1,420
123,96,125564,2,0,P|326:167|337:171,1,210
318,163,126391,5,0,0:0:0:0:
259,185,127219,2,0,P|47:84|186:240,1,630
216,260,129288,1,0,0:0:0:0:
253,268,129495,1,0,0:0:0:0:
367,224,129702,5,0,0:0:0:0:
304,250,130115,1,0,0:0:0:0:
220,232,130529,2,0,P|11:115|132:89,1,560
164,111,132598,1,0,0:0:0:0:
198,125,132805,5,0,0:0:0:0:
298,123,133012,1,0,0:0:0:0:
339,123,133426,1,0,0:0:0:0:
344,218,133840,2,0,B|-12:192|9:187,2,280
93,137,135909,5,0,0:0:0:0:
122,138,136115,1,0,0:0:0:0:
188,133,136322,1,0,0:0:0:0:
246,134,136736,1,0,0:0:0:0:
298,147,137150,6,0,P|509:168|266:248,1,700
230,167,140460,1,0,0:0:0:0:
303,204,142115,1,0,0:0:0:0:
187,185,143771,1,0,0:0:0:0:
316,204,145426,5,0,0:0:0:0:
241,118,147081,1,0,0:0:0:0:
221,243,148736,1,0,0:0:0:0:
347,189,150391,1,0,0:0:0:0:
244,137,152047,5,0,0:0:0:0:
213,200,152874,1,0,0:0:0:0:
307,237,153702,1,0,0:0:0:0:
360,162,154529,1,0,0:0:0:0:
257,110,155357,5,0,0:0:0:0:
328,205,156184,1,0,0:0:0:0:
222,257,157012,1,0,0:0:0:0:
160,170,157840,1,0,0:0:0:0:
198,254,158667,5,0,0:0:0:0:
304,191,159495,1,0,0:0:0:0:
225,100,160322,1,0,0:0:0:0:
143,140,161150,1,0,0:0:0:0:
251,87,161978,5,0,0:0:0:0:
216,222,162805,1,0,0:0:0:0:
143,140,163633,1,0,0:0:0:0:
292,174,164460,1,0,0:0:0:0:
189,231,165288,5,0,0:0:0:0:
239,124,166115,1,0,0:0:0:0:
171,240,166943,1,0,0:0:0:0:
325,227,168598,1,0,0:0:0:0:
256,192,173564,12,0,180391,0:0:0:0:
359,167,181840,5,0,0:0:0:0:
247,166,183495,1,0,0:0:0:0:
363,216,185150,1,0,0:0:0:0:
252,259,186805,1,0,0:0:0:0:
358,176,188460,5,0,0:0:0:0:
183,219,190115,5,0,0:0:0:0:
196,219,190322,1,0,0:0:0:0:
204,219,190529,1,0,0:0:0:0:
212,220,190736,1,0,0:0:0:0:
221,221,190943,1,0,0:0:0:0:
230,221,191150,1,0,0:0:0:0:
240,221,191357,1,0,0:0:0:0:
251,222,191564,1,0,0:0:0:0:
263,222,191771,1,0,0:0:0:0:
275,220,191978,1,0,0:0:0:0:
287,221,192184,1,0,0:0:0:0:
302,219,192391,1,0,0:0:0:0:
324,212,193426,6,0,P|543:125|419:79,1,560
393,147,195909,1,0,0:0:0:0:
285,130,196736,2,0,B|-7:84|-1:84,2,280
334,177,199219,1,0,0:0:0:0:
397,192,200047,6,0,L|93:111,2,280
326,166,202529,1,0,0:0:0:0:
251,197,203357,2,0,P|522:121|495:89,1,560
418,90,205426,1,0,0:0:0:0:
323,121,205840,5,0,0:0:0:0:
239,103,206667,2,0,L|-45:99,2,280
307,114,209150,1,0,0:0:0:0:
339,171,209978,2,0,L|582:314,2,280
296,163,212253,5,0,0:0:0:0:
259,147,212460,1,0,0:0:0:0:
157,125,212874,1,0,0:0:0:0:
214,141,213288,2,0,P|499:238|486:108,1,560
283,118,215771,5,0,0:0:0:0:
240,123,216598,2,0,L|-40:87,2,280
287,132,219081,1,0,0:0:0:0:
273,168,219909,6,0,L|558:103,2,280
256,192,225495,12,4,229840,0:0:0:0:
