osu file format v14

[General]
AudioFilename: TheFatRat - Windfall.mp3
AudioLeadIn: 0
PreviewTime: 18947
Countdown: 1
SampleSet: Normal
StackLeniency: 0.7
Mode: 0
LetterboxInBreaks: 1
WidescreenStoryboard: 1

[Editor]
Bookmarks: 6595,17478,18948,21301,22772,26007,27478,31889,46300,51889,54242,56595,71595,73065,82477,94242,103653,107477,110124,112477,114830,117183,119536,122477,150712,157771,160565,182477,200124,200565,204830,206889,209536,211889,216595,221300
DistanceSpacing: 1
BeatDivisor: 2
GridSize: 4
TimelineZoom: 1.8

[Metadata]
Title:Windfall
TitleUnicode:Windfall
Artist:TheFatRat
ArtistUnicode:TheFatRat
Creator:lordesoth
Version:Light Hard
Source:
Tags:glitch hop
BeatmapID:766913
BeatmapSetID:342773

[Difficulty]
HPDrainRate:5
CircleSize:3.5
OverallDifficulty:6
ApproachRate:8
SliderMultiplier:1.09999990463257
SliderTickRate:1

[Events]
//Background and Video events
0,0,"Konachan.com - 198066 blue_eyes blue_hair bouno_satoshi flowers original tears.jpg",0,0
//Break Periods
2,94442,102903
//Storyboard Layer 0 (Background)
//Storyboard Layer 1 (Fail)
//Storyboard Layer 2 (Pass)
//Storyboard Layer 3 (Foreground)
//Storyboard Sound Samples

[TimingPoints]
6595,294.117647058824,4,1,0,100,1,0
22771,-83.3333333333333,4,1,0,100,0,0
23947,-100,4,1,0,100,0,0
26006,-83.3333333333333,4,1,0,100,0,0
28653,-100,4,1,0,100,0,0
32183,-83.3333333333333,4,1,0,100,0,0
33359,-100,4,1,0,100,0,0
36889,-83.3333333333333,4,1,0,100,0,0
38065,-100,4,1,0,100,0,0
41595,-83.3333333333333,4,1,0,100,0,0
42771,-100,4,1,0,100,0,0
46300,-83.3333333333333,4,1,0,100,0,0
47477,-76.9230769230769,4,1,0,100,0,0
55712,-83.3333333333333,4,1,0,100,0,0
56595,-100,4,1,0,100,0,0
74536,-83.3333333333333,4,1,0,100,0,0
75418,-100,4,1,0,100,0,1
83947,-83.3333333333333,4,1,0,100,0,1
85124,-100,4,1,0,100,0,1
94242,-100,4,1,0,100,0,0
103653,-125,4,1,0,100,0,0
122477,-100,4,1,0,100,0,0
126300,-83.3333333333333,4,1,0,100,0,0
135712,-90.9090909090909,4,1,0,100,0,0
140418,-83.3333333333333,4,1,0,100,0,0
141595,-90.9090909090909,4,1,0,100,0,0
145124,-83.3333333333333,4,1,0,100,0,0
146300,-90.9090909090909,4,1,0,100,0,0
149830,-83.3333333333333,4,1,0,100,0,0
151006,-76.9230769230769,4,1,0,100,0,0
160124,-100,4,1,0,100,0,0
178065,-83.3333333333333,4,1,0,100,0,0
178947,-100,4,1,0,100,0,1
187477,-83.3333333333333,4,1,0,100,0,1
188653,-100,4,1,0,100,0,1
189536,-76.9230769230769,4,1,0,100,0,1
190124,-100,4,1,0,100,0,1
197771,-90.9090909090909,4,1,0,100,0,0
204830,-125,4,1,0,100,0,0
207183,-90.9090909090909,4,1,0,100,0,0
214242,-125,4,1,0,100,0,0

[HitObjects]
160,116,6594,5,0,0:0:0:0:
192,220,6889,1,0,0:0:0:0:
264,136,7183,1,0,0:0:0:0:
364,180,7477,1,0,0:0:0:0:
376,204,7624,1,0,0:0:0:0:
388,228,7771,1,0,0:0:0:0:
392,256,7918,1,0,0:0:0:0:
384,284,8065,1,0,0:0:0:0:
276,308,8359,5,0,0:0:0:0:
168,288,8653,1,0,0:0:0:0:
152,268,8800,1,0,0:0:0:0:
140,244,8947,1,0,0:0:0:0:
132,216,9095,1,0,0:0:0:0:
132,188,9242,1,0,0:0:0:0:
172,84,9536,5,0,0:0:0:0:
280,100,9830,1,0,0:0:0:0:
304,112,9977,1,0,0:0:0:0:
324,128,10124,1,0,0:0:0:0:
340,148,10271,1,0,0:0:0:0:
356,168,10418,1,0,0:0:0:0:
248,192,10712,5,0,0:0:0:0:
156,216,11006,1,0,0:0:0:0:
172,236,11153,1,0,0:0:0:0:
188,256,11300,1,0,0:0:0:0:
208,272,11447,1,0,0:0:0:0:
232,284,11594,1,0,0:0:0:0:
344,288,11889,5,0,0:0:0:0:
272,204,12183,1,0,0:0:0:0:
256,184,12330,1,0,0:0:0:0:
240,164,12477,1,0,0:0:0:0:
224,144,12624,1,0,0:0:0:0:
208,124,12771,1,0,0:0:0:0:
300,64,13065,5,0,0:0:0:0:
404,104,13359,1,0,0:0:0:0:
420,128,13506,1,0,0:0:0:0:
432,152,13653,1,0,0:0:0:0:
440,180,13800,1,0,0:0:0:0:
440,208,13947,1,0,0:0:0:0:
364,288,14242,5,0,0:0:0:0:
256,296,14536,1,0,0:0:0:0:
228,296,14683,1,0,0:0:0:0:
200,292,14830,1,0,0:0:0:0:
172,284,14977,1,0,0:0:0:0:
148,268,15124,1,0,0:0:0:0:
100,168,15418,5,0,0:0:0:0:
156,72,15712,1,0,0:0:0:0:
180,56,15859,1,0,0:0:0:0:
208,48,16006,1,0,0:0:0:0:
236,44,16153,1,0,0:0:0:0:
264,44,16300,1,0,0:0:0:0:
348,116,16595,5,0,0:0:0:0:
336,224,16889,2,0,P|300:268|264:260,4,54.9999952316285
128,96,18947,5,0,0:0:0:0:
236,76,19242,1,0,0:0:0:0:
264,80,19389,2,0,P|304:100|328:128,1,54.9999952316285
332,128,19683,2,0,P|380:208|380:220,1,54.9999952316285
272,224,20124,5,0,0:0:0:0:
164,228,20418,1,0,0:0:0:0:
136,236,20565,2,0,P|152:296|172:288,1,54.9999952316285
144,304,20859,2,0,P|192:324|232:308,1,54.9999952316285
324,312,21300,5,0,0:0:0:0:
328,180,21595,1,0,0:0:0:0:
236,84,21889,1,0,0:0:0:0:
140,176,22183,1,0,0:0:0:0:
136,308,22477,1,0,0:0:0:0:
256,316,22771,6,0,P|256:276|304:256,1,65.9999922637943
340,268,23065,2,0,P|340:228|292:208,1,65.9999922637943
260,184,23359,1,0,0:0:0:0:
196,172,23506,2,0,P|172:144|224:108,1,65.9999922637943
304,80,23947,5,0,0:0:0:0:
336,92,24095,1,0,0:0:0:0:
364,112,24242,1,0,0:0:0:0:
388,136,24389,1,0,0:0:0:0:
408,160,24536,1,0,0:0:0:0:
284,208,24830,5,0,0:0:0:0:
232,328,25124,5,0,0:0:0:0:
200,316,25272,1,0,0:0:0:0:
172,296,25419,1,0,0:0:0:0:
148,272,25566,1,0,0:0:0:0:
128,248,25713,1,0,0:0:0:0:
96,120,26006,5,0,0:0:0:0:
248,80,26300,1,0,0:0:0:0:
244,240,26595,1,0,0:0:0:0:
172,100,26889,1,0,0:0:0:0:
328,68,27183,1,0,0:0:0:0:
424,156,27477,6,0,P|448:232|436:240,1,65.9999922637943
460,268,27771,2,0,P|404:308|376:296,1,65.9999922637943
356,272,28065,1,0,0:0:0:0:
300,236,28212,2,0,P|224:244|192:280,1,65.9999922637943
108,276,28653,5,0,0:0:0:0:
84,268,28800,2,0,P|52:208|68:180,1,54.9999952316285
48,200,29095,2,0,P|56:156|104:132,1,54.9999952316285
164,188,29536,5,0,0:0:0:0:
232,104,29830,5,0,0:0:0:0:
256,112,29977,2,0,P|288:172|272:200,1,54.9999952316285
292,180,30272,2,0,P|284:224|236:248,1,54.9999952316285
180,316,30712,5,0,0:0:0:0:
312,320,31006,1,0,0:0:0:0:
412,232,31300,1,0,0:0:0:0:
280,212,31595,1,0,0:0:0:0:
376,120,31889,1,0,0:0:0:0:
260,60,32183,6,0,P|216:52|168:88,1,65.9999922637943
232,116,32477,2,0,P|216:136|136:132,1,65.9999922637943
120,180,32771,1,0,0:0:0:0:
76,232,32918,2,0,P|72:272|116:324,1,65.9999922637943
192,304,33359,5,0,0:0:0:0:
216,292,33506,1,0,0:0:0:0:
240,280,33653,1,0,0:0:0:0:
264,268,33800,1,0,0:0:0:0:
288,256,33947,1,0,0:0:0:0:
220,168,34242,5,0,0:0:0:0:
324,132,34536,5,0,0:0:0:0:
348,120,34683,1,0,0:0:0:0:
372,108,34830,1,0,0:0:0:0:
396,96,34977,1,0,0:0:0:0:
420,84,35124,1,0,0:0:0:0:
292,48,35418,5,0,0:0:0:0:
172,100,35712,1,0,0:0:0:0:
268,192,36006,1,0,0:0:0:0:
224,68,36300,1,0,0:0:0:0:
108,132,36595,1,0,0:0:0:0:
96,264,36889,6,0,P|164:312|180:296,1,65.9999922637943
184,284,37183,2,0,P|116:236|100:252,1,65.9999922637943
96,200,37477,2,0,P|52:152|72:116,2,65.9999922637943
204,208,38065,5,0,0:0:0:0:
232,204,38212,2,0,P|276:192|296:144,1,54.9999952316285
300,164,38506,2,0,P|336:136|384:140,1,54.9999952316285
424,212,38947,5,0,0:0:0:0:
408,104,39242,5,0,0:0:0:0:
392,84,39389,2,0,P|360:64|320:76,1,54.9999952316285
324,84,39683,2,0,P|296:96|252:76,1,54.9999952316285
140,88,40124,5,0,0:0:0:0:
56,188,40418,1,0,0:0:0:0:
144,284,40712,1,0,0:0:0:0:
228,180,41006,1,0,0:0:0:0:
292,296,41300,1,0,0:0:0:0:
420,272,41595,6,0,P|444:240|436:192,1,65.9999922637943
380,224,41889,2,0,P|384:184|440:152,1,65.9999922637943
464,160,42183,1,0,0:0:0:0:
440,100,42330,2,0,P|400:80|368:80,1,65.9999922637943
248,64,42771,5,0,0:0:0:0:
248,96,42918,1,0,0:0:0:0:
248,128,43065,1,0,0:0:0:0:
248,160,43212,1,0,0:0:0:0:
248,192,43359,1,0,0:0:0:0:
172,300,43653,5,0,0:0:0:0:
100,188,43947,5,0,0:0:0:0:
100,156,44094,1,0,0:0:0:0:
100,124,44241,1,0,0:0:0:0:
100,92,44388,1,0,0:0:0:0:
100,60,44535,1,0,0:0:0:0:
260,52,44830,5,0,0:0:0:0:
256,212,45124,1,0,0:0:0:0:
364,328,45418,1,0,0:0:0:0:
468,208,45712,1,0,0:0:0:0:
468,48,46006,1,0,0:0:0:0:
376,144,46300,6,0,L|292:144,1,65.9999922637943
244,144,46595,2,0,L|160:144,1,65.9999922637943
112,144,46889,2,0,L|28:144,2,65.9999922637943
168,276,47477,5,0,0:0:0:0:
240,280,47624,2,0,P|232:348|216:348,2,71.4999905281072
208,216,48065,1,0,0:0:0:0:
264,84,48359,5,0,0:0:0:0:
120,92,48653,5,0,0:0:0:0:
116,164,48800,2,0,P|48:156|48:140,2,71.4999905281072
180,132,49241,1,0,0:0:0:0:
256,252,49536,5,0,0:0:0:0:
384,188,49830,5,0,0:0:0:0:
312,184,49977,2,0,P|320:116|336:116,2,71.4999905281072
344,248,50418,1,0,0:0:0:0:
244,148,50712,5,0,0:0:0:0:
100,148,51006,5,0,0:0:0:0:
104,76,51153,2,0,P|172:84|172:100,2,71.4999905281072
40,108,51594,1,0,0:0:0:0:
80,244,51889,5,0,0:0:0:0:
220,276,52183,1,0,0:0:0:0:
292,288,52330,1,0,0:0:0:0:
364,284,52477,2,0,P|400:264|408:236,2,71.4999905281072
304,152,53065,5,0,0:0:0:0:
184,72,53359,1,0,0:0:0:0:
256,60,53506,1,0,0:0:0:0:
328,64,53653,2,0,P|364:84|372:112,2,71.4999905281072
188,164,54242,5,0,0:0:0:0:
72,292,54536,1,0,0:0:0:0:
236,336,54830,1,0,0:0:0:0:
140,232,55124,1,0,0:0:0:0:
244,96,55418,1,0,0:0:0:0:
372,124,55712,6,0,P|424:156|420:208,1,65.9999922637943
372,196,56006,2,0,P|424:228|420:280,1,65.9999922637943
368,268,56300,2,0,P|420:300|416:352,1,65.9999922637943
368,324,56595,6,0,P|280:344|228:308,1,109.999990463257
300,236,57183,1,0,0:0:0:0:
240,144,57477,1,0,0:0:0:0:
288,44,57771,2,0,P|188:40|148:72,1,109.999990463257
108,120,58359,1,0,0:0:0:0:
96,228,58653,1,0,0:0:0:0:
184,292,58947,6,0,L|264:292,1,54.9999952316285
240,236,59242,2,0,L|185:236,1,54.9999952316285
184,180,59536,2,0,L|264:180,1,54.9999952316285
240,124,59831,2,0,L|185:124,1,54.9999952316285
132,128,60124,6,0,B|104:80|140:60|192:40|200:56,1,109.999990463257
288,52,60712,1,0,0:0:0:0:
380,112,61006,1,0,0:0:0:0:
444,204,61300,2,0,P|420:280|356:296,1,109.999990463257
340,200,61889,1,0,0:0:0:0:
248,140,62183,1,0,0:0:0:0:
300,44,62477,2,0,P|232:28|188:48,1,109.999990463257
112,116,63065,1,0,0:0:0:0:
76,220,63359,1,0,0:0:0:0:
160,292,63653,6,0,L|160:232,1,54.9999952316285
216,236,63947,2,0,L|216:291,1,54.9999952316285
272,288,64242,2,0,L|272:228,1,54.9999952316285
328,232,64536,2,0,L|328:287,1,54.9999952316285
380,272,64830,5,0,0:0:0:0:
436,176,65124,1,0,0:0:0:0:
432,148,65271,1,0,0:0:0:0:
420,124,65418,1,0,0:0:0:0:
404,104,65565,1,0,0:0:0:0:
384,88,65712,1,0,0:0:0:0:
276,64,66006,6,0,P|212:52|144:112,1,109.999990463257
228,164,66595,1,0,0:0:0:0:
120,176,66889,1,0,0:0:0:0:
172,272,67183,2,0,P|232:316|308:296,1,109.999990463257
372,284,67771,1,0,0:0:0:0:
464,344,68065,1,0,0:0:0:0:
460,236,68359,6,0,L|460:136,1,54.9999952316285
420,140,68653,2,0,L|360:68,1,54.9999952316285
328,100,68947,2,0,L|256:100,1,54.9999952316285
236,140,69242,2,0,L|172:212,1,54.9999952316285
244,212,69536,6,0,B|208:260|184:244|144:240|140:212,1,109.999990463257
60,292,70124,1,0,0:0:0:0:
164,324,70418,1,0,0:0:0:0:
272,332,70712,2,0,P|352:324|388:288,1,109.999990463257
436,216,71300,1,0,0:0:0:0:
344,152,71595,1,0,0:0:0:0:
444,112,71889,2,0,P|400:56|360:44,1,109.999990463257
256,44,72477,1,0,0:0:0:0:
156,88,72771,1,0,0:0:0:0:
160,220,73065,5,0,0:0:0:0:
248,316,73359,1,0,0:0:0:0:
320,208,73653,1,0,0:0:0:0:
204,268,73947,1,0,0:0:0:0:
336,292,74242,1,0,0:0:0:0:
448,224,74536,6,0,P|472:172|448:132,1,65.9999922637943
456,100,74830,2,0,P|400:64|356:72,1,65.9999922637943
396,132,75124,1,0,0:0:0:0:
340,100,75271,1,0,0:0:0:0:
292,72,75418,5,0,0:0:0:0:
184,72,75712,5,0,0:0:0:0:
160,88,75859,1,0,0:0:0:0:
140,108,76006,1,0,0:0:0:0:
120,128,76153,1,0,0:0:0:0:
108,152,76300,1,0,0:0:0:0:
216,172,76595,5,0,0:0:0:0:
268,76,76889,5,0,0:0:0:0:
292,92,77036,1,0,0:0:0:0:
312,112,77183,1,0,0:0:0:0:
332,132,77330,1,0,0:0:0:0:
344,156,77477,1,0,0:0:0:0:
344,264,77771,5,0,0:0:0:0:
236,268,78065,2,0,L|132:268,1,54.9999952316285
180,324,78359,1,0,0:0:0:0:
288,320,78653,2,0,L|343:320,1,54.9999952316285
396,320,78947,1,0,0:0:0:0:
440,220,79242,6,0,P|448:160|416:136,1,54.9999952316285
424,120,79536,2,0,P|372:96|332:120,1,54.9999952316285
324,84,79830,2,0,P|284:80|224:92,2,54.9999952316285
256,172,80418,5,0,0:0:0:0:
248,200,80565,1,0,0:0:0:0:
228,220,80712,1,0,0:0:0:0:
204,236,80859,1,0,0:0:0:0:
180,248,81006,1,0,0:0:0:0:
148,144,81300,5,0,0:0:0:0:
40,120,81595,5,0,0:0:0:0:
48,92,81742,1,0,0:0:0:0:
68,72,81889,1,0,0:0:0:0:
92,56,82036,1,0,0:0:0:0:
116,44,82183,1,0,0:0:0:0:
248,52,82477,5,0,0:0:0:0:
328,156,82771,2,0,L|368:212,1,54.9999952316285
300,232,83065,1,0,0:0:0:0:
176,284,83359,2,0,P|120:268|128:240,1,54.9999952316285
104,220,83653,1,0,0:0:0:0:
96,88,83947,6,0,P|164:64|200:84,1,65.9999922637943
220,60,84242,2,0,P|288:96|304:128,1,65.9999922637943
232,132,84536,2,0,P|260:196|280:200,2,65.9999922637943
336,92,85124,5,0,0:0:0:0:
352,112,85271,1,0,0:0:0:0:
368,132,85418,1,0,0:0:0:0:
380,156,85565,1,0,0:0:0:0:
392,180,85712,1,0,0:0:0:0:
356,284,86006,5,0,0:0:0:0:
248,260,86300,5,0,0:0:0:0:
232,240,86447,1,0,0:0:0:0:
216,220,86594,1,0,0:0:0:0:
204,196,86741,1,0,0:0:0:0:
192,172,86888,1,0,0:0:0:0:
252,80,87183,5,0,0:0:0:0:
360,104,87477,6,0,P|404:144|416:188,1,54.9999952316285
428,188,87771,2,0,P|428:248|408:272,1,54.9999952316285
408,292,88065,1,0,0:0:0:0:
300,308,88359,5,0,0:0:0:0:
192,312,88653,2,0,P|152:264|156:228,1,54.9999952316285
136,224,88947,2,0,P|136:172|156:152,1,54.9999952316285
144,116,89242,2,0,P|88:124|96:152,2,54.9999952316285
256,68,89830,5,0,0:0:0:0:
280,80,89977,1,0,0:0:0:0:
300,96,90124,1,0,0:0:0:0:
316,120,90271,1,0,0:0:0:0:
332,144,90418,1,0,0:0:0:0:
340,252,90712,5,0,0:0:0:0:
236,288,91006,6,0,P|176:304|148:288,1,54.9999952316285
160,296,91300,1,0,0:0:0:0:
136,280,91447,1,0,0:0:0:0:
116,260,91595,1,0,0:0:0:0:
128,140,91889,6,0,L|128:76,1,54.9999952316285
188,72,92183,1,0,0:0:0:0:
308,68,92477,2,0,L|384:68,1,54.9999952316285
396,120,92771,1,0,0:0:0:0:
392,240,93065,1,0,0:0:0:0:
284,296,93359,6,0,P|240:312|204:288,1,54.9999952316285
180,304,93653,2,0,P|148:284|132:244,1,54.9999952316285
108,224,93947,1,0,0:0:0:0:
116,112,94242,1,0,0:0:0:0:
116,112,103653,6,0,B|192:92|144:168|104:192|184:232|232:152,1,175.999984741211
308,132,104536,2,0,B|384:112|336:188|296:212|376:252|424:172,1,175.999984741211
452,292,105418,1,0,0:0:0:0:
352,332,105712,1,0,0:0:0:0:
256,284,106006,1,0,0:0:0:0:
156,320,106300,2,0,B|96:304|164:284|120:240,1,87.9999923706056
92,152,106889,2,0,B|112:84|124:96|256:100,1,175.999984741211
332,144,107771,5,0,0:0:0:0:
360,244,108065,1,0,0:0:0:0:
260,216,108359,2,0,B|192:240|200:276|248:352|312:332,1,175.999984741211
364,264,109242,2,0,B|424:224|400:208|468:204|464:160|432:108,1,175.999984741211
344,88,110124,1,0,0:0:0:0:
240,76,110418,1,0,0:0:0:0:
164,148,110712,1,0,0:0:0:0:
84,220,111006,2,0,P|80:276|124:296,1,87.9999923706056
204,316,111595,2,0,B|276:320|256:260|352:332|396:264,1,175.999984741211
424,192,112477,5,0,0:0:0:0:
320,188,112771,1,0,0:0:0:0:
392,108,113065,2,0,B|392:56|352:80|320:112|232:100,1,175.999984741211
136,116,113947,2,0,B|80:84|60:120|32:152|36:196|100:216,1,175.999984741211
164,268,114830,1,0,0:0:0:0:
248,328,115124,1,0,0:0:0:0:
328,260,115418,1,0,0:0:0:0:
416,316,115712,2,0,P|440:272|428:232,1,87.9999923706056
376,148,116300,2,0,B|428:112|472:136|472:80|420:64|376:68|368:72,1,175.999984741211
268,80,117183,5,0,0:0:0:0:
172,128,117477,1,0,0:0:0:0:
124,32,117771,2,0,B|52:60|36:140|80:192|80:196,1,175.999984741211
152,244,118653,2,0,P|240:300|320:296,1,175.999984741211
416,288,119536,1,0,0:0:0:0:
464,192,119830,1,0,0:0:0:0:
360,204,120124,1,0,0:0:0:0:
300,288,120418,2,0,P|248:320|200:312,1,87.9999923706056
120,300,121006,2,0,B|88:252|96:220|160:236|112:124|60:56|196:40|288:40,1,351.999969482422
300,140,122477,5,0,0:0:0:0:
388,208,122771,2,0,P|392:276|384:280,1,54.9999952316285
400,280,123065,1,0,0:0:0:0:
388,304,123212,1,0,0:0:0:0:
364,320,123359,1,0,0:0:0:0:
256,324,123653,5,0,0:0:0:0:
152,292,123947,2,0,P|120:248|136:224,1,54.9999952316285
124,228,124242,1,0,0:0:0:0:
132,204,124389,1,0,0:0:0:0:
144,180,124536,1,0,0:0:0:0:
244,92,124830,5,0,0:0:0:0:
376,92,125124,1,0,0:0:0:0:
376,224,125418,1,0,0:0:0:0:
244,224,125712,1,0,0:0:0:0:
148,312,126006,1,0,0:0:0:0:
56,184,126300,6,0,P|112:140|136:144,1,65.9999922637943
164,120,126595,2,0,P|240:116|264:148,1,65.9999922637943
288,132,126889,2,0,P|352:120|368:96,2,65.9999922637943
364,240,127477,5,0,0:0:0:0:
348,268,127624,1,0,0:0:0:0:
324,292,127771,1,0,0:0:0:0:
296,308,127918,1,0,0:0:0:0:
264,320,128065,1,0,0:0:0:0:
248,188,128359,5,0,0:0:0:0:
124,144,128653,5,0,0:0:0:0:
140,116,128800,1,0,0:0:0:0:
164,92,128947,1,0,0:0:0:0:
192,76,129094,1,0,0:0:0:0:
224,64,129241,1,0,0:0:0:0:
376,116,129536,5,0,0:0:0:0:
448,256,129830,1,0,0:0:0:0:
308,328,130124,1,0,0:0:0:0:
232,188,130418,1,0,0:0:0:0:
160,328,130712,1,0,0:0:0:0:
80,224,131006,6,0,P|68:156|108:128,1,65.9999922637943
80,100,131300,2,0,P|136:72|168:80,1,65.9999922637943
204,60,131595,1,0,0:0:0:0:
268,68,131742,2,0,P|328:104|336:144,1,65.9999922637943
248,208,132183,5,0,0:0:0:0:
236,272,132330,2,0,P|288:312|304:300,1,65.9999922637943
340,316,132624,1,0,0:0:0:0:
404,308,132771,1,0,0:0:0:0:
416,176,133065,5,0,0:0:0:0:
336,72,133359,5,0,0:0:0:0:
304,72,133506,2,0,P|256:72|232:104,1,65.9999922637943
216,100,133800,1,0,0:0:0:0:
188,120,133947,1,0,0:0:0:0:
100,252,134242,5,0,0:0:0:0:
232,340,134536,1,0,0:0:0:0:
336,220,134830,1,0,0:0:0:0:
444,336,135124,1,0,0:0:0:0:
476,180,135418,1,0,0:0:0:0:
396,60,135712,6,0,P|336:52|292:64,1,60.4999966011047
276,60,136006,2,0,P|212:84|180:108,1,60.4999966011047
164,104,136300,2,0,P|112:72|128:48,2,60.4999966011047
100,208,136889,5,0,0:0:0:0:
108,236,137036,1,0,0:0:0:0:
120,264,137183,1,0,0:0:0:0:
136,292,137330,1,0,0:0:0:0:
156,316,137477,1,0,0:0:0:0:
272,344,137771,5,0,0:0:0:0:
376,280,138065,5,0,0:0:0:0:
368,252,138212,1,0,0:0:0:0:
356,224,138359,1,0,0:0:0:0:
340,196,138506,1,0,0:0:0:0:
320,172,138653,1,0,0:0:0:0:
244,48,138947,5,0,0:0:0:0:
188,184,139242,1,0,0:0:0:0:
104,64,139536,1,0,0:0:0:0:
236,128,139830,1,0,0:0:0:0:
360,200,140124,1,0,0:0:0:0:
272,296,140418,6,0,P|220:324|192:316,1,65.9999922637943
148,324,140712,2,0,P|100:284|104:252,1,65.9999922637943
84,220,141006,2,0,P|104:184|144:176,2,65.9999922637943
204,212,141595,5,0,0:0:0:0:
208,168,141742,2,0,P|280:136|288:148,1,60.4999966011047
280,108,142036,2,0,P|340:120|340:156,1,60.4999966011047
420,196,142477,5,0,0:0:0:0:
372,308,142771,5,0,0:0:0:0:
334,331,142918,2,0,P|265:292|269:279,1,60.4999966011047
243,309,143212,2,0,P|216:253|245:232,1,60.4999966011047
316,160,143653,5,0,0:0:0:0:
204,44,143947,1,0,0:0:0:0:
108,152,144242,1,0,0:0:0:0:
208,260,144536,1,0,0:0:0:0:
208,116,144830,1,0,0:0:0:0:
336,84,145124,6,0,P|392:128|400:152,1,65.9999922637943
412,184,145418,2,0,P|416:252|384:280,1,65.9999922637943
356,224,145712,1,0,0:0:0:0:
296,196,145859,2,0,P|308:280|320:292,1,65.9999922637943
188,312,146300,5,0,0:0:0:0:
164,292,146447,1,0,0:0:0:0:
148,268,146595,1,0,0:0:0:0:
132,244,146742,1,0,0:0:0:0:
120,216,146889,1,0,0:0:0:0:
188,116,147183,5,0,0:0:0:0:
304,84,147477,5,0,0:0:0:0:
328,104,147624,1,0,0:0:0:0:
344,128,147772,1,0,0:0:0:0:
360,152,147919,1,0,0:0:0:0:
372,180,148066,1,0,0:0:0:0:
276,288,148359,5,0,0:0:0:0:
240,148,148653,1,0,0:0:0:0:
120,68,148947,1,0,0:0:0:0:
184,200,149242,1,0,0:0:0:0:
328,204,149536,1,0,0:0:0:0:
400,64,149830,6,0,P|440:80|404:104,1,65.9999922637943
392,140,150124,2,0,P|352:124|388:100,1,65.9999922637943
320,56,150418,2,0,P|312:26|282:26,2,65.9999922637943
216,212,151006,5,0,0:0:0:0:
288,216,151153,2,0,P|280:284|264:284,2,71.4999905281072
256,152,151594,1,0,0:0:0:0:
228,48,151888,5,0,0:0:0:0:
120,92,152182,5,0,0:0:0:0:
116,164,152329,2,0,P|48:156|48:140,2,71.4999905281072
180,132,152770,1,0,0:0:0:0:
256,252,153065,5,0,0:0:0:0:
384,188,153359,5,0,0:0:0:0:
312,184,153506,2,0,P|320:116|336:116,2,71.4999905281072
344,248,153947,1,0,0:0:0:0:
244,148,154241,5,0,0:0:0:0:
100,148,154535,5,0,0:0:0:0:
104,76,154682,2,0,P|172:84|172:100,2,71.4999905281072
40,108,155123,1,0,0:0:0:0:
80,244,155418,5,0,0:0:0:0:
220,276,155712,1,0,0:0:0:0:
292,288,155859,1,0,0:0:0:0:
364,284,156006,2,0,P|400:264|408:236,2,71.4999905281072
304,152,156594,5,0,0:0:0:0:
184,72,156888,1,0,0:0:0:0:
256,60,157035,1,0,0:0:0:0:
328,64,157182,2,0,P|364:84|372:112,2,71.4999905281072
232,204,157771,5,0,0:0:0:0:
92,304,158065,1,0,0:0:0:0:
172,152,158359,1,0,0:0:0:0:
168,324,158653,1,0,0:0:0:0:
100,168,158947,1,0,0:0:0:0:
216,84,159242,6,0,P|292:64|328:96,1,71.4999905281072
352,72,159536,2,0,P|408:124|388:172,1,71.4999905281072
412,184,159830,2,0,P|404:240|352:288,1,71.4999905281072
368,324,160124,6,0,P|280:344|228:308,1,109.999990463257
300,236,160712,1,0,0:0:0:0:
240,144,161006,1,0,0:0:0:0:
288,44,161300,2,0,P|188:40|148:72,1,109.999990463257
108,120,161888,1,0,0:0:0:0:
96,228,162182,1,0,0:0:0:0:
184,292,162476,6,0,L|264:292,1,54.9999952316285
240,236,162771,2,0,L|185:236,1,54.9999952316285
184,180,163065,2,0,L|264:180,1,54.9999952316285
240,124,163360,2,0,L|185:124,1,54.9999952316285
132,128,163653,6,0,B|104:80|140:60|192:40|200:56,1,109.999990463257
288,52,164241,1,0,0:0:0:0:
380,112,164535,1,0,0:0:0:0:
444,204,164829,2,0,P|420:280|356:296,1,109.999990463257
340,200,165418,1,0,0:0:0:0:
248,140,165712,1,0,0:0:0:0:
300,44,166006,2,0,P|232:28|188:48,1,109.999990463257
112,116,166594,1,0,0:0:0:0:
76,220,166888,1,0,0:0:0:0:
160,292,167182,6,0,L|160:232,1,54.9999952316285
216,236,167476,2,0,L|216:291,1,54.9999952316285
272,288,167771,2,0,L|272:228,1,54.9999952316285
328,232,168065,2,0,L|328:287,1,54.9999952316285
380,272,168359,5,0,0:0:0:0:
436,176,168653,1,0,0:0:0:0:
432,148,168800,1,0,0:0:0:0:
420,124,168947,1,0,0:0:0:0:
404,104,169094,1,0,0:0:0:0:
384,88,169241,1,0,0:0:0:0:
276,64,169535,6,0,P|212:52|144:112,1,109.999990463257
228,164,170124,1,0,0:0:0:0:
120,176,170418,1,0,0:0:0:0:
172,272,170712,2,0,P|232:316|308:296,1,109.999990463257
372,284,171300,1,0,0:0:0:0:
464,344,171594,1,0,0:0:0:0:
460,236,171888,6,0,L|460:136,1,54.9999952316285
420,140,172182,2,0,L|360:68,1,54.9999952316285
328,100,172476,2,0,L|256:100,1,54.9999952316285
236,140,172771,2,0,L|172:212,1,54.9999952316285
244,212,173065,6,0,B|208:260|184:244|144:240|140:212,1,109.999990463257
60,292,173653,1,0,0:0:0:0:
164,324,173947,1,0,0:0:0:0:
272,332,174241,2,0,P|352:324|388:288,1,109.999990463257
436,216,174829,1,0,0:0:0:0:
344,152,175124,1,0,0:0:0:0:
444,112,175418,2,0,P|400:56|360:44,1,109.999990463257
256,44,176006,1,0,0:0:0:0:
156,88,176300,1,0,0:0:0:0:
160,220,176594,5,0,0:0:0:0:
248,316,176888,1,0,0:0:0:0:
320,208,177182,1,0,0:0:0:0:
204,268,177476,1,0,0:0:0:0:
336,292,177771,1,0,0:0:0:0:
448,224,178065,6,0,P|472:172|448:132,1,65.9999922637943
456,100,178359,2,0,P|400:64|356:72,1,65.9999922637943
396,132,178653,1,0,0:0:0:0:
340,100,178800,1,0,0:0:0:0:
292,72,178947,5,0,0:0:0:0:
184,72,179242,5,0,0:0:0:0:
160,88,179389,1,0,0:0:0:0:
140,108,179536,1,0,0:0:0:0:
120,128,179683,1,0,0:0:0:0:
108,152,179830,1,0,0:0:0:0:
216,172,180125,5,0,0:0:0:0:
268,76,180419,5,0,0:0:0:0:
292,92,180566,1,0,0:0:0:0:
312,112,180713,1,0,0:0:0:0:
332,132,180860,1,0,0:0:0:0:
344,156,181007,1,0,0:0:0:0:
344,264,181301,5,0,0:0:0:0:
236,268,181595,2,0,L|132:268,1,54.9999952316285
180,324,181889,1,0,0:0:0:0:
288,320,182183,2,0,L|343:320,1,54.9999952316285
396,312,182477,2,0,P|428:300|432:252,1,54.9999952316285
440,220,182772,6,0,P|448:160|416:136,1,54.9999952316285
424,120,183066,2,0,P|372:96|332:120,1,54.9999952316285
324,84,183360,2,0,P|284:80|224:92,2,54.9999952316285
256,172,183948,5,0,0:0:0:0:
248,200,184095,1,0,0:0:0:0:
228,220,184242,1,0,0:0:0:0:
204,236,184389,1,0,0:0:0:0:
180,248,184536,1,0,0:0:0:0:
148,144,184830,5,0,0:0:0:0:
40,120,185125,5,0,0:0:0:0:
48,92,185272,1,0,0:0:0:0:
68,72,185419,1,0,0:0:0:0:
92,56,185566,1,0,0:0:0:0:
116,44,185713,1,0,0:0:0:0:
248,52,186007,5,0,0:0:0:0:
328,156,186301,2,0,L|368:212,1,54.9999952316285
300,232,186595,1,0,0:0:0:0:
176,284,186889,2,0,P|120:268|128:240,1,54.9999952316285
104,220,187183,1,0,0:0:0:0:
96,88,187477,6,0,P|164:64|200:84,1,65.9999922637943
220,60,187772,2,0,P|288:96|304:128,1,65.9999922637943
232,132,188066,2,0,P|260:196|280:200,2,65.9999922637943
336,92,188653,5,0,0:0:0:0:
352,112,188800,1,0,0:0:0:0:
368,132,188947,1,0,0:0:0:0:
380,156,189094,1,0,0:0:0:0:
392,180,189241,1,0,0:0:0:0:
280,272,189536,6,0,P|216:312|160:292,3,71.4999905281072
176,260,190124,1,0,0:0:0:0:
116,128,190418,1,0,0:0:0:0:
252,80,190712,5,0,0:0:0:0:
360,104,191006,6,0,P|404:144|416:188,1,54.9999952316285
428,188,191300,2,0,P|428:248|408:272,1,54.9999952316285
408,292,191594,1,0,0:0:0:0:
300,320,191889,6,0,P|232:296|224:268,1,54.9999952316285
204,276,192183,2,0,P|176:244|208:220,1,54.9999952316285
220,204,192477,1,0,0:0:0:0:
188,160,192624,1,0,0:0:0:0:
144,116,192771,2,0,P|88:124|96:152,2,54.9999952316285
256,68,193359,5,0,0:0:0:0:
280,80,193506,1,0,0:0:0:0:
300,96,193653,1,0,0:0:0:0:
316,120,193800,1,0,0:0:0:0:
332,144,193947,1,0,0:0:0:0:
340,252,194241,5,0,0:0:0:0:
236,288,194535,6,0,P|176:304|148:288,1,54.9999952316285
160,296,194829,1,0,0:0:0:0:
136,280,194976,1,0,0:0:0:0:
116,260,195124,1,0,0:0:0:0:
128,140,195418,6,0,L|128:76,1,54.9999952316285
188,72,195712,1,0,0:0:0:0:
308,68,196006,2,0,L|384:68,1,54.9999952316285
396,120,196300,1,0,0:0:0:0:
392,240,196594,1,0,0:0:0:0:
284,296,196888,6,0,P|240:312|204:288,1,54.9999952316285
180,304,197182,2,0,P|148:284|132:244,1,54.9999952316285
108,224,197476,1,0,0:0:0:0:
104,168,197624,1,0,0:0:0:0:
108,112,197771,2,0,P|176:80|224:76,1,120.999993202209
280,64,198212,2,0,P|356:96|368:112,1,60.4999966011047
252,188,198653,1,0,0:0:0:0:
144,284,198947,1,0,0:0:0:0:
88,148,199242,2,0,P|104:96|172:48,2,120.999993202209
252,188,200124,1,0,0:0:0:0:
436,308,200565,5,0,0:0:0:0:
456,284,200712,1,0,0:0:0:0:
444,164,201006,1,0,0:0:0:0:
348,92,201300,1,0,0:0:0:0:
168,92,201742,5,0,0:0:0:0:
148,116,201889,1,0,0:0:0:0:
160,236,202183,1,0,0:0:0:0:
252,312,202477,6,0,P|312:312|364:280,1,120.999993202209
280,192,203065,1,0,0:0:0:0:
308,76,203359,2,0,P|248:76|196:108,1,120.999993202209
112,192,203947,1,0,0:0:0:0:
172,296,204242,1,0,0:0:0:0:
244,200,204536,1,0,0:0:0:0:
292,292,204830,6,0,P|344:288|372:248,1,87.9999923706056
318,171,205418,2,0,P|266:175|238:215,1,87.9999923706056
148,244,206006,6,0,P|200:240|228:200,1,87.9999923706056
174,123,206594,2,0,P|122:127|94:167,1,87.9999923706056
64,268,207183,6,0,P|124:328|188:336,1,120.999993202209
276,324,207771,1,0,0:0:0:0:
380,264,208065,2,0,P|420:176|408:136,1,120.999993202209
296,172,208653,1,0,0:0:0:0:
220,80,208947,1,0,0:0:0:0:
136,168,209242,1,0,0:0:0:0:
208,264,209536,1,0,0:0:0:0:
380,324,209977,5,0,0:0:0:0:
412,328,210124,1,0,0:0:0:0:
416,208,210418,1,0,0:0:0:0:
416,88,210712,1,0,0:0:0:0:
236,72,211153,5,0,0:0:0:0:
204,68,211300,1,0,0:0:0:0:
200,188,211594,1,0,0:0:0:0:
96,124,211889,6,0,P|72:196|96:248,1,120.999993202209
176,316,212477,1,0,0:0:0:0:
296,336,212771,2,0,P|356:316|396:256,1,120.999993202209
284,220,213359,1,0,0:0:0:0:
388,156,213653,1,0,0:0:0:0:
292,84,213947,1,0,0:0:0:0:
176,84,214242,6,0,P|104:112|104:152,1,87.9999923706056
140,224,214830,2,0,P|212:196|212:156,1,87.9999923706056
316,148,215418,6,0,P|244:176|244:216,1,87.9999923706056
280,288,216006,2,0,P|352:260|352:220,1,87.9999923706056
256,192,216595,12,0,218653,0:0:0:0:
