osu file format v14

[General]
AudioFilename: Unity OC Lineart MAP Complete Flashing Colors Warning.mp3
AudioLeadIn: 0
PreviewTime: 45160
Countdown: 0
SampleSet: Normal
StackLeniency: 0.7
Mode: 3
LetterboxInBreaks: 0
EpilepsyWarning: 1
SpecialStyle: 1
WidescreenStoryboard: 1

[Editor]
Bookmarks: 27541,45255,64112,81826,90969,100112,118112,136683,155541,172969,182398,191541
DistanceSpacing: 1.4
BeatDivisor: 6
GridSize: 32
TimelineZoom: 2.3

[Metadata]
Title:Unity
TitleUnicode:Unity
Artist:TheFatRat
ArtistUnicode:TheFatRat
Creator:Ichibi No Kitsune
Version:Fragile mode
Source:
Tags:tumble, warfu, furry, oc, map
BeatmapID:1970147
BeatmapSetID:394065

[Difficulty]
HPDrainRate:9
CircleSize:4
OverallDifficulty:9
ApproachRate:5
SliderMultiplier:1.4
SliderTickRate:2

[Events]
//Background and Video events
Video,0,"Unity OC Lineart MAP Complete Flashing Colors Warning.avi"
0,0,"Fragile duel.png",0,0
//Break Periods
//Storyboard Layer 0 (Background)
//Storyboard Layer 1 (Fail)
//Storyboard Layer 2 (Pass)
//Storyboard Layer 3 (Foreground)
//Storyboard Sound Samples

[TimingPoints]
7070,571.428571428571,4,1,0,40,1,0
43640,-100,4,1,0,40,0,0
43830,-33.3333333333333,4,1,0,40,0,0
43926,-200,4,1,0,40,0,0
44116,-33.3333333333333,4,1,0,40,0,0
44211,-200,4,1,0,40,0,0
44402,-33.3333333333333,4,1,0,40,0,0
44497,-200,4,1,0,40,0,0
44687,-33.3333333333333,4,1,0,40,0,0
44783,-200,4,1,0,40,0,0
45069,-100,4,1,0,40,0,0
48402,-33.3333333333333,4,1,0,40,0,0
48497,-200,4,1,0,40,0,0
48687,-33.3333333333333,4,1,0,40,0,0
48783,-200,4,1,0,40,0,0
48973,-33.3333333333333,4,1,0,40,0,0
49068,-200,4,1,0,40,0,0
49259,-33.3333333333333,4,1,0,40,0,0
49354,-200,4,1,0,40,0,0
49546,-100,4,1,0,40,0,0
52973,-33.3333333333333,4,1,0,40,0,0
53068,-200,4,1,0,40,0,0
53259,-33.3333333333333,4,1,0,40,0,0
53354,-200,4,1,0,40,0,0
53545,-33.3333333333333,4,1,0,40,0,0
53640,-200,4,1,0,40,0,0
53831,-33.3333333333333,4,1,0,40,0,0
53927,-200,4,1,0,40,0,0
54117,-100,4,1,0,40,0,0
57545,-33.3333333333333,4,1,0,40,0,0
57640,-200,4,1,0,40,0,0
57830,-33.3333333333333,4,1,0,40,0,0
57926,-200,4,1,0,40,0,0
58116,-33.3333333333333,4,1,0,40,0,0
58211,-200,4,1,0,40,0,0
58402,-33.3333333333333,4,1,0,40,0,0
58497,-200,4,1,0,40,0,0
58689,-100,4,1,0,40,0,0
61926,-200,4,1,0,40,0,0
62116,-33.3333333333333,4,1,0,40,0,0
62211,-200,4,1,0,40,0,0
62402,-33.3333333333333,4,1,0,40,0,0
62497,-200,4,1,0,40,0,0
62687,-33.3333333333333,4,1,0,40,0,0
62783,-200,4,1,0,40,0,0
62973,-33.3333333333333,4,1,0,40,0,0
63069,-200,4,1,0,40,0,0
63260,-100,4,1,0,40,0,0
80211,-200,4,1,0,40,0,0
80402,-33.3333333333333,4,1,0,40,0,0
80497,-200,4,1,0,40,0,0
80687,-33.3333333333333,4,1,0,40,0,0
80783,-200,4,1,0,40,0,0
80973,-33.3333333333333,4,1,0,40,0,0
81068,-200,4,1,0,40,0,0
81259,-33.3333333333333,4,1,0,40,0,0
81354,-200,4,1,0,40,0,0
81546,-100,4,1,0,40,0,0
84783,-200,4,1,0,40,0,0
84973,-33.3333333333333,4,1,0,40,0,0
85068,-200,4,1,0,40,0,0
85259,-33.3333333333333,4,1,0,40,0,0
85354,-200,4,1,0,40,0,0
85545,-33.3333333333333,4,1,0,40,0,0
85640,-200,4,1,0,40,0,0
85830,-33.3333333333333,4,1,0,40,0,0
85926,-200,4,1,0,40,0,0
86117,-100,4,1,0,40,0,0
89640,-200,4,1,0,40,0,0
89830,-33.3333333333333,4,1,0,40,0,0
89926,-200,4,1,0,40,0,0
90116,-33.3333333333333,4,1,0,40,0,0
90211,-200,4,1,0,40,0,0
90403,-33.3333333333333,4,1,0,40,0,0
90498,-200,4,1,0,40,0,0
90689,-100,4,1,0,40,0,0
94403,-33.3333333333333,4,1,0,40,0,0
94497,-200,4,1,0,40,0,0
94689,-33.3333333333333,4,1,0,40,0,0
94783,-200,4,1,0,40,0,0
94974,-33.3333333333333,4,1,0,40,0,0
95069,-200,4,1,0,40,0,0
95165,-100,4,1,0,40,0,0
98497,-200,4,1,0,40,0,0
98687,-33.3333333333333,4,1,0,40,0,0
98783,-200,4,1,0,40,0,0
98973,-33.3333333333333,4,1,0,40,0,0
99068,-200,4,1,0,40,0,0
99259,-33.3333333333333,4,1,0,40,0,0
99354,-200,4,1,0,40,0,0
99545,-33.3333333333333,4,1,0,40,0,0
99641,-200,4,1,0,40,0,0
99831,-100,4,1,0,40,0,0
116783,-200,4,1,0,40,0,0
116973,-33.3333333333333,4,1,0,40,0,0
117068,-200,4,1,0,40,0,0
117259,-33.3333333333333,4,1,0,40,0,0
117354,-200,4,1,0,40,0,0
117545,-33.3333333333333,4,1,0,40,0,0
117640,-200,4,1,0,40,0,0
117830,-40,4,1,0,40,0,0
117926,-33.3333333333333,4,1,0,40,0,0
118116,-57.1428571428571,4,1,0,40,0,0
118402,-66.6666666666667,4,1,0,40,0,0
118687,-100,4,1,0,40,0,0
118973,-133.333333333333,4,1,0,40,0,0
119259,-200,4,1,0,40,0,0
119260,-200,4,1,0,80,0,0
138117,-200,4,1,0,100,0,0
154497,-133.333333333333,4,1,0,40,0,0
155068,-100,4,1,0,40,0,0
171640,-200,4,1,0,40,0,0
171830,-33.3333333333333,4,1,0,40,0,0
171926,-200,4,1,0,40,0,0
172116,-33.3333333333333,4,1,0,40,0,0
172211,-200,4,1,0,40,0,0
172402,-33.3333333333333,4,1,0,40,0,0
172497,-200,4,1,0,40,0,0
172687,-33.3333333333333,4,1,0,40,0,0
172783,-200,4,1,0,40,0,0
172974,-100,4,1,0,40,0,0
176402,-33.3333333333333,4,1,0,40,0,0
176497,-200,4,1,0,40,0,0
176687,-33.3333333333333,4,1,0,40,0,0
176783,-200,4,1,0,40,0,0
176973,-33.3333333333333,4,1,0,40,0,0
177068,-200,4,1,0,40,0,0
177259,-33.3333333333333,4,1,0,40,0,0
177354,-200,4,1,0,40,0,0
177546,-100,4,1,0,40,0,0
180973,-33.3333333333333,4,1,0,40,0,0
181068,-200,4,1,0,40,0,0
181259,-33.3333333333333,4,1,0,40,0,0
181354,-200,4,1,0,40,0,0
181545,-33.3333333333333,4,1,0,40,0,0
181640,-200,4,1,0,40,0,0
181830,-33.3333333333333,4,1,0,40,0,0
181926,-200,4,1,0,40,0,0
182117,-100,4,1,0,40,0,0
185545,-33.3333333333333,4,1,0,40,0,0
185640,-200,4,1,0,40,0,0
185830,-33.3333333333333,4,1,0,40,0,0
185926,-200,4,1,0,40,0,0
186116,-33.3333333333333,4,1,0,40,0,0
186211,-200,4,1,0,40,0,0
186402,-33.3333333333333,4,1,0,40,0,0
186497,-200,4,1,0,40,0,0
186689,-100,4,1,0,40,0,0
190116,-40,4,1,0,40,0,0
190211,-200,4,1,0,40,0,0
190402,-40,4,1,0,40,0,0
190497,-200,4,1,0,40,0,0
190687,-40,4,1,0,40,0,0
190783,-200,4,1,0,40,0,0
190973,-40,4,1,0,40,0,0
191069,-200,4,1,0,40,0,0
191546,-100,4,1,0,40,0,0
192212,-100,4,1,0,40,0,1
208212,-100,4,1,0,40,0,0
208402,-44.4444444444445,4,1,0,40,0,0
208497,-200,4,1,0,40,0,0
208687,-44.4444444444445,4,1,0,40,0,0
208783,-200,4,1,0,40,0,0
208973,-44.4444444444445,4,1,0,40,0,0
209068,-200,4,1,0,40,0,0
209259,-44.4444444444445,4,1,0,40,0,0
209546,-100,4,1,0,40,0,0

[HitObjects]
448,192,8689,5,0,0:0:0:0:
64,192,8689,1,0,0:0:0:0:
320,192,8784,1,0,0:0:0:0:
192,192,8974,1,0,0:0:0:0:
448,192,8974,1,0,0:0:0:0:
64,192,9070,1,0,0:0:0:0:
192,192,9260,1,0,0:0:0:0:
448,192,9260,1,0,0:0:0:0:
64,192,9355,128,0,9641:0:0:0:0:
320,192,9355,128,0,9641:0:0:0:0:
192,192,9641,128,0,9927:0:0:0:0:
448,192,9831,1,0,0:0:0:0:
64,192,9831,1,0,0:0:0:0:
320,192,9927,1,0,0:0:0:0:
192,192,10117,1,0,0:0:0:0:
448,192,10117,1,0,0:0:0:0:
64,192,10212,1,0,0:0:0:0:
192,192,10403,1,0,0:0:0:0:
448,192,10403,1,0,0:0:0:0:
320,192,10498,128,0,10784:0:0:0:0:
64,192,10498,128,0,10784:0:0:0:0:
192,192,10784,128,0,11069:0:0:0:0:
448,192,10974,1,0,0:0:0:0:
320,192,10974,1,0,0:0:0:0:
64,192,11069,1,0,0:0:0:0:
192,192,11260,1,0,0:0:0:0:
448,192,11260,1,0,0:0:0:0:
64,192,11355,1,0,0:0:0:0:
192,192,11546,1,0,0:0:0:0:
320,192,11546,1,0,0:0:0:0:
448,192,11641,128,0,12212:2:0:0:0:
64,192,11641,128,0,11927:0:0:0:0:
192,192,11927,1,0,0:0:0:0:
320,192,11927,128,0,12212:0:0:0:0:
64,192,12212,1,0,0:0:0:0:
192,192,12498,1,0,0:0:0:0:
320,192,12784,128,0,13069:0:0:0:0:
448,192,12784,128,0,13069:0:0:0:0:
192,192,13069,128,0,13355:0:0:0:0:
448,192,13260,1,0,0:0:0:0:
320,192,13260,1,0,0:0:0:0:
64,192,13355,1,0,0:0:0:0:
448,192,13546,1,0,0:0:0:0:
192,192,13546,1,0,0:0:0:0:
64,192,13641,1,0,0:0:0:0:
448,192,13831,1,0,0:0:0:0:
320,192,13831,1,0,0:0:0:0:
192,192,13927,128,0,14212:0:0:0:0:
64,192,13927,128,0,14212:0:0:0:0:
448,192,14212,1,0,0:0:0:0:
320,192,14212,128,0,14498:0:0:0:0:
64,192,14403,1,0,0:0:0:0:
192,192,14403,1,0,0:0:0:0:
448,192,14498,1,0,0:0:0:0:
192,192,14689,1,0,0:0:0:0:
448,192,14689,1,0,0:0:0:0:
64,192,14784,1,0,0:0:0:0:
192,192,14974,1,0,0:0:0:0:
320,192,14974,1,0,0:0:0:0:
448,192,15069,128,0,15355:0:0:0:0:
64,192,15069,128,0,15355:0:0:0:0:
192,192,15355,1,0,0:0:0:0:
320,192,15355,128,0,15641:0:0:0:0:
64,192,15546,1,0,0:0:0:0:
448,192,15546,1,0,0:0:0:0:
192,192,15641,1,0,0:0:0:0:
448,192,15831,1,0,0:0:0:0:
64,192,15831,1,0,0:0:0:0:
192,192,15927,1,0,0:0:0:0:
320,192,15927,128,0,16212:0:0:0:0:
64,192,16117,1,0,0:0:0:0:
448,192,16212,1,0,0:0:0:0:
192,192,16212,128,0,16784:0:0:0:0:
320,192,16498,1,0,0:0:0:0:
64,192,16498,128,0,16784:0:0:0:0:
448,192,16784,1,0,0:0:0:0:
448,192,17069,1,0,0:0:0:0:
320,192,17069,128,0,17355:0:0:0:0:
192,192,17355,128,0,17641:0:0:0:0:
64,192,17355,128,0,17641:0:0:0:0:
320,192,17641,128,0,17927:0:0:0:0:
448,192,17831,1,0,0:0:0:0:
192,192,17831,1,0,0:0:0:0:
64,192,17927,1,0,0:0:0:0:
448,192,18117,1,0,0:0:0:0:
192,192,18117,1,0,0:0:0:0:
64,192,18212,1,0,0:0:0:0:
320,192,18212,128,0,18689:0:0:0:0:
192,192,18403,1,0,0:0:0:0:
448,192,18498,128,0,18689:0:0:0:0:
64,192,18498,128,0,18784:0:0:0:0:
192,192,18784,128,8,19069:0:0:0:0:
448,192,18974,1,0,0:0:0:0:
64,192,18974,1,0,0:0:0:0:
320,192,19069,1,0,0:0:0:0:
320,192,19260,1,0,0:0:0:0:
448,192,19260,1,0,0:0:0:0:
192,192,19355,1,0,0:0:0:0:
64,192,19355,128,8,19641:0:0:0:0:
448,192,19546,1,0,0:0:0:0:
192,192,19641,128,0,19927:0:0:0:0:
320,192,19641,128,0,19927:0:0:0:0:
448,192,19927,128,8,20212:0:0:0:0:
320,192,20117,1,0,0:0:0:0:
192,192,20117,1,0,0:0:0:0:
64,192,20212,1,0,0:0:0:0:
192,192,20403,1,0,0:0:0:0:
448,192,20403,1,0,0:0:0:0:
320,192,20498,1,0,0:0:0:0:
64,192,20498,128,8,20784:0:0:0:0:
448,192,20689,1,0,0:0:0:0:
192,192,20784,128,0,21355:0:0:0:0:
320,192,20784,128,0,21069:0:0:0:0:
64,192,21069,128,8,21355:0:0:0:0:
448,192,21069,1,0,0:0:0:0:
320,192,21355,1,0,0:0:0:0:
192,192,21641,1,0,0:0:0:0:
320,192,21641,128,8,21927:0:0:0:0:
448,192,21927,128,0,22212:0:0:0:0:
64,192,21927,128,0,22212:0:0:0:0:
192,192,22212,128,8,22498:0:0:0:0:
320,192,22403,1,0,0:0:0:0:
448,192,22403,1,0,0:0:0:0:
64,192,22498,1,0,0:0:0:0:
192,192,22689,1,0,0:0:0:0:
320,192,22689,1,0,0:0:0:0:
64,192,22784,1,0,0:0:0:0:
192,192,22974,1,0,0:0:0:0:
448,192,22974,1,0,0:0:0:0:
64,192,23069,128,0,23355:0:0:0:0:
320,192,23069,128,0,23355:0:0:0:0:
448,192,23355,128,8,23641:0:0:0:0:
320,192,23546,1,0,0:0:0:0:
64,192,23546,1,0,0:0:0:0:
192,192,23641,1,0,0:0:0:0:
320,192,23831,1,0,0:0:0:0:
192,192,23831,1,0,0:0:0:0:
64,192,23927,128,8,24212:0:0:0:0:
448,192,23927,1,0,0:0:0:0:
448,192,24117,1,0,0:0:0:0:
320,192,24117,1,0,0:0:0:0:
192,192,24212,128,0,24498:0:0:0:0:
448,192,24498,128,8,24784:0:0:0:0:
320,192,24689,1,0,0:0:0:0:
192,192,24689,1,0,0:0:0:0:
64,192,24784,1,0,0:0:0:0:
320,192,24974,1,0,0:0:0:0:
64,192,24974,1,0,0:0:0:0:
448,192,25069,1,0,0:0:0:0:
192,192,25069,128,8,25355:0:0:0:0:
320,192,25260,1,0,0:0:0:0:
448,192,25355,1,0,0:0:0:0:
64,192,25355,128,0,25641:0:0:0:0:
320,192,25641,1,0,0:0:0:0:
192,192,25641,128,8,25927:0:0:0:0:
448,192,25927,1,0,0:0:0:0:
448,192,26212,1,0,0:0:0:0:
192,192,26212,128,0,26784:0:0:0:0:
320,192,26498,128,0,26784:0:0:0:0:
64,192,26498,128,0,26784:0:0:0:0:
448,192,26784,1,8,0:0:0:0:
64,192,26974,1,4,3:0:0:0:
448,192,26974,1,4,3:0:0:0:
320,192,27069,1,0,0:0:0:0:
192,192,27069,1,0,0:0:0:0:
64,192,27260,128,4,27355:0:0:0:0:
448,192,27260,128,4,27355:0:0:0:0:
192,192,27355,1,0,0:0:0:0:
320,192,27355,1,0,0:0:0:0:
448,192,27546,128,4,27641:0:0:0:0:
320,192,27641,1,0,0:0:0:0:
64,192,27641,1,0,0:0:0:0:
320,192,27927,1,0,0:0:0:0:
192,192,27927,128,0,28117:0:0:0:0:
448,192,28117,1,0,0:0:0:0:
64,192,28212,1,4,0:0:0:0:
320,192,28498,1,0,0:0:0:0:
448,192,28498,128,0,28784:0:0:0:0:
192,192,28689,1,0,0:0:0:0:
320,192,28784,1,0,0:0:0:0:
64,192,28784,128,0,29355:0:0:0:0:
448,192,28974,1,0,0:0:0:0:
320,192,29069,1,0,0:0:0:0:
192,192,29069,128,0,29355:0:0:0:0:
448,192,29260,1,0,0:0:0:0:
320,192,29355,1,4,0:0:0:0:
320,192,29641,1,0,0:0:0:0:
448,192,29641,1,4,0:0:0:0:
64,192,29641,128,0,29927:0:0:0:0:
192,192,29927,1,0,0:0:0:0:
448,192,29927,128,0,30498:0:0:0:0:
320,192,30212,1,0,0:0:0:0:
64,192,30212,128,0,30498:0:0:0:0:
192,192,30403,1,0,0:0:0:0:
320,192,30498,1,4,0:0:0:0:
448,192,30784,1,0,0:0:0:0:
64,192,30784,128,0,31069:0:0:0:0:
320,192,30974,1,0,0:0:0:0:
192,192,31069,1,0,0:0:0:0:
448,192,31069,128,0,31641:0:0:0:0:
320,192,31260,1,0,0:0:0:0:
192,192,31355,1,0,0:0:0:0:
64,192,31355,128,0,31641:0:0:0:0:
320,192,31641,1,4,0:0:0:0:
320,192,31927,1,0,0:0:0:0:
192,192,31927,128,0,32212:0:0:0:0:
64,192,31927,1,0,0:0:0:0:
448,192,32212,1,0,0:0:0:0:
320,192,32212,128,0,32784:0:0:0:0:
64,192,32498,1,0,0:0:0:0:
192,192,32498,128,0,32784:0:0:0:0:
448,192,32689,1,0,0:0:0:0:
64,192,32784,1,4,0:0:0:0:
320,192,33069,1,0,0:0:0:0:
64,192,33069,128,0,33355:0:0:0:0:
192,192,33260,1,0,0:0:0:0:
320,192,33355,1,0,0:0:0:0:
448,192,33355,128,0,33927:0:0:0:0:
192,192,33546,1,0,0:0:0:0:
64,192,33641,1,0,0:0:0:0:
320,192,33641,128,0,33927:0:0:0:0:
64,192,33831,1,0,0:0:0:0:
192,192,33927,1,4,0:0:0:0:
192,192,34212,1,4,0:0:0:0:
448,192,34212,1,0,0:0:0:0:
64,192,34212,128,0,34498:0:0:0:0:
192,192,34403,1,0,0:0:0:0:
320,192,34498,1,0,0:0:0:0:
448,192,34498,128,0,35069:0:0:0:0:
320,192,34784,1,0,0:0:0:0:
192,192,34784,128,0,35069:0:0:0:0:
64,192,34974,1,4,0:0:0:0:
320,192,35069,1,4,0:0:0:0:
320,192,35355,1,0,0:0:0:0:
64,192,35355,128,0,35641:0:0:0:0:
192,192,35546,1,0,0:0:0:0:
320,192,35641,1,0,0:0:0:0:
448,192,35641,128,0,36212:0:0:0:0:
64,192,35831,1,0,0:0:0:0:
192,192,35927,1,0,0:0:0:0:
320,192,35927,128,0,36212:0:0:0:0:
64,192,36117,1,0,0:0:0:0:
192,192,36212,1,4,0:0:0:0:
320,192,36498,1,0,0:0:0:0:
64,192,36498,128,0,36784:0:0:0:0:
192,192,36498,1,0,0:0:0:0:
320,192,36784,1,0,0:0:0:0:
448,192,36784,128,0,37355:0:0:0:0:
64,192,37069,1,0,0:0:0:0:
192,192,37069,128,0,37355:0:0:0:0:
320,192,37355,1,4,0:0:0:0:
320,192,37641,1,0,0:0:0:0:
448,192,37641,128,0,37927:0:0:0:0:
192,192,37831,1,0,0:0:0:0:
64,192,37927,1,0,0:0:0:0:
320,192,37927,128,0,38498:0:0:0:0:
448,192,38117,1,0,0:0:0:0:
192,192,38212,1,0,0:0:0:0:
64,192,38212,128,0,38498:0:0:0:0:
448,192,38498,1,4,0:0:0:0:
64,192,38784,1,0,0:0:0:0:
192,192,38784,128,0,39069:0:0:0:0:
320,192,38784,1,0,0:0:0:0:
320,192,39069,1,0,0:0:0:0:
64,192,39069,128,0,39641:0:0:0:0:
448,192,39355,1,0,0:0:0:0:
320,192,39355,128,0,39641:0:0:0:0:
192,192,39546,1,0,0:0:0:0:
448,192,39641,1,4,0:0:0:0:
192,192,39927,1,0,0:0:0:0:
64,192,39927,128,0,40212:0:0:0:0:
320,192,40117,1,0,0:0:0:0:
192,192,40212,1,0,0:0:0:0:
448,192,40212,128,0,40784:0:0:0:0:
320,192,40403,1,0,0:0:0:0:
192,192,40498,1,0,0:0:0:0:
64,192,40498,128,0,40784:0:0:0:0:
320,192,40784,1,4,0:0:0:0:
320,192,41069,1,0,0:0:0:0:
192,192,41069,128,0,41355:0:0:0:0:
448,192,41069,1,0,0:0:0:0:
64,192,41355,128,0,41927:0:0:0:0:
320,192,41355,1,0,0:0:0:0:
192,192,41641,1,0,0:0:0:0:
320,192,41641,128,0,41927:0:0:0:0:
448,192,41831,1,0,0:0:0:0:
192,192,41927,1,4,0:0:0:0:
320,192,42117,1,0,0:0:0:0:
192,192,42212,1,0,0:0:0:0:
64,192,42212,128,0,42498:0:0:0:0:
320,192,42403,1,0,0:0:0:0:
448,192,42498,1,0,0:0:0:0:
192,192,42498,128,0,43069:0:0:0:0:
320,192,42784,1,0,0:0:0:0:
448,192,42784,128,0,43069:0:0:0:0:
64,192,43069,1,0,0:0:0:0:
192,192,43260,1,0,0:0:0:0:
64,192,43355,1,0,0:0:0:0:
320,192,43355,128,0,43641:0:0:0:0:
192,192,43546,1,0,0:0:0:0:
64,192,43641,128,4,43831:3:0:0:0:
448,192,43641,128,4,43831:3:0:0:0:
320,192,43927,128,4,44117:3:0:0:0:
192,192,43927,128,4,44117:3:0:0:0:
64,192,44212,128,4,44403:3:0:0:0:
448,192,44212,128,4,44403:3:0:0:0:
192,192,44498,128,4,44689:3:0:0:0:
320,192,44498,128,4,44689:3:0:0:0:
64,192,44784,128,4,45069:1:0:0:0:
448,192,44784,128,4,45069:1:0:0:0:
320,192,44784,128,4,45069:3:0:0:0:
192,192,44784,128,4,45069:3:0:0:0:
448,192,45260,1,0,0:0:0:0:
320,192,45355,1,0,0:0:0:0:
64,192,45546,1,0,0:0:0:0:
192,192,45641,1,0,0:0:0:0:
320,192,45831,1,0,0:0:0:0:
448,192,45927,128,0,46212:0:0:0:0:
192,192,45927,128,0,46212:0:0:0:0:
320,192,46212,128,4,46308:0:0:0:0:
64,192,46403,1,0,0:0:0:0:
320,192,46498,1,0,0:0:0:0:
448,192,46498,1,0,1:0:0:0:
320,192,46689,1,0,0:0:0:0:
192,192,46784,1,0,0:0:0:0:
64,192,46784,128,0,47069:0:0:0:0:
320,192,46974,1,0,0:0:0:0:
192,192,47069,128,0,47355:0:0:0:0:
448,192,47069,128,0,47355:0:0:0:0:
320,192,47355,128,0,47450:0:0:0:0:
192,192,47546,1,0,0:0:0:0:
64,192,47641,1,0,0:0:0:0:
448,192,47641,1,0,1:0:0:0:
320,192,47831,1,0,0:0:0:0:
192,192,47927,1,0,0:0:0:0:
448,192,47927,128,0,48212:0:0:0:0:
320,192,48117,1,0,0:0:0:0:
64,192,48212,128,0,48403:0:0:0:0:
192,192,48212,128,0,48403:1:0:0:0:
320,192,48498,128,0,48689:1:0:0:0:
448,192,48498,128,0,48689:0:0:0:0:
64,192,48784,128,0,48974:0:0:0:0:
192,192,48784,128,0,48974:1:0:0:0:
320,192,49069,128,0,49260:1:0:0:0:
448,192,49069,128,0,49260:0:0:0:0:
64,192,49355,128,0,49546:0:0:0:0:
192,192,49355,128,0,49546:1:0:0:0:
448,192,49641,128,0,49736:0:0:0:0:
192,192,49831,1,0,0:0:0:0:
320,192,49927,1,0,0:0:0:0:
448,192,49927,1,0,1:0:0:0:
192,192,50117,1,0,0:0:0:0:
64,192,50212,1,0,0:0:0:0:
448,192,50212,1,4,0:0:0:0:
192,192,50403,1,0,0:0:0:0:
64,192,50498,128,0,50784:0:0:0:0:
320,192,50498,128,0,50784:0:0:0:0:
192,192,50784,128,0,50879:0:0:0:0:
320,192,50974,1,0,0:0:0:0:
448,192,51069,1,0,0:0:0:0:
64,192,51069,1,0,0:0:0:0:
320,192,51260,1,0,0:0:0:0:
192,192,51355,1,0,0:0:0:0:
448,192,51355,128,0,51641:0:0:0:0:
64,192,51546,1,0,0:0:0:0:
320,192,51641,128,0,51927:0:0:0:0:
192,192,51641,128,0,51927:0:0:0:0:
64,192,51927,128,4,52022:0:0:0:0:
448,192,52117,1,0,0:0:0:0:
192,192,52212,1,0,0:0:0:0:
320,192,52212,1,0,1:0:0:0:
64,192,52403,1,0,0:0:0:0:
320,192,52498,1,0,0:0:0:0:
192,192,52498,128,0,52689:0:0:0:0:
448,192,52689,1,0,0:0:0:0:
320,192,52784,128,0,52974:0:0:0:0:
64,192,52784,128,0,52974:0:0:0:0:
448,192,53069,128,0,53260:0:0:0:0:
192,192,53069,128,0,53260:0:0:0:0:
64,192,53355,128,0,53546:0:0:0:0:
320,192,53355,128,0,53546:0:0:0:0:
192,192,53641,128,0,53831:0:0:0:0:
448,192,53641,128,0,53831:0:0:0:0:
64,192,53927,128,0,54117:0:0:0:0:
320,192,53927,128,4,54117:0:0:0:0:
192,192,54117,1,0,0:0:0:0:
448,192,54212,128,0,54308:0:0:0:0:
320,192,54403,1,0,0:0:0:0:
448,192,54498,1,0,0:0:0:0:
192,192,54498,1,0,1:0:0:0:
192,192,54689,1,0,0:0:0:0:
320,192,54784,1,0,0:0:0:0:
64,192,54784,1,8,3:0:0:0:
192,192,54974,1,0,0:0:0:0:
320,192,55069,1,4,0:0:0:0:
448,192,55069,128,0,55260:1:0:0:0:
64,192,55069,128,0,55260:0:0:0:0:
192,192,55355,128,0,55450:0:0:0:0:
320,192,55546,1,0,0:0:0:0:
448,192,55641,1,0,0:0:0:0:
64,192,55641,1,0,1:0:0:0:
192,192,55831,1,0,0:0:0:0:
64,192,55927,128,0,56212:0:0:0:0:
320,192,55927,1,0,0:0:0:0:
192,192,56117,1,0,0:0:0:0:
320,192,56212,128,0,56498:0:0:0:0:
448,192,56212,128,0,56498:0:0:0:0:
64,192,56498,128,4,56593:0:0:0:0:
192,192,56689,1,0,0:0:0:0:
320,192,56784,1,0,0:0:0:0:
448,192,56784,1,0,1:0:0:0:
64,192,56974,1,0,0:0:0:0:
448,192,57069,1,0,0:0:0:0:
320,192,57069,128,0,57260:0:0:0:0:
192,192,57260,1,0,0:0:0:0:
64,192,57355,1,0,0:0:0:0:
448,192,57355,128,0,57546:0:0:0:0:
192,192,57641,128,0,57831:0:0:0:0:
320,192,57641,1,0,0:0:0:0:
320,192,57927,128,0,58117:0:0:0:0:
64,192,57927,1,0,0:0:0:0:
64,192,58212,128,0,58403:0:0:0:0:
448,192,58212,1,0,0:0:0:0:
192,192,58498,128,0,58689:0:0:0:0:
320,192,58498,128,0,58689:0:0:0:0:
64,192,58784,128,4,58879:0:0:0:0:
320,192,58974,1,0,0:0:0:0:
192,192,59069,1,0,0:0:0:0:
64,192,59069,1,0,1:0:0:0:
320,192,59260,1,0,0:0:0:0:
192,192,59355,1,0,0:0:0:0:
448,192,59355,128,4,59641:0:0:0:0:
64,192,59546,1,0,0:0:0:0:
192,192,59641,128,0,59927:0:0:0:0:
320,192,59641,128,0,59927:1:0:0:0:
448,192,59927,128,4,60022:0:0:0:0:
320,192,60117,1,0,0:0:0:0:
448,192,60212,1,0,0:0:0:0:
64,192,60212,1,0,1:0:0:0:
320,192,60403,1,0,0:0:0:0:
64,192,60498,1,0,0:0:0:0:
192,192,60498,128,0,60784:0:0:0:0:
320,192,60689,1,0,0:0:0:0:
64,192,60784,128,0,61069:0:0:0:0:
448,192,60784,128,4,61069:3:0:0:0:
320,192,61069,128,4,61165:0:0:0:0:
192,192,61260,1,0,0:0:0:0:
320,192,61355,1,0,0:0:0:0:
448,192,61355,1,0,1:0:0:0:
64,192,61546,1,0,0:0:0:0:
448,192,61641,1,0,0:0:0:0:
192,192,61641,128,0,61831:0:0:0:0:
320,192,61831,1,0,0:0:0:0:
448,192,61927,1,0,0:0:0:0:
64,192,61927,128,0,62117:0:0:0:0:
192,192,62212,128,0,62403:0:0:0:0:
448,192,62212,128,0,62403:0:0:0:0:
320,192,62498,128,0,62689:0:0:0:0:
64,192,62498,128,0,62689:0:0:0:0:
448,192,62784,128,0,62974:0:0:0:0:
192,192,62784,128,0,62974:0:0:0:0:
320,192,63069,128,0,63260:0:0:0:0:
64,192,63069,128,0,63260:0:0:0:0:
448,192,63260,128,0,63355:0:0:0:0:
192,192,63355,1,0,0:0:0:0:
320,192,63546,1,0,0:0:0:0:
64,192,63641,1,0,0:1:0:0:
192,192,63641,1,0,0:0:0:0:
320,192,63736,1,0,0:0:0:0:
448,192,63736,1,0,0:0:0:0:
192,192,63831,1,0,0:0:0:0:
320,192,63927,1,8,3:0:0:0:
64,192,63927,1,8,3:0:0:0:
448,192,64022,1,4,0:0:0:0:
64,192,64117,1,0,0:0:0:0:
320,192,64212,128,0,64498:0:0:0:0:
192,192,64212,1,4,3:1:0:0:
448,192,64498,128,0,64784:0:0:0:0:
192,192,64689,1,4,3:0:0:0:
64,192,64784,128,0,65069:0:0:0:0:
320,192,64784,1,8,3:0:0:0:
448,192,65069,128,0,65260:0:0:0:0:
320,192,65260,128,0,65355:0:0:0:0:
192,192,65355,128,0,65450:0:0:0:0:
64,192,65355,1,8,3:0:0:0:
64,192,65546,128,0,65641:0:0:0:0:
192,192,65641,128,0,65736:0:0:0:0:
320,192,65927,128,0,66212:0:0:0:0:
448,192,65927,1,4,3:0:0:0:
192,192,66212,128,0,66498:0:0:0:0:
320,192,66498,128,0,66784:0:0:0:0:
64,192,66498,1,8,3:0:0:0:
192,192,66784,128,0,67069:0:0:0:0:
448,192,66974,1,8,3:0:0:0:
64,192,67069,128,4,67355:1:0:0:0:
320,192,67069,1,4,1:0:0:0:
448,192,67069,1,4,1:0:0:0:
320,192,67355,128,0,67546:0:0:0:0:
448,192,67355,1,8,3:0:0:0:
192,192,67546,128,0,67641:0:0:0:0:
64,192,67641,128,0,67736:0:0:0:0:
448,192,67641,1,8,3:0:0:0:
320,192,67831,128,0,67927:0:0:0:0:
448,192,67831,128,0,68117:0:0:0:0:
64,192,68212,128,4,68498:1:0:0:0:
192,192,68212,1,4,1:0:0:0:
320,192,68212,1,4,1:0:0:0:
192,192,68498,128,0,68784:0:0:0:0:
320,192,68498,1,0,0:0:0:0:
64,192,68784,128,0,68974:0:0:0:0:
320,192,68784,128,0,68974:0:0:0:0:
448,192,68784,1,8,3:0:0:0:
192,192,69069,128,0,69355:0:0:0:0:
448,192,69260,1,8,3:0:0:0:
320,192,69355,128,0,69641:0:0:0:0:
64,192,69355,1,4,3:0:0:0:
64,192,69641,128,0,69831:0:0:0:0:
192,192,69641,1,0,0:0:0:0:
192,192,69831,128,0,69927:0:0:0:0:
320,192,69927,128,0,70022:0:0:0:0:
448,192,69927,1,4,3:0:0:0:
448,192,70117,128,0,70212:0:0:0:0:
320,192,70212,128,0,70308:0:0:0:0:
64,192,70498,128,0,70784:0:0:0:0:
192,192,70498,128,0,70784:0:0:0:0:
448,192,70498,1,0,0:0:0:0:
320,192,70784,128,0,71069:0:0:0:0:
448,192,71069,128,0,71355:0:0:0:0:
64,192,71069,1,4,1:0:0:0:
192,192,71069,1,4,1:0:0:0:
320,192,71355,128,0,71641:0:0:0:0:
64,192,71546,1,8,3:0:0:0:
192,192,71641,128,0,71927:0:0:0:0:
448,192,71641,1,4,3:0:0:0:
320,192,71927,128,0,72117:0:0:0:0:
192,192,72117,128,0,72212:0:0:0:0:
64,192,72212,128,8,72308:0:3:0:0:
320,192,72403,128,0,72498:0:0:0:0:
192,192,72498,128,0,72593:0:0:0:0:
192,192,72784,128,4,72974:1:0:0:0:
320,192,72784,1,4,1:0:0:0:
448,192,73069,1,0,1:0:0:0:
320,192,73069,128,0,73260:0:0:0:0:
64,192,73069,128,4,73260:0:0:0:0:
192,192,73355,128,0,73546:0:0:0:0:
320,192,73641,128,0,73831:0:0:0:0:
192,192,73831,1,8,3:0:0:0:
64,192,73927,128,0,74117:0:0:0:0:
448,192,73927,1,4,3:0:0:0:
320,192,74212,128,0,74403:0:0:0:0:
192,192,74212,1,0,3:0:0:0:
192,192,74403,128,0,74498:0:0:0:0:
64,192,74498,128,0,74689:0:0:0:0:
448,192,74498,1,8,3:0:0:0:
192,192,74689,128,0,74784:0:0:0:0:
320,192,74784,128,0,74974:0:0:0:0:
64,192,75069,128,0,75260:0:0:0:0:
192,192,75069,1,0,0:0:0:0:
192,192,75355,128,0,75546:0:0:0:0:
320,192,75355,128,0,75546:0:0:0:0:
64,192,75641,128,0,75831:0:0:0:0:
448,192,75641,1,8,3:0:0:0:
192,192,75927,128,0,76117:0:0:0:0:
448,192,76117,1,0,0:0:0:0:
320,192,76212,128,0,76403:0:0:0:0:
64,192,76212,1,0,0:0:0:0:
448,192,76498,128,0,76689:0:0:0:0:
192,192,76498,1,0,0:0:0:0:
64,192,76689,128,0,76784:0:0:0:0:
320,192,76784,128,0,76974:0:0:0:0:
192,192,76784,1,0,0:0:0:0:
448,192,76974,128,0,77069:0:0:0:0:
64,192,76974,128,0,77260:0:0:0:0:
192,192,77069,128,0,77260:0:0:0:0:
448,192,77355,128,0,77546:0:0:0:0:
320,192,77355,1,4,1:0:0:0:
320,192,77641,128,0,77831:0:0:0:0:
64,192,77641,128,0,77927:0:0:0:0:
192,192,77641,1,0,0:0:0:0:
192,192,77927,128,0,78117:0:0:0:0:
448,192,77927,1,0,0:0:0:0:
320,192,78212,128,0,78403:0:0:0:0:
64,192,78403,1,8,3:0:0:0:
192,192,78498,128,0,78689:0:0:0:0:
448,192,78498,1,4,3:0:0:0:
320,192,78689,128,0,78784:0:0:0:0:
64,192,78784,128,0,78974:0:0:0:0:
448,192,78784,1,0,0:0:0:0:
192,192,78974,128,0,79069:0:0:0:0:
320,192,79069,128,0,79260:0:0:0:0:
448,192,79069,1,0,0:0:0:0:
192,192,79355,128,0,79546:0:0:0:0:
320,192,79641,128,0,79831:0:0:0:0:
64,192,79641,1,0,0:0:0:0:
192,192,79831,128,0,79927:0:0:0:0:
64,192,79927,128,0,80117:0:0:0:0:
192,192,80117,128,0,80212:0:0:0:0:
320,192,80212,128,0,80308:0:0:0:0:
448,192,80212,128,0,80403:0:0:0:0:
64,192,80498,128,0,80689:0:0:0:0:
192,192,80498,128,0,80689:0:0:0:0:
192,192,80784,128,0,80974:0:0:0:0:
320,192,80784,128,0,80974:0:0:0:0:
320,192,81069,128,0,81260:0:0:0:0:
448,192,81069,128,0,81260:0:0:0:0:
64,192,81355,128,0,81546:0:0:0:0:
448,192,81355,128,0,81546:0:0:0:0:
192,192,81355,128,4,81546:1:0:0:0:
320,192,81355,128,4,81546:1:0:0:0:
64,192,81831,1,0,0:0:0:0:
192,192,81927,1,0,0:0:0:0:
320,192,82117,1,0,0:0:0:0:
192,192,82212,1,0,0:0:0:0:
64,192,82403,1,0,0:0:0:0:
320,192,82498,128,0,82784:0:0:0:0:
448,192,82498,128,0,82784:0:0:0:0:
192,192,82784,1,8,1:0:0:0:
64,192,82974,1,8,3:0:0:0:
192,192,83069,1,4,3:0:0:0:
320,192,83260,1,0,0:0:0:0:
448,192,83355,1,0,0:0:0:0:
64,192,83355,128,0,83546:0:0:0:0:
192,192,83546,1,0,0:0:0:0:
448,192,83641,128,0,83927:0:0:0:0:
320,192,83641,128,0,83927:0:0:0:0:
64,192,83927,1,8,1:0:0:0:
192,192,84117,1,0,0:0:0:0:
448,192,84117,1,8,3:0:0:0:
64,192,84212,1,0,0:0:0:0:
320,192,84212,1,4,3:0:0:0:
320,192,84403,1,0,0:0:0:0:
64,192,84403,1,8,3:0:0:0:
448,192,84498,1,0,0:0:0:0:
192,192,84498,128,4,84689:3:0:0:0:
448,192,84689,1,8,3:0:0:0:
64,192,84784,128,4,84974:3:0:0:0:
320,192,84784,128,0,84974:0:0:0:0:
448,192,85069,128,0,85260:0:0:0:0:
192,192,85069,128,0,85260:0:0:0:0:
64,192,85355,128,0,85546:0:0:0:0:
320,192,85355,128,0,85546:0:0:0:0:
448,192,85641,128,0,85831:0:0:0:0:
192,192,85641,128,0,85831:0:0:0:0:
320,192,85927,128,0,86117:0:0:0:0:
64,192,85927,128,0,86117:0:0:0:0:
320,192,86403,1,0,0:0:0:0:
64,192,86403,1,8,3:0:0:0:
192,192,86498,1,0,0:0:0:0:
64,192,86689,1,8,3:0:0:0:
320,192,86784,1,0,0:0:0:0:
192,192,86974,1,0,0:0:0:0:
448,192,87069,1,0,0:0:0:0:
320,192,87069,128,12,87355:3:0:0:0:
64,192,87069,128,0,87355:0:0:0:0:
192,192,87355,1,8,0:0:0:0:
320,192,87546,1,0,0:0:0:0:
448,192,87546,1,8,3:0:0:0:
192,192,87641,1,0,0:0:0:0:
64,192,87831,1,8,3:0:0:0:
448,192,87927,1,0,0:0:0:0:
320,192,87927,128,4,88117:3:0:0:0:
64,192,88117,1,0,0:0:0:0:
448,192,88212,128,12,88498:3:0:0:0:
192,192,88212,128,0,88498:0:0:0:0:
320,192,88498,1,8,0:0:0:0:
64,192,88689,1,0,0:0:0:0:
192,192,88689,1,8,3:0:0:0:
320,192,88784,1,0,0:0:0:0:
64,192,88974,1,0,0:0:0:0:
448,192,89069,1,4,0:0:0:0:
64,192,89260,1,0,0:0:0:0:
192,192,89355,128,0,89546:0:0:0:0:
320,192,89355,128,0,89546:0:0:0:0:
448,192,89355,1,0,0:0:0:0:
64,192,89641,128,0,89831:0:0:0:0:
448,192,89641,128,0,89831:0:0:0:0:
192,192,89927,128,0,90117:0:0:0:0:
320,192,89927,128,0,90117:0:0:0:0:
64,192,90212,128,0,90403:0:0:0:0:
448,192,90212,128,0,90403:0:0:0:0:
192,192,90498,128,0,90689:0:0:0:0:
320,192,90498,128,0,90689:0:0:0:0:
64,192,90784,1,0,0:0:0:0:
448,192,90784,1,0,0:0:0:0:
64,192,90974,1,0,0:0:0:0:
192,192,91069,1,0,0:0:0:0:
320,192,91069,1,0,0:0:0:0:
192,192,91260,1,0,0:0:0:0:
320,192,91355,1,0,0:0:0:0:
448,192,91355,1,0,0:0:0:0:
64,192,91355,128,0,91546:0:0:0:0:
192,192,91546,1,0,0:0:0:0:
320,192,91641,128,0,91927:0:0:0:0:
448,192,91641,128,0,91927:0:0:0:0:
192,192,91927,1,8,0:0:0:0:
64,192,92117,1,0,0:0:0:0:
192,192,92212,1,0,0:0:0:0:
320,192,92212,1,0,0:0:0:0:
64,192,92403,1,0,0:0:0:0:
192,192,92498,1,0,0:0:0:0:
448,192,92498,1,0,0:0:0:0:
320,192,92498,128,0,92689:0:0:0:0:
64,192,92689,1,0,0:0:0:0:
192,192,92784,128,0,93069:0:0:0:0:
448,192,92784,128,0,93069:0:0:0:0:
64,192,93069,1,8,0:0:0:0:
448,192,93260,1,0,0:0:0:0:
320,192,93355,1,0,0:0:0:0:
192,192,93546,1,0,0:0:0:0:
320,192,93641,1,0,0:0:0:0:
448,192,93641,128,0,93831:0:0:0:0:
64,192,93927,128,0,94117:0:0:0:0:
192,192,93927,128,0,94022:0:0:0:0:
320,192,93927,128,0,94022:0:0:0:0:
448,192,94212,128,0,94403:0:0:0:0:
192,192,94212,128,0,94308:0:0:0:0:
320,192,94212,128,0,94308:0:0:0:0:
64,192,94498,128,0,94593:0:0:0:0:
320,192,94498,128,0,94593:0:0:0:0:
192,192,94498,128,0,94689:0:0:0:0:
448,192,94784,128,0,94879:0:0:0:0:
320,192,94784,128,0,94974:0:0:0:0:
192,192,94784,128,0,94879:0:0:0:0:
64,192,95069,128,0,95260:0:0:0:0:
192,192,95069,128,0,95165:0:0:0:0:
320,192,95069,128,0,95260:0:0:0:0:
192,192,95355,1,0,0:0:0:0:
448,192,95355,1,0,0:0:0:0:
320,192,95546,1,0,0:0:0:0:
64,192,95546,1,8,3:0:0:0:
448,192,95641,1,0,0:0:0:0:
192,192,95641,1,4,3:0:0:0:
192,192,95831,1,0,0:0:0:0:
64,192,95927,1,0,0:0:0:0:
448,192,95927,1,0,0:0:0:0:
448,192,96117,1,0,0:0:0:0:
64,192,96212,1,0,0:0:0:0:
192,192,96212,128,0,96498:0:0:0:0:
320,192,96212,128,0,96498:0:0:0:0:
448,192,96498,1,8,0:0:0:0:
320,192,96689,1,0,0:0:0:0:
64,192,96784,1,0,0:0:0:0:
192,192,96784,1,4,3:0:0:0:
192,192,96974,1,0,0:0:0:0:
320,192,96974,1,0,0:0:0:0:
64,192,97069,1,0,0:0:0:0:
448,192,97069,128,0,97260:0:0:0:0:
320,192,97260,1,0,0:0:0:0:
64,192,97355,128,0,97641:0:0:0:0:
192,192,97355,128,0,97641:0:0:0:0:
448,192,97641,1,8,0:0:0:0:
64,192,97831,1,0,0:0:0:0:
320,192,97831,1,8,3:0:0:0:
192,192,97927,1,0,0:0:0:0:
448,192,97927,1,4,3:0:0:0:
448,192,98117,1,0,0:0:0:0:
64,192,98117,1,0,0:0:0:0:
192,192,98212,1,0,0:0:0:0:
320,192,98212,128,0,98403:0:0:0:0:
448,192,98403,1,0,0:0:0:0:
192,192,98498,128,0,98689:0:0:0:0:
64,192,98498,128,0,98689:0:0:0:0:
448,192,98784,128,0,98974:0:0:0:0:
320,192,98784,1,0,0:0:0:0:
192,192,99069,128,0,99260:0:0:0:0:
64,192,99069,1,0,0:0:0:0:
320,192,99355,128,0,99546:0:0:0:0:
448,192,99355,1,0,0:0:0:0:
64,192,99641,128,0,99831:0:0:0:0:
448,192,99641,128,0,99831:0:0:0:0:
192,192,99831,1,0,0:0:0:0:
320,192,99831,1,0,0:0:0:0:
448,192,99927,1,4,1:0:0:0:
64,192,99927,1,4,2:0:0:0:
192,192,100117,1,0,0:0:0:0:
448,192,100117,1,0,0:0:0:0:
320,192,100212,1,0,0:0:0:0:
64,192,100308,1,0,0:0:0:0:
192,192,100403,1,0,0:0:0:0:
448,192,100498,1,0,0:0:0:0:
320,192,100689,1,0,0:0:0:0:
192,192,100784,128,0,101069:0:0:0:0:
448,192,100784,128,0,101069:0:0:0:0:
64,192,100784,128,0,100974:0:0:0:0:
320,192,101069,128,0,101260:0:0:0:0:
64,192,101260,1,0,0:0:0:0:
192,192,101355,1,4,3:0:0:0:
64,192,101355,1,0,0:0:0:0:
448,192,101355,128,0,101546:0:0:0:0:
192,192,101641,128,0,101831:0:0:0:0:
320,192,101831,1,0,0:0:0:0:
448,192,101927,128,0,102212:0:0:0:0:
192,192,101927,1,0,0:0:0:0:
64,192,101927,128,0,102212:0:0:0:0:
320,192,102117,1,0,0:0:0:0:
192,192,102212,128,0,102403:0:0:0:0:
448,192,102498,128,0,102689:0:0:0:0:
64,192,102498,1,0,0:0:0:0:
320,192,102498,1,0,0:0:0:0:
320,192,102784,128,0,102974:0:0:0:0:
192,192,103069,128,0,103355:0:0:0:0:
64,192,103069,128,0,103355:0:0:0:0:
448,192,103069,128,0,103260:0:0:0:0:
320,192,103355,128,0,103546:0:0:0:0:
448,192,103546,1,0,0:0:0:0:
64,192,103641,1,4,3:0:0:0:
320,192,103641,1,0,0:0:0:0:
192,192,103641,128,0,103831:0:0:0:0:
320,192,103927,128,0,104117:0:0:0:0:
192,192,104117,1,0,0:0:0:0:
448,192,104212,1,0,0:0:0:0:
192,192,104403,1,0,0:0:0:0:
64,192,104498,128,0,104689:0:0:0:0:
192,192,104784,128,0,104974:0:0:0:0:
320,192,104784,1,0,0:0:0:0:
448,192,104784,128,0,104974:0:0:0:0:
64,192,105069,128,0,105260:0:0:0:0:
192,192,105355,128,0,105546:0:0:0:0:
448,192,105355,1,0,0:0:0:0:
320,192,105641,128,0,105831:0:0:0:0:
448,192,105831,1,8,3:0:0:0:
192,192,105927,128,0,106117:0:0:0:0:
320,192,105927,1,4,3:0:0:0:
64,192,105927,1,0,0:0:0:0:
448,192,106212,128,0,106403:0:0:0:0:
192,192,106403,1,0,0:0:0:0:
320,192,106498,128,0,106689:0:0:0:0:
64,192,106498,1,0,0:0:0:0:
192,192,106689,1,0,0:0:0:0:
64,192,106784,1,0,0:0:0:0:
448,192,107069,128,0,107260:0:0:0:0:
320,192,107069,1,0,0:0:0:0:
64,192,107069,1,0,0:0:0:0:
320,192,107355,128,0,107546:0:0:0:0:
192,192,107641,128,0,107831:0:0:0:0:
64,192,107641,1,0,0:0:0:0:
448,192,107927,128,0,108117:0:0:0:0:
64,192,108117,1,0,0:0:0:0:
320,192,108212,128,0,108403:0:0:0:0:
192,192,108212,1,4,3:0:0:0:
64,192,108212,1,0,0:0:0:0:
192,192,108498,128,0,108689:0:0:0:0:
448,192,108689,1,0,0:0:0:0:
64,192,108784,128,0,108974:0:0:0:0:
320,192,108784,1,0,0:0:0:0:
192,192,108974,1,0,0:0:0:0:
448,192,109069,128,0,109260:0:0:0:0:
192,192,109260,1,0,0:0:0:0:
320,192,109355,128,0,109546:0:0:0:0:
64,192,109355,1,0,0:0:0:0:
192,192,109355,1,0,0:0:0:0:
64,192,109641,128,0,109831:0:0:0:0:
320,192,109927,128,0,110117:0:0:0:0:
192,192,109927,1,0,0:0:0:0:
64,192,110212,128,0,110403:0:0:0:0:
192,192,110403,1,0,0:0:0:0:
192,192,110498,128,0,110689:0:0:0:0:
320,192,110498,1,4,3:0:0:0:
448,192,110498,1,0,0:0:0:0:
448,192,110784,128,0,110974:0:0:0:0:
320,192,110974,1,0,0:0:0:0:
64,192,111069,128,0,111260:0:0:0:0:
192,192,111069,1,0,0:0:0:0:
320,192,111260,1,0,0:0:0:0:
192,192,111355,1,0,0:0:0:0:
320,192,111641,128,0,111831:0:0:0:0:
64,192,111641,1,0,0:0:0:0:
448,192,111641,1,0,0:0:0:0:
192,192,111927,128,0,112117:0:0:0:0:
320,192,112212,128,0,112403:0:0:0:0:
448,192,112212,1,0,0:0:0:0:
192,192,112498,128,0,112689:0:0:0:0:
320,192,112689,1,0,0:0:0:0:
448,192,112784,128,0,112974:0:0:0:0:
320,192,112784,1,4,3:0:0:0:
64,192,112784,1,0,0:0:0:0:
64,192,113069,128,0,113260:0:0:0:0:
320,192,113260,1,0,0:0:0:0:
192,192,113355,128,0,113546:0:0:0:0:
448,192,113355,1,0,0:0:0:0:
320,192,113546,1,0,0:0:0:0:
448,192,113641,128,0,113831:0:0:0:0:
64,192,113927,128,0,114117:0:0:0:0:
320,192,113927,1,0,0:0:0:0:
192,192,113927,1,0,0:0:0:0:
320,192,114212,128,0,114403:0:0:0:0:
192,192,114498,128,0,114689:0:0:0:0:
64,192,114498,1,0,0:0:0:0:
448,192,114784,128,0,114974:0:0:0:0:
192,192,114974,1,0,0:0:0:0:
320,192,115069,128,0,115260:0:0:0:0:
64,192,115069,1,4,3:0:0:0:
192,192,115069,1,0,0:0:0:0:
192,192,115260,1,0,0:0:0:0:
64,192,115355,1,0,0:0:0:0:
320,192,115546,1,0,0:0:0:0:
192,192,115641,128,0,115831:0:0:0:0:
64,192,115641,1,0,0:0:0:0:
448,192,115641,1,0,0:0:0:0:
320,192,115927,128,0,116117:0:0:0:0:
448,192,116117,1,0,0:0:0:0:
192,192,116212,128,0,116403:0:0:0:0:
448,192,116212,1,0,0:0:0:0:
64,192,116212,1,0,0:0:0:0:
320,192,116403,1,0,0:0:0:0:
64,192,116498,1,0,0:0:0:0:
192,192,116689,1,0,0:0:0:0:
320,192,116784,128,0,116974:0:0:0:0:
64,192,116784,128,0,116974:0:0:0:0:
192,192,117069,128,0,117260:0:0:0:0:
320,192,117355,128,0,117546:0:0:0:0:
448,192,117355,128,0,117546:0:0:0:0:
192,192,117641,128,0,117831:0:0:0:0:
64,192,117927,128,0,119260:0:0:0:0:
448,192,117927,128,0,119260:0:0:0:0:
320,192,117927,128,0,119260:0:0:0:0:
192,192,119641,1,2,3:0:0:0:
320,192,120784,1,2,3:0:0:0:
64,192,121355,1,2,3:0:0:0:
320,192,121927,1,2,3:0:0:0:
448,192,121927,1,2,3:0:0:0:
192,192,122498,1,2,3:0:0:0:
448,192,122784,1,2,3:0:0:0:
192,192,123069,1,2,3:0:0:0:
64,192,123069,1,2,3:0:0:0:
192,192,123355,1,2,3:0:0:0:
64,192,123641,1,2,3:0:0:0:
192,192,123927,1,2,3:0:0:0:
320,192,124212,1,2,3:0:0:0:
448,192,124212,1,2,3:0:0:0:
64,192,124498,1,2,3:0:0:0:
320,192,124784,1,2,3:0:0:0:
192,192,125355,1,2,3:0:0:0:
320,192,125355,1,2,3:0:0:0:
192,192,125927,1,2,3:0:0:0:
448,192,126212,1,2,3:0:0:0:
64,192,126498,1,2,3:0:0:0:
192,192,126498,1,2,3:0:0:0:
448,192,126784,1,2,3:0:0:0:
64,192,127069,1,2,3:0:0:0:
192,192,127355,1,2,3:0:0:0:
448,192,127546,1,2,3:0:0:0:
64,192,127641,1,2,3:0:0:0:
320,192,127641,1,2,3:0:0:0:
192,192,127927,1,2,3:0:0:0:
320,192,128212,1,2,3:0:0:0:
448,192,128498,1,2,3:0:0:0:
64,192,128784,1,2,3:0:0:0:
192,192,128784,1,2,3:0:0:0:
320,192,129069,1,2,3:0:0:0:
192,192,129355,1,2,3:0:0:0:
192,192,129927,1,2,3:0:0:0:
320,192,129927,1,2,3:0:0:0:
448,192,130212,1,2,3:0:0:0:
320,192,130498,1,2,3:0:0:0:
64,192,130784,1,2,3:0:0:0:
320,192,131069,1,2,3:0:0:0:
448,192,131069,1,2,3:0:0:0:
192,192,131355,1,2,3:0:0:0:
448,192,131641,1,2,3:0:0:0:
320,192,131927,1,2,3:0:0:0:
192,192,132212,1,2,3:0:0:0:
320,192,132212,1,2,3:0:0:0:
320,192,132784,1,2,3:0:0:0:
64,192,133069,1,2,3:0:0:0:
192,192,133355,1,2,3:0:0:0:
320,192,133355,1,2,3:0:0:0:
320,192,133641,1,2,3:0:0:0:
192,192,133927,1,2,3:0:0:0:
448,192,134212,1,2,3:0:0:0:
64,192,134498,1,2,3:0:0:0:
192,192,134498,1,2,3:0:0:0:
192,192,135069,1,2,3:0:0:0:
448,192,135355,1,2,3:0:0:0:
64,192,135641,1,2,3:0:0:0:
192,192,135641,1,2,3:0:0:0:
448,192,136212,1,8,3:0:0:0:
320,192,136212,1,8,3:0:0:0:
192,192,136308,1,8,3:0:0:0:
448,192,136403,1,8,3:0:0:0:
64,192,136498,1,8,3:0:0:0:
192,192,136593,1,8,3:0:0:0:
320,192,136689,1,8,3:0:0:0:
192,192,136784,1,0,0:0:0:0:
64,192,136784,1,0,0:0:0:0:
64,192,137069,1,4,2:0:0:0:
448,192,137069,1,4,2:0:0:0:
64,192,137260,128,4,138117:0:0:0:0:
448,192,137260,128,4,138117:0:0:0:0:
320,192,138498,1,0,0:0:0:0:
64,192,138498,1,0,0:0:0:0:
320,192,139069,1,0,0:0:0:0:
448,192,139641,1,4,2:0:0:0:
64,192,139927,1,0,0:0:0:0:
192,192,139927,1,0,0:0:0:0:
320,192,140212,1,0,0:0:0:0:
448,192,140212,1,0,0:0:0:0:
320,192,140498,1,0,0:0:0:0:
192,192,140784,1,0,0:0:0:0:
320,192,140784,1,0,0:0:0:0:
320,192,141355,1,0,0:0:0:0:
448,192,141927,1,0,0:0:0:0:
192,192,141927,1,0,0:0:0:0:
448,192,142212,1,4,3:0:0:0:
64,192,142498,1,0,0:0:0:0:
320,192,142784,1,8,3:0:0:0:
64,192,143069,1,0,0:0:0:0:
192,192,143069,1,0,0:0:0:0:
448,192,143641,1,0,0:0:0:0:
192,192,144212,1,0,0:0:0:0:
448,192,144498,1,0,0:0:0:0:
64,192,144784,1,4,0:0:0:0:
192,192,144784,1,4,0:0:0:0:
320,192,145069,1,0,0:0:0:0:
64,192,145355,1,0,0:0:0:0:
192,192,145355,1,0,0:0:0:0:
448,192,145546,1,0,0:0:0:0:
64,192,145736,1,0,0:0:0:0:
192,192,145927,1,0,0:0:0:0:
320,192,145927,1,0,0:0:0:0:
448,192,146212,1,0,0:0:0:0:
64,192,146498,1,4,0:0:0:0:
320,192,147069,1,0,0:0:0:0:
64,192,147641,1,0,0:0:0:0:
192,192,147641,1,0,0:0:0:0:
64,192,148212,1,0,0:0:0:0:
448,192,148784,1,0,0:0:0:0:
192,192,149069,1,0,0:0:0:0:
320,192,149069,1,0,0:0:0:0:
320,192,149355,1,0,0:0:0:0:
448,192,149355,1,8,3:0:0:0:
64,192,149641,1,0,0:0:0:0:
320,192,149927,1,0,0:0:0:0:
448,192,149927,1,0,0:0:0:0:
64,192,150212,1,0,0:0:0:0:
192,192,150498,1,8,3:0:0:0:
448,192,150498,1,0,0:0:0:0:
320,192,150784,1,0,0:0:0:0:
192,192,151069,1,0,0:0:0:0:
320,192,151069,128,0,152212:0:0:0:0:
448,192,151641,1,0,0:0:0:0:
64,192,152212,1,0,0:0:0:0:
448,192,152212,1,0,0:0:0:0:
192,192,152212,128,0,153641:0:0:0:0:
320,192,152784,1,0,0:0:0:0:
320,192,153641,1,0,0:0:0:0:
320,192,153927,1,0,0:0:0:0:
448,192,153927,128,0,154498:0:0:0:0:
64,192,154498,128,0,154974:0:0:0:0:
192,192,154498,128,0,154974:0:0:0:0:
320,192,155069,128,0,155641:0:0:0:0:
448,192,155069,128,0,155641:0:0:0:0:
192,192,155641,1,0,0:0:0:0:
64,192,155641,1,0,0:0:0:0:
64,192,155927,1,0,0:0:0:0:
448,192,156212,1,0,0:0:0:0:
192,192,156498,1,0,0:0:0:0:
320,192,156689,1,0,0:0:0:0:
448,192,156784,1,0,0:0:0:0:
320,192,156974,1,0,0:0:0:0:
192,192,157069,1,0,0:0:0:0:
64,192,157355,1,0,0:0:0:0:
192,192,157641,1,0,0:0:0:0:
320,192,157927,128,0,158117:0:0:0:0:
448,192,157927,128,0,158117:0:0:0:0:
64,192,158212,1,0,0:0:0:0:
320,192,158498,1,0,0:0:0:0:
192,192,158784,1,0,0:0:0:0:
320,192,158974,1,0,0:0:0:0:
64,192,158974,1,0,0:0:0:0:
448,192,159069,1,0,0:0:0:0:
64,192,159260,1,0,0:0:0:0:
320,192,159260,1,0,0:0:0:0:
192,192,159355,1,0,0:0:0:0:
320,192,159641,1,0,0:0:0:0:
192,192,159927,1,0,0:0:0:0:
64,192,160212,128,0,160403:0:0:0:0:
192,192,160212,128,0,160403:0:0:0:0:
448,192,160212,128,0,160403:0:0:0:0:
320,192,160498,1,0,0:0:0:0:
320,192,160784,1,0,0:0:0:0:
320,192,161069,1,0,0:0:0:0:
192,192,161260,1,0,0:0:0:0:
320,192,161355,1,0,0:0:0:0:
192,192,161546,1,0,0:0:0:0:
64,192,161641,1,0,0:0:0:0:
192,192,161927,1,0,0:0:0:0:
320,192,162212,1,0,0:0:0:0:
192,192,162498,128,0,162689:0:0:0:0:
320,192,162498,128,0,162689:0:0:0:0:
64,192,162784,1,0,0:0:0:0:
320,192,163069,1,0,0:0:0:0:
320,192,163355,1,0,0:0:0:0:
192,192,163546,1,0,0:0:0:0:
448,192,163546,1,0,0:0:0:0:
64,192,163641,1,0,0:0:0:0:
448,192,163831,1,0,0:0:0:0:
192,192,163831,1,0,0:0:0:0:
320,192,163927,1,0,0:0:0:0:
320,192,164212,1,0,0:0:0:0:
192,192,164498,1,0,0:0:0:0:
448,192,164784,128,0,164974:0:0:0:0:
64,192,164784,128,0,164974:0:0:0:0:
320,192,165069,128,0,165260:0:0:0:0:
192,192,165355,128,0,165546:0:0:0:0:
320,192,165641,128,0,165831:0:0:0:0:
192,192,165831,128,0,165927:0:0:0:0:
64,192,165927,128,0,166117:0:0:0:0:
192,192,166117,128,0,166212:0:0:0:0:
320,192,166212,128,0,166403:0:0:0:0:
192,192,166498,128,0,166689:0:0:0:0:
320,192,166784,128,0,166974:0:0:0:0:
192,192,167069,128,0,167260:0:0:0:0:
448,192,167069,128,0,167260:0:0:0:0:
64,192,167069,128,0,167260:0:0:0:0:
320,192,167355,128,0,167546:0:0:0:0:
192,192,167641,128,0,167831:0:0:0:0:
320,192,167927,128,0,168117:0:0:0:0:
192,192,168117,128,0,168212:0:0:0:0:
64,192,168212,128,0,168403:0:0:0:0:
320,192,168403,128,0,168498:0:0:0:0:
448,192,168498,128,0,168689:0:0:0:0:
320,192,168784,128,0,168974:0:0:0:0:
448,192,169069,128,0,169260:0:0:0:0:
320,192,169355,128,0,169546:0:0:0:0:
64,192,169355,128,0,169546:0:0:0:0:
192,192,169355,128,0,169546:0:0:0:0:
448,192,169641,128,0,169831:0:0:0:0:
320,192,169927,128,0,170117:0:0:0:0:
192,192,170117,128,0,170212:0:0:0:0:
64,192,170212,128,0,170403:0:0:0:0:
192,192,170403,128,0,170498:0:0:0:0:
320,192,170498,128,0,170689:0:0:0:0:
192,192,170784,128,0,170974:0:0:0:0:
320,192,171069,128,0,171260:0:0:0:0:
192,192,171260,128,0,171355:0:0:0:0:
64,192,171355,128,0,171546:0:0:0:0:
192,192,171546,128,0,171641:0:0:0:0:
320,192,171641,128,4,171831:2:0:0:0:
448,192,171641,128,4,171831:1:0:0:0:
64,192,171927,128,4,172117:1:0:0:0:
448,192,171927,128,4,172117:2:0:0:0:
192,192,172212,128,4,172403:2:1:0:0:
448,192,172498,128,4,172689:1:0:0:0:
64,192,172498,128,4,172689:2:0:0:0:
320,192,172498,128,4,172689:2:0:0:0:
192,192,172784,128,4,172974:3:0:0:0:
64,192,172784,128,4,172974:1:0:0:0:
320,192,172784,128,4,172974:2:0:0:0:
448,192,172784,128,4,172974:1:0:0:0:
448,192,173260,1,0,0:0:0:0:
320,192,173355,1,0,0:0:0:0:
192,192,173546,1,0,0:0:0:0:
64,192,173641,1,0,0:0:0:0:
192,192,173831,1,0,0:0:0:0:
448,192,173927,128,0,174212:0:0:0:0:
320,192,173927,1,0,0:0:0:0:
64,192,173927,128,0,174212:0:0:0:0:
320,192,174212,1,8,1:0:0:0:
320,192,174403,1,0,0:0:0:0:
64,192,174498,1,0,0:0:0:0:
192,192,174498,1,0,0:0:0:0:
320,192,174689,1,0,0:0:0:0:
448,192,174784,1,0,0:0:0:0:
64,192,174784,128,0,174974:0:0:0:0:
192,192,174974,1,0,0:0:0:0:
320,192,175069,1,0,0:0:0:0:
448,192,175069,128,0,175260:0:0:0:0:
192,192,175069,128,0,175260:0:0:0:0:
64,192,175355,1,8,1:0:0:0:
192,192,175546,1,0,0:0:0:0:
320,192,175641,1,0,0:0:0:0:
64,192,175641,1,0,0:0:0:0:
448,192,175831,1,0,0:0:0:0:
320,192,175927,1,0,0:0:0:0:
64,192,175927,128,0,176117:0:0:0:0:
192,192,176117,1,0,0:0:0:0:
320,192,176212,1,0,0:0:0:0:
448,192,176212,128,0,176403:0:0:0:0:
192,192,176498,1,0,0:0:0:0:
64,192,176498,128,0,176689:0:0:0:0:
320,192,176784,1,0,0:0:0:0:
448,192,176784,128,0,176974:0:0:0:0:
192,192,177069,1,0,0:0:0:0:
320,192,177069,128,0,177260:0:0:0:0:
64,192,177355,1,0,0:0:0:0:
192,192,177355,128,0,177546:0:0:0:0:
448,192,177355,128,0,177546:0:0:0:0:
320,192,177641,1,8,1:0:0:0:
192,192,177831,1,0,0:0:0:0:
320,192,177927,1,0,0:0:0:0:
448,192,177927,1,0,0:0:0:0:
192,192,178117,1,0,0:0:0:0:
320,192,178212,1,0,0:0:0:0:
192,192,178403,1,0,0:0:0:0:
320,192,178498,1,0,0:0:0:0:
448,192,178498,128,0,178689:0:0:0:0:
64,192,178498,128,0,178689:0:0:0:0:
192,192,178784,1,8,1:0:0:0:
320,192,178974,1,0,0:0:0:0:
64,192,179069,1,0,0:0:0:0:
448,192,179069,1,0,0:0:0:0:
320,192,179260,1,0,0:0:0:0:
192,192,179355,1,0,0:0:0:0:
64,192,179355,128,0,179546:0:0:0:0:
320,192,179546,1,0,0:0:0:0:
448,192,179641,1,0,0:0:0:0:
192,192,179641,128,0,179831:0:0:0:0:
320,192,179641,128,0,179831:0:0:0:0:
64,192,179927,1,8,1:0:0:0:
448,192,180117,1,0,0:0:0:0:
320,192,180212,1,0,0:0:0:0:
192,192,180212,1,0,0:0:0:0:
448,192,180403,1,0,0:0:0:0:
320,192,180498,1,0,0:0:0:0:
192,192,180498,128,0,180689:0:0:0:0:
64,192,180689,1,0,0:0:0:0:
320,192,180784,1,0,0:0:0:0:
448,192,180784,128,0,180974:0:0:0:0:
192,192,181069,1,0,0:0:0:0:
64,192,181069,128,0,181260:0:0:0:0:
320,192,181355,1,0,0:0:0:0:
448,192,181355,128,0,181546:0:0:0:0:
64,192,181641,1,0,0:0:0:0:
192,192,181641,128,0,181831:0:0:0:0:
320,192,181927,1,0,0:0:0:0:
448,192,181927,128,0,182117:0:0:0:0:
64,192,182117,1,0,0:0:0:0:
320,192,182212,1,8,3:0:0:0:
192,192,182308,1,8,3:0:0:0:
320,192,182403,1,8,3:0:0:0:
64,192,182498,1,8,3:0:0:0:
320,192,182593,1,8,3:0:0:0:
448,192,182689,1,8,3:0:0:0:
320,192,182784,1,4,0:0:0:0:
64,192,182784,1,4,0:0:0:0:
192,192,182784,1,4,2:0:0:0:
64,192,182974,1,0,0:0:0:0:
320,192,183069,128,0,183260:0:0:0:0:
448,192,183069,128,0,183260:0:0:0:0:
192,192,183069,1,0,0:0:0:0:
192,192,183355,1,8,1:0:0:0:
64,192,183355,128,0,183450:0:0:0:0:
320,192,183546,1,0,0:0:0:0:
192,192,183641,1,0,0:0:0:0:
64,192,183831,1,0,0:0:0:0:
320,192,183927,1,0,0:0:0:0:
448,192,183927,128,0,184117:0:0:0:0:
192,192,184117,1,0,0:0:0:0:
320,192,184212,1,0,0:0:0:0:
64,192,184212,128,0,184403:0:0:0:0:
192,192,184212,128,0,184403:0:0:0:0:
320,192,184498,1,8,1:0:0:0:
192,192,184689,1,0,0:0:0:0:
448,192,184784,1,0,0:0:0:0:
320,192,184784,1,0,0:0:0:0:
64,192,184974,1,0,0:0:0:0:
192,192,185069,1,0,0:0:0:0:
448,192,185069,128,0,185260:0:0:0:0:
320,192,185260,1,0,0:0:0:0:
64,192,185355,1,0,0:0:0:0:
192,192,185355,128,0,185546:0:0:0:0:
448,192,185641,1,0,0:0:0:0:
320,192,185641,128,0,185831:0:0:0:0:
192,192,185927,1,0,0:0:0:0:
64,192,185927,128,0,186117:0:0:0:0:
320,192,186212,1,0,0:0:0:0:
192,192,186212,128,0,186403:0:0:0:0:
320,192,186498,1,0,0:0:0:0:
448,192,186498,128,0,186689:0:0:0:0:
64,192,186784,1,8,1:0:0:0:
320,192,186974,1,0,0:0:0:0:
64,192,187069,1,0,0:0:0:0:
192,192,187069,1,0,0:0:0:0:
448,192,187260,1,0,0:0:0:0:
320,192,187355,1,0,0:0:0:0:
64,192,187355,128,0,187546:0:0:0:0:
192,192,187546,1,0,0:0:0:0:
448,192,187641,1,0,0:0:0:0:
320,192,187641,128,0,187831:0:0:0:0:
192,192,187641,128,0,187831:0:0:0:0:
448,192,187927,1,8,1:0:0:0:
192,192,188117,1,0,0:0:0:0:
320,192,188212,1,0,0:0:0:0:
64,192,188212,1,0,0:0:0:0:
448,192,188403,1,0,0:0:0:0:
320,192,188498,1,0,0:0:0:0:
192,192,188498,128,0,188689:0:0:0:0:
64,192,188689,1,0,0:0:0:0:
192,192,188784,1,0,0:0:0:0:
448,192,188784,128,0,188974:0:0:0:0:
320,192,188784,128,0,188974:0:0:0:0:
320,192,189069,1,8,1:0:0:0:
64,192,189260,1,0,0:0:0:0:
192,192,189355,1,0,0:0:0:0:
448,192,189355,1,0,0:0:0:0:
320,192,189546,1,0,0:0:0:0:
64,192,189641,1,0,0:0:0:0:
448,192,189641,128,0,189831:0:0:0:0:
192,192,189831,1,0,0:0:0:0:
64,192,189927,128,0,190117:0:0:0:0:
320,192,189927,128,0,190117:0:0:0:0:
192,192,190212,128,0,190403:0:0:0:0:
448,192,190212,128,0,190403:0:0:0:0:
64,192,190498,128,0,190689:0:0:0:0:
320,192,190498,128,0,190689:0:0:0:0:
192,192,190784,128,0,190974:0:0:0:0:
448,192,190784,128,0,190974:0:0:0:0:
320,192,191069,128,0,191355:0:0:0:0:
448,192,191546,1,0,0:0:0:0:
64,192,191641,1,0,0:0:0:0:
192,192,191641,1,0,0:0:0:0:
192,192,191831,1,0,0:0:0:0:
448,192,191927,1,8,3:0:0:0:
320,192,191927,1,8,3:0:0:0:
64,192,191927,1,0,0:0:0:0:
64,192,192117,1,0,0:0:0:0:
192,192,192212,128,0,192403:0:0:0:0:
320,192,192212,1,0,0:0:0:0:
448,192,192212,1,0,0:0:0:0:
320,192,192498,128,0,192689:0:0:0:0:
448,192,192498,1,0,0:0:0:0:
64,192,192689,1,0,0:0:0:0:
192,192,192784,128,0,192974:0:0:0:0:
320,192,192784,1,0,0:0:0:0:
448,192,192784,1,0,0:0:0:0:
320,192,193069,128,0,193260:0:0:0:0:
448,192,193069,1,0,0:0:0:0:
192,192,193260,128,0,193355:0:0:0:0:
64,192,193355,128,0,193546:0:0:0:0:
320,192,193355,1,0,0:0:0:0:
448,192,193355,1,0,0:0:0:0:
192,192,193546,128,0,193641:0:0:0:0:
320,192,193641,128,0,193831:0:0:0:0:
192,192,193927,128,0,194117:0:0:0:0:
64,192,193927,1,0,0:0:0:0:
448,192,193927,1,0,0:0:0:0:
448,192,194212,128,0,194403:0:0:0:0:
320,192,194212,1,0,0:0:0:0:
320,192,194498,128,0,194689:0:0:0:0:
192,192,194498,1,0,0:0:0:0:
192,192,194784,128,0,194974:0:0:0:0:
448,192,194974,1,0,0:0:0:0:
448,192,195069,128,0,195260:0:0:0:0:
64,192,195069,1,0,0:0:0:0:
320,192,195069,1,0,0:0:0:0:
320,192,195355,128,0,195546:0:0:0:0:
192,192,195355,1,0,0:0:0:0:
192,192,195546,128,0,195641:0:0:0:0:
64,192,195641,128,0,195831:0:0:0:0:
448,192,195641,1,0,0:0:0:0:
192,192,195831,128,0,195927:0:0:0:0:
320,192,195927,128,0,196117:0:0:0:0:
448,192,195927,1,0,0:0:0:0:
192,192,196212,128,0,196403:0:0:0:0:
64,192,196212,1,0,0:0:0:0:
448,192,196212,1,0,0:0:0:0:
448,192,196498,128,0,196689:0:0:0:0:
64,192,196498,1,0,0:0:0:0:
64,192,196784,128,0,196974:0:0:0:0:
320,192,196784,1,0,0:0:0:0:
320,192,197069,128,0,197260:0:0:0:0:
192,192,197069,1,0,0:0:0:0:
448,192,197260,1,0,0:0:0:0:
192,192,197355,128,0,197546:0:0:0:0:
64,192,197355,1,0,0:0:0:0:
320,192,197355,1,0,0:0:0:0:
448,192,197641,128,0,197831:0:0:0:0:
64,192,197641,1,0,0:0:0:0:
320,192,197831,128,0,197927:0:0:0:0:
192,192,197927,128,0,198117:0:0:0:0:
64,192,197927,1,0,0:0:0:0:
320,192,198117,128,0,198212:0:0:0:0:
448,192,198212,128,0,198403:0:0:0:0:
64,192,198498,128,0,198689:0:0:0:0:
192,192,198498,1,0,0:0:0:0:
320,192,198498,1,0,0:0:0:0:
192,192,198784,128,0,198974:0:0:0:0:
320,192,198784,1,0,0:0:0:0:
320,192,199069,128,0,199260:0:0:0:0:
64,192,199069,128,0,199260:0:0:0:0:
448,192,199069,1,0,0:0:0:0:
192,192,199355,128,0,199546:0:0:0:0:
64,192,199546,1,0,0:0:0:0:
320,192,199641,128,0,199831:0:0:0:0:
192,192,199641,1,0,0:0:0:0:
448,192,199641,1,0,0:0:0:0:
192,192,199927,128,0,200117:0:0:0:0:
448,192,199927,1,0,0:0:0:0:
320,192,200117,128,0,200212:0:0:0:0:
64,192,200117,1,0,0:0:0:0:
192,192,200212,128,0,200403:0:0:0:0:
448,192,200212,1,0,0:0:0:0:
320,192,200403,128,0,200498:0:0:0:0:
64,192,200403,1,0,0:0:0:0:
192,192,200498,128,0,200689:0:0:0:0:
320,192,200689,1,0,0:0:0:0:
64,192,200784,128,0,200974:0:0:0:0:
448,192,200784,1,0,0:0:0:0:
448,192,201069,128,0,201260:0:0:0:0:
192,192,201069,128,0,201260:0:0:0:0:
320,192,201069,1,0,0:0:0:0:
64,192,201355,128,0,201546:0:0:0:0:
320,192,201355,128,0,201546:0:0:0:0:
448,192,201641,128,0,201831:0:0:0:0:
192,192,201641,1,0,0:0:0:0:
64,192,201831,1,0,0:0:0:0:
320,192,201927,128,0,202117:0:0:0:0:
448,192,201927,1,0,0:0:0:0:
192,192,201927,128,0,202022:0:0:0:0:
192,192,202212,128,0,202403:0:0:0:0:
320,192,202212,1,0,0:0:0:0:
448,192,202212,128,0,202308:0:0:0:0:
320,192,202403,128,0,202498:0:0:0:0:
448,192,202498,128,0,202689:0:0:0:0:
64,192,202498,128,0,202593:0:0:0:0:
192,192,202498,128,0,202689:0:0:0:0:
320,192,202689,128,0,202784:0:0:0:0:
192,192,202784,128,0,202974:0:0:0:0:
64,192,202784,128,0,202879:0:0:0:0:
64,192,203069,128,0,203260:0:0:0:0:
448,192,203069,128,0,203165:0:0:0:0:
320,192,203069,1,0,0:0:0:0:
192,192,203069,1,0,0:0:0:0:
320,192,203355,128,0,203546:0:0:0:0:
192,192,203355,128,0,203450:0:0:0:0:
448,192,203355,128,0,203450:0:0:0:0:
448,192,203641,128,0,203831:0:0:0:0:
64,192,203641,128,0,203831:0:0:0:0:
192,192,203641,128,0,203736:0:0:0:0:
192,192,203927,128,0,204117:0:0:0:0:
320,192,203927,128,0,204022:0:0:0:0:
64,192,204117,1,0,0:0:0:0:
448,192,204212,128,0,204403:0:0:0:0:
192,192,204212,1,0,0:0:0:0:
320,192,204212,128,0,204308:0:0:0:0:
64,192,204212,1,0,0:0:0:0:
192,192,204498,128,0,204689:0:0:0:0:
320,192,204498,128,0,204593:0:0:0:0:
64,192,204689,128,0,204784:0:0:0:0:
320,192,204784,128,0,204974:0:0:0:0:
192,192,204784,128,0,204879:0:0:0:0:
448,192,204784,128,0,204974:0:0:0:0:
192,192,204974,128,0,205069:0:0:0:0:
64,192,205069,128,0,205260:0:0:0:0:
448,192,205069,128,0,205165:0:0:0:0:
192,192,205355,128,0,205546:0:0:0:0:
448,192,205355,128,0,205450:0:0:0:0:
64,192,205355,1,0,0:0:0:0:
320,192,205355,1,0,0:0:0:0:
320,192,205641,128,0,205831:0:0:0:0:
64,192,205641,128,0,205736:0:0:0:0:
448,192,205641,128,0,205736:0:0:0:0:
192,192,205641,1,0,0:0:0:0:
192,192,205927,128,0,206117:0:0:0:0:
64,192,205927,128,0,206022:0:0:0:0:
448,192,205927,128,0,206117:0:0:0:0:
64,192,206212,128,0,206403:0:0:0:0:
320,192,206212,128,0,206308:0:0:0:0:
448,192,206498,128,0,206689:0:0:0:0:
192,192,206498,128,0,206593:0:0:0:0:
320,192,206498,1,0,0:0:0:0:
64,192,206498,128,0,206593:0:0:0:0:
320,192,206689,128,0,206784:0:0:0:0:
192,192,206784,128,0,206879:0:0:0:0:
64,192,206784,128,0,206879:0:0:0:0:
448,192,206974,128,0,207069:0:0:0:0:
192,192,207069,128,0,207260:0:0:0:0:
320,192,207069,128,0,207165:0:0:0:0:
320,192,207355,128,0,207546:0:0:0:0:
448,192,207355,128,0,207450:0:0:0:0:
192,192,207355,128,0,207450:0:0:0:0:
192,192,207641,128,0,207831:0:0:0:0:
64,192,207641,128,0,207736:0:0:0:0:
448,192,207641,128,0,207736:0:0:0:0:
320,192,207641,1,0,0:0:0:0:
320,192,207831,128,0,207927:0:0:0:0:
64,192,207831,128,0,207927:0:0:0:0:
448,192,207927,128,0,208117:0:0:0:0:
64,192,208212,128,0,208403:0:0:0:0:
192,192,208212,128,0,208403:0:0:0:0:
448,192,208212,128,0,208403:0:0:0:0:
320,192,208498,128,0,208689:0:0:0:0:
448,192,208498,128,0,208689:0:0:0:0:
64,192,208498,128,0,208689:0:0:0:0:
64,192,208784,128,0,208974:0:0:0:0:
448,192,208784,128,0,208974:0:0:0:0:
192,192,209069,128,0,209260:0:0:0:0:
320,192,209069,128,0,209260:0:0:0:0:
64,192,209355,128,0,209546:0:0:0:0:
448,192,209355,128,0,209546:0:0:0:0:
320,192,209355,128,0,209546:0:0:0:0:
192,192,209355,128,0,209546:0:0:0:0:
