osu file format v14

[General]
AudioFilename: audio.mp3
AudioLeadIn: 0
PreviewTime: -1
Countdown: 1
SampleSet: Normal
StackLeniency: 0.7
Mode: 0
LetterboxInBreaks: 0
WidescreenStoryboard: 1

[Editor]
DistanceSpacing: 1
BeatDivisor: 6
GridSize: 4
TimelineZoom: 1

[Metadata]
Title:Unity
TitleUnicode:Unity
Artist:TheFatRat
ArtistUnicode:TheFatRat
Creator:Crytoken
Version:Normal
Source:
Tags:
BeatmapID:991343
BeatmapSetID:462949

[Difficulty]
HPDrainRate:5
CircleSize:4
OverallDifficulty:5
ApproachRate:5
SliderMultiplier:1.4
SliderTickRate:1

[Events]
//Background and Video events
0,0,"ANIME-PICTURES.NET_-_475228-1280x824-idolmaster-idolmaster+cinderella+girls-ninomiya+asuka-long+hair-single-blonde+hair.jpg",0,0
//Break Periods
2,118041,136069
//Storyboard Layer 0 (Background)
//Storyboard Layer 1 (Fail)
//Storyboard Layer 2 (Pass)
//Storyboard Layer 3 (Foreground)
//Storyboard Sound Samples

[TimingPoints]
45270,571.428571428571,4,1,0,100,1,0

[Colours]
Combo1 : 128,255,255
Combo2 : 0,255,0

[HitObjects]
136,168,6984,6,0,L|200:220,1,70
232,112,7555,2,0,L|168:68,1,70
284,24,8127,1,0,0:0:0:0:
360,104,8603,2,0,P|372:152|360:196,1,93.3333333333333
256,192,9269,1,0,0:0:0:0:
176,108,9746,6,0,P|152:108|88:136,1,93.3333333333333
48,236,10412,1,0,0:0:0:0:
160,204,10889,2,0,P|212:200|256:212,1,93.3333333333333
320,280,11555,1,0,0:0:0:0:
396,228,11841,1,0,0:0:0:0:
344,148,12127,1,0,0:0:0:0:
400,80,12412,1,0,0:0:0:0:
312,32,12698,1,0,0:0:0:0:
216,52,13174,6,0,P|172:64|120:48,1,93.3333333333333
64,112,13841,1,0,0:0:0:0:
40,212,14317,2,0,P|88:240|132:224,1,93.3333333333333
200,264,14984,1,0,0:0:0:0:
320,288,15460,2,0,P|376:272|384:224,1,93.3333333333333
304,192,16127,1,0,0:0:0:0:
376,136,16412,1,0,0:0:0:0:
296,84,16698,1,0,0:0:0:0:
212,56,16984,1,0,0:0:0:0:
164,120,17269,1,0,0:0:0:0:
68,176,17746,6,0,P|68:216|104:256,1,93.3333333333333
196,328,18412,1,0,0:0:0:0:
272,268,18889,2,0,P|284:232|272:168,1,93.3333333333333
180,120,19555,1,0,0:0:0:0:
244,72,20031,2,0,P|284:68|336:100,1,93.3333333333333
424,136,20699,1,0,0:0:0:0:
360,192,20984,1,0,0:0:0:0:
440,248,21269,1,0,0:0:0:0:
372,292,21555,1,0,0:0:0:0:
452,348,21841,1,0,0:0:0:0:
356,348,22317,6,0,P|328:328|304:272,1,93.3333333333333
228,228,22984,1,0,0:0:0:0:
128,216,23460,2,0,P|88:184|64:140,1,93.3333333333333
92,64,24127,1,0,0:0:0:0:
192,56,24603,2,0,P|220:52|296:76,1,93.3333333333333
336,136,25269,1,0,0:0:0:0:
392,76,25555,1,0,0:0:0:0:
448,148,25841,1,0,0:0:0:0:
408,224,26127,1,0,0:0:0:0:
468,288,26412,1,0,0:0:0:0:
240,292,27555,6,0,P|240:244|256:216,1,70
292,136,28127,1,0,0:0:0:0:
216,72,28412,2,0,P|176:64|140:88,2,70
312,56,29269,1,0,0:0:0:0:
380,116,29555,1,0,0:0:0:0:
408,208,29841,2,0,P|416:248|396:284,2,70
296,224,30698,2,0,P|264:208|248:160,2,70
332,136,31555,2,0,L|272:84,1,70
200,48,32127,5,0,0:0:0:0:
152,120,32412,1,0,0:0:0:0:
76,92,32698,1,0,0:0:0:0:
44,168,32984,2,0,P|36:200|64:248,2,70
124,172,33841,1,0,0:0:0:0:
188,240,34127,1,0,0:0:0:0:
124,296,34412,2,0,P|120:320|160:360,2,70
220,280,35269,2,0,P|248:308|296:328,1,70
360,312,35841,2,0,P|384:284|384:240,2,70
288,244,36698,5,0,0:0:0:0:
348,184,36984,1,0,0:0:0:0:
408,132,37269,1,0,0:0:0:0:
392,48,37555,2,0,P|360:40|312:56,2,70
372,136,38412,2,0,P|340:152|292:152,1,70
240,96,38984,1,0,0:0:0:0:
168,56,39269,1,0,0:0:0:0:
96,100,39555,1,0,0:0:0:0:
96,188,39841,2,0,P|64:204|52:240,2,70
176,248,40698,1,0,0:0:0:0:
236,188,40984,1,0,0:0:0:0:
344,172,41269,2,0,P|360:144|408:132,1,70
324,68,41841,2,0,P|280:64|240:80,1,70
156,68,42412,1,0,0:0:0:0:
128,148,42698,1,0,0:0:0:0:
156,260,42984,2,0,P|188:268|232:300,1,70
304,248,43555,5,0,0:0:0:0:
244,176,43841,1,0,0:0:0:0:
312,116,44127,1,0,0:0:0:0:
228,64,44412,1,0,0:0:0:0:
308,28,44698,1,0,0:0:0:0:
100,160,45174,6,0,P|92:212|124:256,1,93.3333333333333
200,264,45841,1,0,0:0:0:0:
336,184,46317,2,0,P|352:216|352:276,1,93.3333333333333
248,188,46984,1,0,0:0:0:0:
140,136,47460,2,0,P|144:104|196:72,1,93.3333333333333
288,108,48127,1,0,0:0:0:0:
376,132,48412,1,0,0:0:0:0:
296,192,48698,1,0,0:0:0:0:
364,244,48984,1,0,0:0:0:0:
300,296,49269,1,0,0:0:0:0:
176,240,49746,6,0,P|136:232|80:240,1,93.3333333333333
28,152,50412,1,0,0:0:0:0:
80,72,50889,2,0,P|132:76|188:104,1,93.3333333333333
264,56,51555,1,0,0:0:0:0:
384,196,52127,2,0,P|376:240|352:268,2,70
320,112,52984,1,0,0:0:0:0:
232,52,53269,1,0,0:0:0:0:
152,136,53555,1,0,0:0:0:0:
56,64,53841,1,0,0:0:0:0:
116,212,54317,6,0,P|124:264|152:296,1,93.3333333333333
236,288,54984,1,0,0:0:0:0:
216,188,55460,2,0,P|272:176|316:176,1,93.3333333333333
216,188,56127,1,0,0:0:0:0:
216,196,56603,2,0,P|184:172|132:168,1,93.3333333333333
116,92,57269,1,0,0:0:0:0:
192,40,57555,1,0,0:0:0:0:
268,96,57841,1,0,0:0:0:0:
344,44,58127,1,0,0:0:0:0:
408,104,58412,1,0,0:0:0:0:
332,232,58889,6,0,P|280:248|240:232,1,93.3333333333333
184,304,59555,1,0,0:0:0:0:
80,208,60031,2,0,P|104:176|168:172,1,93.3333333333333
172,80,60698,1,0,0:0:0:0:
264,180,61174,2,0,P|304:168|348:128,1,93.3333333333333
336,132,61841,1,0,0:0:0:0:
264,180,62127,1,0,0:0:0:0:
332,252,62412,1,0,0:0:0:0:
256,308,62698,1,0,0:0:0:0:
352,352,62984,1,0,0:0:0:0:
436,280,63555,6,0,P|452:248|440:204,1,70
388,152,64127,1,0,0:0:0:0:
328,84,64412,1,0,0:0:0:0:
260,144,64698,1,0,0:0:0:0:
212,68,64984,2,0,P|176:68|132:92,2,70
292,148,65841,1,0,0:0:0:0:
380,72,66127,1,0,0:0:0:0:
420,176,66412,2,0,P|408:224|384:256,1,70
420,336,66984,1,0,0:0:0:0:
336,304,67269,2,0,P|304:284|288:244,2,70
424,288,68127,2,0,P|452:268|456:216,1,70
384,176,68698,5,0,0:0:0:0:
444,96,68984,1,0,0:0:0:0:
352,40,69269,1,0,0:0:0:0:
264,92,69555,2,0,P|220:92|184:68,2,70
336,152,70412,2,0,P|332:176|304:216,1,70
272,108,70984,2,0,P|244:92|212:52,1,70
112,48,71555,1,0,0:0:0:0:
112,48,71841,2,0,P|128:88|108:124,2,70
40,108,72698,1,0,0:0:0:0:
112,164,72984,1,0,0:0:0:0:
112,264,73269,6,0,L|188:228,1,70
232,308,73841,1,0,0:0:0:0:
336,308,74127,2,0,P|368:280|376:240,2,70
236,336,74984,1,0,0:0:0:0:
152,288,75269,1,0,0:0:0:0:
72,244,75555,2,0,P|72:204|96:176,2,70
148,304,76412,2,0,P|204:308|236:296,1,70
312,264,76984,2,0,P|296:224|316:184,3,70
388,152,78127,1,0,0:0:0:0:
316,100,78412,2,0,P|300:72|264:60,2,70
248,152,79269,1,0,0:0:0:0:
168,140,79555,2,0,P|164:108|116:92,2,70
252,184,80412,1,0,0:0:0:0:
324,232,80698,1,0,0:0:0:0:
252,304,80984,1,0,0:0:0:0:
168,244,81269,1,0,0:0:0:0:
116,112,81746,6,0,P|160:104|216:124,1,93.3333333333333
292,76,82412,1,0,0:0:0:0:
372,188,82889,2,0,P|336:188|280:216,1,93.3333333333333
248,304,83555,1,0,0:0:0:0:
88,252,84031,2,0,P|64:204|64:152,1,93.3333333333333
120,84,84698,1,0,0:0:0:0:
168,160,84984,1,0,0:0:0:0:
224,88,85269,1,0,0:0:0:0:
300,172,85555,1,0,0:0:0:0:
356,96,85841,1,0,0:0:0:0:
404,276,86317,2,0,P|352:280|304:308,1,93.3333333333333
212,264,86984,1,0,0:0:0:0:
96,216,87460,2,0,P|92:180|120:128,1,93.3333333333333
192,72,88127,1,0,0:0:0:0:
312,32,88603,2,0,P|356:44|392:96,1,93.3333333333333
336,152,89269,1,0,0:0:0:0:
396,216,89555,1,0,0:0:0:0:
320,268,89841,1,0,0:0:0:0:
248,220,90127,1,0,0:0:0:0:
196,292,90412,1,0,0:0:0:0:
92,228,90889,6,0,P|128:212|184:224,1,93.3333333333333
256,152,91555,1,0,0:0:0:0:
344,240,92031,2,0,P|404:232|428:200,1,93.3333333333333
380,112,92698,1,0,0:0:0:0:
280,52,93174,2,0,P|228:52|192:72,1,93.3333333333333
100,116,93841,1,0,0:0:0:0:
40,180,94127,1,0,0:0:0:0:
128,220,94412,1,0,0:0:0:0:
56,288,94698,1,0,0:0:0:0:
148,328,94984,1,0,0:0:0:0:
260,192,95460,6,0,P|295:176|351:168,1,93.3333333333333
260,192,96127,1,0,0:0:0:0:
252,192,96603,2,0,P|220:176|144:176,1,93.3333333333333
252,184,97269,1,0,0:0:0:0:
260,188,97746,2,0,P|272:136|248:104,1,93.3333333333333
136,80,98412,1,0,0:0:0:0:
212,36,98698,1,0,0:0:0:0:
300,20,98984,1,0,0:0:0:0:
376,52,99269,1,0,0:0:0:0:
440,120,99555,1,0,0:0:0:0:
356,280,100127,2,0,P|324:268|272:280,1,70
160,304,100698,5,0,0:0:0:0:
56,248,100984,1,0,0:0:0:0:
56,148,101269,1,0,0:0:0:0:
136,84,101555,2,0,P|188:60|204:64,2,70
176,164,102412,1,0,0:0:0:0:
280,128,102698,1,0,0:0:0:0:
368,72,102984,6,0,P|416:112|424:136,1,70
380,212,103555,1,0,0:0:0:0:
352,308,103841,2,0,P|288:324|272:324,2,70
424,240,104698,1,0,0:0:0:0:
340,160,104984,1,0,0:0:0:0:
304,72,105269,5,0,0:0:0:0:
208,32,105555,1,0,0:0:0:0:
116,96,105841,1,0,0:0:0:0:
72,176,106127,2,0,P|92:200|84:252,2,70
136,100,106984,1,0,0:0:0:0:
212,176,107269,1,0,0:0:0:0:
340,152,107555,2,0,B|360:192|356:228|352:220,2,70
216,172,108412,2,0,P|200:144|152:124,2,70
152,252,109269,1,0,0:0:0:0:
264,276,109555,1,0,0:0:0:0:
360,224,109841,5,0,0:0:0:0:
436,152,110127,1,0,0:0:0:0:
360,88,110412,1,0,0:0:0:0:
232,52,110698,2,0,P|192:52|160:80,2,70
304,136,111555,1,0,0:0:0:0:
216,192,111841,1,0,0:0:0:0:
112,140,112127,2,0,P|108:112|76:72,2,70
60,232,112984,2,0,P|56:260|76:296,2,70
100,140,113841,1,0,0:0:0:0:
164,224,114127,1,0,0:0:0:0:
232,128,114412,6,0,P|248:92|292:72,1,70
340,144,114984,2,0,P|352:184|392:208,2,70
256,88,115841,1,0,0:0:0:0:
200,156,116127,2,0,P|184:180|128:196,2,70
152,80,116984,1,0,0:0:0:0:
236,48,117269,1,0,0:0:0:0:
312,92,117555,1,0,0:0:0:0:
384,156,117841,1,0,0:0:0:0:
116,276,137269,5,0,0:0:0:0:
288,72,138412,1,0,0:0:0:0:
304,292,139841,2,0,P|248:280|232:264,1,70
120,208,140698,1,0,0:0:0:0:
392,84,141841,1,0,0:0:0:0:
252,300,142984,1,0,0:0:0:0:
64,64,144412,2,0,P|68:96|108:136,1,70
276,212,145269,1,0,0:0:0:0:
420,56,146412,5,0,0:0:0:0:
164,260,147555,1,0,0:0:0:0:
412,264,148889,2,0,B|444:228|444:228|412:176,1,93.3333333333333
236,76,149841,1,0,0:0:0:0:
256,192,150984,12,0,155555,0:0:0:0:
156,160,155841,5,0,0:0:0:0:
252,108,156127,1,0,0:0:0:0:
336,144,156412,2,0,P|356:168|360:216,2,70
264,72,157269,1,0,0:0:0:0:
160,120,157555,1,0,0:0:0:0:
100,208,157841,6,0,P|100:240|124:280,2,70
224,172,158698,2,0,P|248:176|292:216,2,70
144,144,159555,1,0,0:0:0:0:
232,64,159841,1,0,0:0:0:0:
296,128,160127,5,0,0:0:0:0:
372,76,160412,1,0,0:0:0:0:
440,132,160698,1,0,0:0:0:0:
428,224,160984,2,0,P|420:248|380:276,2,70
344,184,161841,1,0,0:0:0:0:
260,272,162127,1,0,0:0:0:0:
168,236,162412,1,0,0:0:0:0:
104,300,162698,1,0,0:0:0:0:
24,236,162984,1,0,0:0:0:0:
96,168,163269,2,0,P|68:136|24:132,2,70
176,128,164127,1,0,0:0:0:0:
96,48,164412,1,0,0:0:0:0:
196,32,164698,6,0,L|248:84,1,70
340,68,165269,1,0,0:0:0:0:
384,176,165555,2,0,P|384:212|360:256,2,70
332,96,166412,1,0,0:0:0:0:
232,56,166698,1,0,0:0:0:0:
156,96,166984,2,0,P|112:92|92:56,2,70
248,120,167841,2,0,P|248:160|220:192,2,70
312,68,168698,1,0,0:0:0:0:
408,120,168984,1,0,0:0:0:0:
364,200,169269,5,0,0:0:0:0:
308,272,169555,1,0,0:0:0:0:
192,284,169841,2,0,P|176:256|128:244,2,70
136,240,170698,1,0,0:0:0:0:
52,212,170984,2,0,P|40:180|56:136,2,70
140,212,171841,1,0,0:0:0:0:
192,152,172127,1,0,0:0:0:0:
248,228,172412,1,0,0:0:0:0:
316,164,172698,1,0,0:0:0:0:
208,52,173174,6,0,P|172:52|136:68,1,70
92,152,173746,1,0,0:0:0:0:
160,248,174317,2,0,P|216:248|252:216,1,93.3333333333333
324,172,174984,1,0,0:0:0:0:
160,88,175460,2,0,B|132:128|132:128|176:160,1,93.3333333333333
256,128,176127,1,0,0:0:0:0:
232,228,176412,1,0,0:0:0:0:
296,292,176698,1,0,0:0:0:0:
360,228,176984,1,0,0:0:0:0:
432,284,177269,1,0,0:0:0:0:
400,108,177746,6,0,P|348:108|308:84,1,93.3333333333333
208,116,178412,1,0,0:0:0:0:
96,152,178889,2,0,P|96:196|116:256,1,93.3333333333333
200,320,179555,1,0,0:0:0:0:
312,292,180031,2,0,P|340:272|360:208,1,93.3333333333333
308,292,180698,1,0,0:0:0:0:
216,244,180984,1,0,0:0:0:0:
124,184,181269,1,0,0:0:0:0:
48,112,181555,1,0,0:0:0:0:
32,12,181841,1,0,0:0:0:0:
176,28,182317,6,0,P|176:68|212:112,1,93.3333333333333
320,76,182984,1,0,0:0:0:0:
416,148,183460,2,0,P|416:200|392:240,1,93.3333333333333
420,140,184127,1,0,0:0:0:0:
312,84,184603,2,0,P|272:80|204:108,1,93.3333333333333
132,80,185269,1,0,0:0:0:0:
56,144,185555,1,0,0:0:0:0:
152,180,185841,1,0,0:0:0:0:
60,240,186127,1,0,0:0:0:0:
152,284,186412,1,0,0:0:0:0:
252,320,186889,2,0,P|248:280|268:220,1,93.3333333333333
376,216,187555,1,0,0:0:0:0:
344,88,188031,2,0,P|304:72|240:76,1,93.3333333333333
128,48,188698,1,0,0:0:0:0:
52,152,189174,6,0,P|36:188|36:260,1,93.3333333333333
112,312,189841,1,0,0:0:0:0:
160,236,190127,1,0,0:0:0:0:
220,312,190412,1,0,0:0:0:0:
280,236,190698,1,0,0:0:0:0:
368,304,190984,1,0,0:0:0:0:
428,212,191555,2,0,P|416:160|392:148,1,70
312,96,192127,5,0,0:0:0:0:
236,160,192412,1,0,0:0:0:0:
168,96,192698,1,0,0:0:0:0:
80,140,192984,2,0,P|68:104|32:88,2,70
52,232,193841,1,0,0:0:0:0:
120,312,194127,1,0,0:0:0:0:
48,232,194412,1,0,0:0:0:0:
32,124,194698,1,0,0:0:0:0:
96,52,194984,1,0,0:0:0:0:
176,92,195269,2,0,P|236:92|244:80,1,70
336,52,195841,2,0,P|372:36|420:52,2,70
280,132,196698,5,0,0:0:0:0:
372,172,196984,1,0,0:0:0:0:
304,232,197269,1,0,0:0:0:0:
404,272,197555,2,0,P|400:316|368:344,2,70
472,192,198412,2,0,P|460:168|412:152,1,70
324,184,198984,1,0,0:0:0:0:
248,124,199269,1,0,0:0:0:0:
160,68,199555,1,0,0:0:0:0:
64,52,199841,2,0,P|56:92|72:128,2,70
160,40,200698,2,0,P|184:40|244:56,1,70
220,140,201269,5,0,0:0:0:0:
176,220,201555,1,0,0:0:0:0:
256,276,201841,1,0,0:0:0:0:
176,224,202127,2,0,P|144:204|96:200,2,70
224,308,202984,1,0,0:0:0:0:
320,352,203269,1,0,0:0:0:0:
224,308,203555,1,0,0:0:0:0:
304,252,203841,1,0,0:0:0:0:
212,196,204127,1,0,0:0:0:0:
288,148,204412,2,0,P|332:128|340:96,2,70
208,108,205269,1,0,0:0:0:0:
280,48,205555,1,0,0:0:0:0:
388,80,205841,6,0,P|424:116|428:148,1,70
356,200,206412,2,0,P|296:204|272:208,2,70
280,204,207269,1,0,0:0:0:0:
200,192,207555,2,0,P|184:176|164:132,2,70
172,280,208412,1,0,0:0:0:0:
260,324,208698,1,0,0:0:0:0:
344,284,208984,1,0,0:0:0:0:
420,332,209269,1,0,0:0:0:0:
