osu file format v14

[General]
AudioFilename: audio.mp3
AudioLeadIn: 0
PreviewTime: -1
Countdown: 1
SampleSet: Normal
StackLeniency: 0.7
Mode: 0
LetterboxInBreaks: 0
WidescreenStoryboard: 0

[Editor]
DistanceSpacing: 1
BeatDivisor: 6
GridSize: 4
TimelineZoom: 1

[Metadata]
Title:Unity
TitleUnicode:Unity
Artist:TheFatRat
ArtistUnicode:TheFatRat
Creator:Crytoken
Version:Easy
Source:
Tags:
BeatmapID:991342
BeatmapSetID:462949

[Difficulty]
HPDrainRate:3
CircleSize:4
OverallDifficulty:3
ApproachRate:3
SliderMultiplier:1.4
SliderTickRate:1

[Events]
//Background and Video events
0,0,"ANIME-PICTURES.NET_-_475228-1280x824-idolmaster-idolmaster+cinderella+girls-ninomiya+asuka-long+hair-single-blonde+hair.jpg",0,0
//Break Periods
2,118041,135829
//Storyboard Layer 0 (Background)
//Storyboard Layer 1 (Fail)
//Storyboard Layer 2 (Pass)
//Storyboard Layer 3 (Foreground)
//Storyboard Sound Samples

[TimingPoints]
45270,571.428571428571,4,1,0,100,1,0

[Colours]
Combo1 : 128,255,255
Combo2 : 0,255,0

[HitObjects]
128,264,6984,6,0,P|168:232|184:208,1,70
132,164,7555,2,0,L|192:108,1,70
264,96,8127,1,0,0:0:0:0:
416,68,8555,2,0,P|432:112|400:172,1,105
436,244,9269,1,0,0:0:0:0:
288,260,9746,2,0,P|260:228|260:160,1,93.3333333333333
204,108,10413,1,0,0:0:0:0:
72,128,10889,2,0,P|76:176|56:228,1,93.3333333333333
96,264,11555,2,0,P|128:288|160:280,2,70
224,316,12412,2,0,P|236:272|264:248,1,70
376,272,13174,6,0,P|368:240|332:188,1,93.3333333333333
388,132,13841,1,0,0:0:0:0:
256,64,14317,2,0,P|248:108|284:148,1,93.3333333333333
296,220,14984,1,0,0:0:0:0:
196,260,15460,2,0,P|172:236|144:168,1,93.3333333333333
156,96,16127,2,0,P|204:80|232:100,3,70
288,52,17269,1,0,0:0:0:0:
356,128,17746,6,0,P|372:160|428:188,1,93.3333333333333
440,272,18412,1,0,0:0:0:0:
332,284,18889,2,0,P|312:244|320:192,1,93.3333333333333
268,152,19556,1,0,0:0:0:0:
160,72,20031,2,0,P|132:108|128:156,1,93.3333333333333
96,232,20698,2,0,P|76:280|84:312,1,70
156,316,21269,2,0,P|184:300|208:272,1,70
176,184,21841,1,0,0:0:0:0:
272,224,22317,6,0,P|292:248|292:312,1,93.3333333333333
384,304,22984,1,0,0:0:0:0:
360,212,23460,2,0,P|356:168|400:124,1,93.3333333333333
448,72,24127,1,0,0:0:0:0:
344,56,24603,2,0,P|292:40|256:64,1,93.3333333333333
232,132,25269,2,0,P|200:132|156:104,1,70
108,40,25841,2,0,P|72:44|32:72,1,70
32,148,26412,1,0,0:0:0:0:
300,276,27555,6,0,P|328:248|332:208,1,70
260,184,28127,2,0,P|268:148|296:124,1,70
364,92,28698,2,0,P|344:64|296:48,2,70
424,184,29555,1,0,0:0:0:0:
372,260,29841,6,0,P|344:232|316:228,1,70
280,164,30412,2,0,P|240:164|208:188,1,70
144,236,30984,1,0,0:0:0:0:
64,188,31269,2,0,P|72:152|120:140,3,70
148,64,32412,1,0,0:0:0:0:
232,48,32698,1,0,0:0:0:0:
304,112,32984,2,0,P|348:120|376:92,3,70
464,80,34127,1,0,0:0:0:0:
456,160,34412,6,0,P|432:188|392:212,1,70
316,228,34984,2,0,P|276:244|228:248,1,70
172,212,35555,2,0,P|156:176|128:168,2,70
96,280,36412,1,0,0:0:0:0:
208,300,36698,6,0,P|244:288|256:256,1,70
192,208,37269,2,0,P|204:176|244:164,1,70
316,180,37841,2,0,P|352:152|348:116,3,70
260,72,38984,6,0,P|232:92|216:128,1,70
288,168,39555,2,0,P|280:204|240:240,1,70
168,236,40127,2,0,P|144:212|100:204,1,70
68,136,40698,1,0,0:0:0:0:
128,84,40984,1,0,0:0:0:0:
172,160,41269,6,0,P|228:160|248:152,1,70
296,100,41841,2,0,P|340:96|376:112,2,70
200,80,42698,1,0,0:0:0:0:
132,144,42984,2,0,P|96:180|92:208,2,70
208,116,43841,1,0,0:0:0:0:
280,88,44127,1,0,0:0:0:0:
372,88,44412,1,0,0:0:0:0:
448,132,44698,1,0,0:0:0:0:
320,284,45174,6,0,P|280:256|256:204,1,93.3333333333333
224,136,45841,1,0,0:0:0:0:
132,108,46317,2,0,P|108:136|96:192,1,93.3333333333333
168,240,46984,1,0,0:0:0:0:
240,136,47460,2,0,P|272:152|304:200,1,93.3333333333333
356,272,48127,1,0,0:0:0:0:
392,212,48412,1,0,0:0:0:0:
428,152,48698,1,0,0:0:0:0:
416,84,48984,2,0,P|384:56|348:52,1,70
328,144,49746,6,0,P|356:200|344:236,1,93.3333333333333
280,260,50412,1,0,0:0:0:0:
192,264,50889,2,0,P|176:224|200:176,1,93.3333333333333
232,104,51555,1,0,0:0:0:0:
140,72,52031,2,0,P|104:88|76:144,1,93.3333333333333
132,192,52698,1,0,0:0:0:0:
192,240,52984,1,0,0:0:0:0:
252,284,53269,1,0,0:0:0:0:
340,312,53555,2,0,P|376:320|400:300,1,70
376,228,54317,6,0,P|372:188|400:136,1,93.3333333333333
336,72,54984,1,0,0:0:0:0:
272,72,55460,2,0,P|272:120|236:160,1,93.3333333333333
172,188,56127,1,0,0:0:0:0:
76,180,56603,2,0,P|80:144|120:104,1,93.3333333333333
188,76,57269,1,0,0:0:0:0:
264,60,57555,1,0,0:0:0:0:
344,104,57841,2,0,P|368:116|380:160,2,70
264,192,58889,6,0,P|268:244|248:280,1,93.3333333333333
172,264,59555,1,0,0:0:0:0:
112,248,60031,2,0,P|108:192|140:160,1,93.3333333333333
192,120,60698,1,0,0:0:0:0:
304,108,61174,2,0,P|368:108|392:124,1,93.3333333333333
416,204,61841,2,0,P|432:228|428:272,3,70
352,308,62984,1,0,0:0:0:0:
240,264,63555,2,0,P|208:232|196:192,1,70
128,180,64127,6,0,P|132:140|152:116,1,70
232,108,64698,1,0,0:0:0:0:
328,76,64984,2,0,P|344:108|328:148,2,70
236,72,65841,2,0,P|188:80|180:108,1,70
240,160,66412,2,0,P|240:196|216:228,1,70
140,232,66984,1,0,0:0:0:0:
76,168,67269,2,0,P|92:128|128:112,1,70
208,104,67841,2,0,L|292:104,2,70
216,20,68698,6,0,P|244:4|300:8,1,70
356,56,69269,1,0,0:0:0:0:
424,104,69555,2,0,P|428:128|408:180,2,70
344,136,70412,2,0,P|292:160|292:188,1,70
364,224,70984,2,0,P|364:284|344:296,1,70
296,348,71555,1,0,0:0:0:0:
224,312,71841,2,0,P|208:264|188:252,2,70
140,328,72698,2,0,P|116:304|112:264,1,70
152,196,73269,6,0,P|156:164|132:124,1,70
80,84,73841,1,0,0:0:0:0:
160,64,74127,2,0,P|200:52|232:64,2,70
200,144,74984,2,0,P|232:144|264:176,1,70
340,148,75555,2,0,L|412:116,1,70
460,176,76127,1,0,0:0:0:0:
472,268,76412,2,0,P|444:280|392:268,2,70
416,200,77269,2,0,L|332:204,1,70
288,144,77841,1,0,0:0:0:0:
224,104,78127,6,0,P|208:80|160:80,1,70
92,116,78698,2,0,P|88:156|112:192,2,70
168,76,79555,2,0,P|208:68|244:80,2,70
112,128,80412,1,0,0:0:0:0:
84,200,80698,1,0,0:0:0:0:
88,284,80984,1,0,0:0:0:0:
148,332,81269,1,0,0:0:0:0:
268,304,81746,6,0,P|324:288|352:264,1,93.3333333333333
344,188,82412,1,0,0:0:0:0:
336,108,82889,2,0,P|392:100|428:112,1,93.3333333333333
496,184,83555,1,0,0:0:0:0:
424,216,84031,2,0,P|372:204|348:172,1,93.3333333333333
292,128,84698,1,0,0:0:0:0:
224,92,84984,1,0,0:0:0:0:
144,72,85269,1,0,0:0:0:0:
64,80,85555,1,0,0:0:0:0:
24,160,85841,1,0,0:0:0:0:
68,280,86317,6,0,P|116:272|164:292,1,93.3333333333333
244,304,86984,1,0,0:0:0:0:
312,272,87460,2,0,P|372:264|400:224,1,93.3333333333333
416,156,88127,1,0,0:0:0:0:
376,76,88603,2,0,P|328:72|280:52,1,93.3333333333333
192,52,89269,2,0,P|160:48|120:76,3,70
64,116,90412,1,0,0:0:0:0:
96,192,90889,6,0,P|96:232|72:284,1,93.3333333333333
144,320,91555,1,0,0:0:0:0:
188,256,92031,2,0,P|216:196|240:184,1,93.3333333333333
332,160,92698,1,0,0:0:0:0:
416,128,93174,2,0,P|428:160|428:228,1,93.3333333333333
356,256,93841,1,0,0:0:0:0:
296,312,94127,1,0,0:0:0:0:
216,332,94412,1,0,0:0:0:0:
144,316,94698,2,0,P|108:296|76:264,1,70
48,204,95460,6,0,P|100:208|144:188,1,93.3333333333333
160,116,96126,1,0,0:0:0:0:
236,72,96603,2,0,P|272:72|332:92,1,93.3333333333333
408,64,97269,1,0,0:0:0:0:
444,144,97746,2,0,P|460:160|452:228,1,93.3333333333333
376,264,98412,2,0,L|320:208,1,70
256,164,98984,2,0,L|196:108,1,70
116,68,99555,1,0,0:0:0:0:
92,196,100127,2,0,P|80:236|108:264,1,70
164,304,100698,6,0,P|228:308|232:320,2,70
104,252,101555,2,0,P|100:216|120:188,1,70
188,152,102127,1,0,0:0:0:0:
268,104,102412,2,0,P|272:76|320:48,2,70
332,152,103269,1,0,0:0:0:0:
392,200,103555,1,0,0:0:0:0:
444,264,103841,2,0,P|440:296|408:332,1,70
328,304,104412,6,0,P|312:272|324:240,3,70
260,200,105555,1,0,0:0:0:0:
196,152,105841,1,0,0:0:0:0:
128,100,106127,2,0,P|88:80|56:88,2,70
208,88,106984,2,0,P|228:64|276:60,1,70
344,80,107555,2,0,L|292:128,1,70
236,180,108127,2,0,L|176:228,1,70
112,268,108698,2,0,P|88:244|84:196,2,70
196,312,109555,1,0,0:0:0:0:
280,304,109841,6,0,P|312:296|344:268,1,70
292,200,110412,2,0,P|300:168|344:140,1,70
408,104,110984,2,0,P|376:64|348:56,2,70
432,196,111841,1,0,0:0:0:0:
420,284,112127,2,0,P|412:316|376:332,1,70
336,264,112698,2,0,P|296:252|256:256,1,70
184,240,113269,2,0,L|120:192,1,70
72,120,113841,1,0,0:0:0:0:
140,64,114127,1,0,0:0:0:0:
232,68,114412,2,0,L|304:116,1,70
364,148,114984,2,0,P|372:172|352:224,2,70
296,76,115841,1,0,0:0:0:0:
200,60,116127,2,0,P|172:68|160:124,2,70
284,100,116984,1,0,0:0:0:0:
216,168,117269,1,0,0:0:0:0:
288,212,117555,1,0,0:0:0:0:
216,264,117841,1,0,0:0:0:0:
100,196,137269,5,0,0:0:0:0:
236,244,138412,1,0,0:0:0:0:
344,160,139841,2,0,P|320:128|272:120,1,70
184,72,140698,1,0,0:0:0:0:
120,236,141841,5,0,0:0:0:0:
208,128,142984,1,0,0:0:0:0:
364,148,144412,2,0,P|384:184|384:224,1,70
296,288,145269,1,0,0:0:0:0:
120,256,146412,5,0,0:0:0:0:
240,88,147555,1,0,0:0:0:0:
368,272,148984,2,0,P|340:276|296:268,1,70
196,196,149841,1,0,0:0:0:0:
256,192,150984,12,0,155555,0:0:0:0:
204,196,156127,5,0,0:0:0:0:
120,184,156412,2,0,P|112:228|128:256,2,70
132,96,157269,2,0,P|156:84|208:80,1,70
288,96,157841,1,0,0:0:0:0:
360,36,158127,1,0,0:0:0:0:
424,104,158412,1,0,0:0:0:0:
396,180,158698,2,0,P|428:196|472:180,2,70
356,108,159555,2,0,P|332:80|288:72,1,70
200,68,160127,5,0,0:0:0:0:
132,120,160412,1,0,0:0:0:0:
204,168,160698,1,0,0:0:0:0:
128,228,160984,2,0,P|108:248|96:296,2,70
108,152,161841,2,0,P|136:116|176:108,1,70
244,112,162412,2,0,P|296:108|312:80,2,70
224,36,163269,2,0,P|196:16|148:20,2,70
312,24,164127,1,0,0:0:0:0:
384,64,164412,1,0,0:0:0:0:
440,136,164698,6,0,L|376:176,1,70
304,160,165269,1,0,0:0:0:0:
280,244,165555,2,0,P|332:256|344:248,2,70
236,172,166412,1,0,0:0:0:0:
164,128,166698,1,0,0:0:0:0:
88,104,166984,2,0,P|64:104|28:136,2,70
180,96,167841,2,0,L|256:80,2,70
140,160,168698,2,0,P|136:200|160:228,1,70
136,304,169269,1,0,0:0:0:0:
208,352,169555,1,0,0:0:0:0:
260,300,169841,2,0,P|280:280|288:220,2,70
332,348,170698,1,0,0:0:0:0:
408,324,170984,2,0,P|424:308|416:256,2,70
328,288,171841,1,0,0:0:0:0:
256,232,172127,1,0,0:0:0:0:
316,184,172413,1,0,0:0:0:0:
252,132,172698,1,0,0:0:0:0:
112,76,173174,6,0,P|76:92|40:144,1,93.3333333333333
92,196,173841,1,0,0:0:0:0:
76,276,174317,2,0,P|120:272|176:280,1,93.3333333333333
232,328,174984,1,0,0:0:0:0:
320,328,175460,2,0,P|376:300|388:272,1,93.3333333333333
344,208,176127,1,0,0:0:0:0:
416,160,176412,1,0,0:0:0:0:
344,104,176698,1,0,0:0:0:0:
312,36,176984,2,0,P|280:24|244:28,1,70
168,52,177746,2,0,P|172:84|140:140,1,93.3333333333333
84,188,178412,1,0,0:0:0:0:
72,272,178889,2,0,P|140:268|180:280,1,93.3333333333333
220,332,179555,1,0,0:0:0:0:
320,320,180031,2,0,P|356:312|384:260,1,93.3333333333333
336,192,180698,1,0,0:0:0:0:
260,232,180984,1,0,0:0:0:0:
200,176,181269,2,0,P|144:148|136:132,2,70
280,124,182317,6,0,P|340:112|372:120,1,93.3333333333333
432,188,182984,1,0,0:0:0:0:
392,260,183460,2,0,P|364:248|328:192,1,93.3333333333333
240,200,184126,1,0,0:0:0:0:
180,152,184603,2,0,P|156:120|100:100,1,93.3333333333333
48,156,185269,1,0,0:0:0:0:
8,224,185555,1,0,0:0:0:0:
60,284,185841,2,0,P|96:260|140:248,2,70
112,340,186889,6,0,P|172:340|212:316,1,93.3333333333333
240,248,187555,1,0,0:0:0:0:
328,256,188031,2,0,P|372:236|396:184,1,93.3333333333333
432,128,188698,1,0,0:0:0:0:
376,68,189174,2,0,P|336:48|288:48,1,93.3333333333333
220,96,189841,2,0,P|188:92|148:64,2,70
296,132,190698,2,0,P|272:176|236:192,1,70
144,176,191555,2,0,L|84:232,1,70
100,312,192127,5,0,0:0:0:0:
168,276,192412,1,0,0:0:0:0:
224,332,192698,1,0,0:0:0:0:
308,312,192984,2,0,P|344:288|344:244,2,70
256,240,193841,2,0,P|248:192|260:160,1,70
336,172,194412,2,0,P|348:132|336:88,1,70
264,48,194984,1,0,0:0:0:0:
176,48,195269,2,0,P|136:40|88:48,1,70
44,108,195841,2,0,P|64:124|52:176,3,70
128,228,196984,1,0,0:0:0:0:
196,184,197269,1,0,0:0:0:0:
264,240,197555,2,0,P|320:240|336:256,2,70
296,320,198412,2,0,P|320:332|376:324,1,70
432,312,198984,6,0,P|444:276|436:224,1,70
488,168,199555,1,0,0:0:0:0:
420,108,199841,2,0,P|380:88|340:88,2,70
448,36,200698,2,0,P|408:24|368:16,1,70
300,64,201269,1,0,0:0:0:0:
228,20,201555,1,0,0:0:0:0:
168,68,201841,1,0,0:0:0:0:
76,96,202127,2,0,P|48:120|24:148,2,70
128,168,202984,2,0,P|172:168|204:196,1,70
144,264,203555,1,0,0:0:0:0:
220,320,203841,1,0,0:0:0:0:
288,276,204127,1,0,0:0:0:0:
328,200,204412,2,0,P|268:192|252:172,1,70
256,112,204984,2,0,P|280:96|336:108,2,70
184,172,205841,1,0,0:0:0:0:
120,128,206127,1,0,0:0:0:0:
64,184,206412,6,0,P|60:216|88:264,2,70
128,120,207269,1,0,0:0:0:0:
180,180,207555,2,0,P|192:208|180:252,2,70
252,132,208412,1,0,0:0:0:0:
320,88,208698,1,0,0:0:0:0:
380,152,208984,1,0,0:0:0:0:
300,200,209269,1,0,0:0:0:0:
