osu file format v14

[General]
AudioFilename: audio.mp3
AudioLeadIn: 0
PreviewTime: -1
Countdown: 1
SampleSet: Normal
StackLeniency: 0.7
Mode: 0
LetterboxInBreaks: 0
WidescreenStoryboard: 0

[Editor]
DistanceSpacing: 0.2
BeatDivisor: 6
GridSize: 32
TimelineZoom: 1.599999

[Metadata]
Title:Unity
TitleUnicode:Unity
Artist:TheFatRat
ArtistUnicode:TheFatRat
Creator:Actenx115
Version:Insane
Source:
Tags:
BeatmapID:1409856
BeatmapSetID:666107

[Difficulty]
HPDrainRate:6
CircleSize:4
OverallDifficulty:6
ApproachRate:9
SliderMultiplier:1.4
SliderTickRate:1

[Events]
//Background and Video events
0,0,"474259.jpg",0,0
//Break Periods
2,118192,136820
2,173049,181868
//Storyboard Layer 0 (Background)
//Storyboard Layer 1 (Fail)
//Storyboard Layer 2 (Pass)
//Storyboard Layer 3 (Foreground)
//Storyboard Sound Samples

[TimingPoints]
278,571.428571428571,4,1,0,100,1,0

[HitObjects]
256,192,2563,12,0,8277,0:0:0:0:
256,192,9420,5,0,0:0:0:0:
416,32,10563,1,0,0:0:0:0:
416,256,11706,1,0,0:0:0:0:
480,224,11992,1,0,0:0:0:0:
480,160,12277,1,0,0:0:0:0:
448,96,12563,1,0,0:0:0:0:
384,64,12849,1,0,0:0:0:0:
256,192,13992,5,0,0:0:0:0:
96,64,15135,1,0,0:0:0:0:
96,288,16277,1,0,0:0:0:0:
32,256,16563,1,0,0:0:0:0:
0,192,16849,1,0,0:0:0:0:
0,128,17135,1,0,0:0:0:0:
32,64,17420,1,0,0:0:0:0:
256,192,18563,5,0,0:0:0:0:
480,192,19706,1,0,0:0:0:0:
256,192,20849,1,0,0:0:0:0:
160,64,21135,1,0,0:0:0:0:
352,64,21420,1,0,0:0:0:0:
256,192,21706,1,0,0:0:0:0:
160,64,21992,1,0,0:0:0:0:
256,288,23135,5,0,0:0:0:0:
64,96,24277,1,0,0:0:0:0:
384,96,25420,1,0,0:0:0:0:
384,320,25706,1,0,0:0:0:0:
128,320,25992,1,0,0:0:0:0:
128,96,26277,1,0,0:0:0:0:
384,96,26563,1,0,0:0:0:0:
448,64,27706,5,2,0:0:0:0:
320,160,27992,1,2,0:0:0:0:
192,64,28277,1,2,0:0:0:0:
26,104,28563,1,0,0:0:0:0:
61,157,28754,1,0,0:0:0:0:
81,172,28849,1,0,0:0:0:0:
152,193,29039,1,0,0:0:0:0:
179,199,29135,1,0,0:0:0:0:
288,192,29420,1,0,0:0:0:0:
480,192,29706,1,0,0:0:0:0:
416,32,29992,5,0,0:0:0:0:
224,32,30277,1,0,0:0:0:0:
32,32,30563,1,0,0:0:0:0:
68,174,30849,1,0,0:0:0:0:
149,233,31039,1,0,0:0:0:0:
166,243,31135,1,0,0:0:0:0:
279,276,31325,1,0,0:0:0:0:
295,277,31420,1,0,0:0:0:0:
480,288,31706,1,0,0:0:0:0:
480,96,31992,1,2,0:0:0:0:
160,224,32277,5,0,0:0:0:0:
256,96,32563,1,0,0:0:0:0:
384,288,32849,1,0,0:0:0:0:
96,288,33135,1,0,0:0:0:0:
256,96,33325,2,0,L|288:128,1,23.3333333333333
384,288,33611,2,0,L|352:288,1,23.3333333333333
96,288,33992,1,0,0:0:0:0:
256,160,34277,1,0,0:0:0:0:
416,256,34563,5,0,0:0:0:0:
192,256,34849,1,0,0:0:0:0:
192,64,35135,1,0,0:0:0:0:
416,64,35420,1,0,0:0:0:0:
416,192,35611,2,0,L|384:224,1,23.3333333333333
288,256,35897,2,0,L|256:256,1,23.3333333333333
160,192,36277,1,0,0:0:0:0:
160,64,36563,1,0,0:0:0:0:
288,32,36849,6,0,P|320:32|352:64,1,70
352,160,37420,1,0,0:0:0:0:
352,256,37706,2,0,P|320:288|288:288,1,70
96,224,38277,1,0,0:0:0:0:
96,64,38563,1,0,0:0:0:0:
256,64,38849,1,0,0:0:0:0:
384,64,39135,6,0,P|384:96|352:128,1,70
360,124,39420,2,0,L|288:128,1,70
290,127,39706,2,0,P|256:128|224:160,1,70
224,160,39992,2,0,P|224:192|256:224,1,70
247,220,40277,2,0,L|320:224,1,70
317,223,40563,2,0,P|352:224|384:192,2,70
192,224,41420,5,0,0:0:0:0:
64,128,41706,1,0,0:0:0:0:
192,32,41992,1,0,0:0:0:0:
192,256,42277,1,0,0:0:0:0:
448,160,42563,1,0,0:0:0:0:
384,352,42849,1,0,0:0:0:0:
96,224,43135,1,0,0:0:0:0:
256,32,43420,1,0,0:0:0:0:
480,192,43706,1,0,0:0:0:0:
192,352,43992,1,0,0:0:0:0:
32,96,44277,1,0,0:0:0:0:
448,0,44563,1,0,0:0:0:0:
256,288,44849,1,0,0:0:0:0:
256,192,45992,6,0,L|256:64,1,116.666666666667
256,64,46563,2,0,P|320:32|384:64,1,140
192,64,47611,2,0,L|224:64,1,23.3333333333333
288,64,47897,2,0,L|320:64,1,23.3333333333333
96,64,48277,1,0,0:0:0:0:
288,64,48563,1,0,0:0:0:0:
192,224,48849,1,0,0:0:0:0:
448,96,49135,1,0,0:0:0:0:
320,352,49420,1,0,0:0:0:0:
160,192,49897,5,0,0:0:0:0:
166,182,49992,1,0,0:0:0:0:
194,129,50182,1,0,0:0:0:0:
200,119,50277,1,0,0:0:0:0:
224,64,50563,1,0,0:0:0:0:
320,128,51039,5,0,0:0:0:0:
315,138,51135,1,0,0:0:0:0:
291,181,51325,1,0,0:0:0:0:
285,191,51420,1,0,0:0:0:0:
256,256,51706,1,0,0:0:0:0:
64,320,52182,5,0,0:0:0:0:
72,311,52277,1,0,0:0:0:0:
128,256,52468,1,0,0:0:0:0:
136,247,52563,1,0,0:0:0:0:
128,96,52849,1,0,0:0:0:0:
352,224,53135,1,0,0:0:0:0:
288,0,53420,1,0,0:0:0:0:
192,256,53706,1,0,0:0:0:0:
480,96,53992,1,0,0:0:0:0:
352,32,54468,6,0,L|320:32,1,23.3333333333333
224,32,54754,2,0,L|192:32,1,23.3333333333333
32,32,55135,1,0,0:0:0:0:
352,160,55611,2,0,L|320:160,1,23.3333333333333
224,160,55897,2,0,L|192:160,1,23.3333333333333
32,160,56277,1,0,0:0:0:0:
352,320,56754,2,0,L|320:320,1,23.3333333333333
224,320,57039,2,0,L|192:320,1,23.3333333333333
32,320,57420,1,0,0:0:0:0:
32,192,57706,5,0,0:0:0:0:
256,256,57992,1,0,0:0:0:0:
224,0,58277,1,0,0:0:0:0:
512,224,58563,1,0,0:0:0:0:
96,32,59039,6,0,L|96:64,1,23.3333333333333
128,160,59325,2,2,L|128:192,1,23.3333333333333
160,320,59706,1,0,0:0:0:0:
224,32,60182,6,0,L|224:64,1,23.3333333333333
256,160,60468,2,2,L|256:192,1,23.3333333333333
320,320,60849,1,0,0:0:0:0:
352,32,61325,2,0,L|352:64,1,23.3333333333333
384,160,61611,2,2,L|384:192,1,23.3333333333333
416,320,61992,1,0,0:0:0:0:
320,128,62277,1,0,0:0:0:0:
128,32,62563,1,0,0:0:0:0:
32,192,62849,1,0,0:0:0:0:
384,352,63135,1,0,0:0:0:0:
96,96,64277,5,0,0:0:0:0:
224,288,64563,1,0,0:0:0:0:
288,32,64849,1,0,0:0:0:0:
416,256,65135,1,0,0:0:0:0:
128,160,65420,1,0,0:0:0:0:
448,96,65706,1,0,0:0:0:0:
320,288,65992,1,0,0:0:0:0:
224,32,66277,1,0,0:0:0:0:
325,104,66563,5,0,0:0:0:0:
159,42,66849,1,0,0:0:0:0:
76,186,67135,1,0,0:0:0:0:
405,96,67420,1,2,0:0:0:0:
192,256,67706,1,0,0:0:0:0:
128,64,67992,1,0,0:0:0:0:
352,128,68277,1,0,0:0:0:0:
64,224,68563,1,0,0:0:0:0:
212,152,68849,5,0,0:0:0:0:
416,32,69135,1,0,0:0:0:0:
352,256,69420,1,0,0:0:0:0:
224,32,69706,1,0,0:0:0:0:
429,132,69992,1,0,0:0:0:0:
165,210,70277,1,0,0:0:0:0:
32,64,70563,1,0,0:0:0:0:
32,288,70849,1,0,0:0:0:0:
155,153,71135,5,0,0:0:0:0:
319,83,71420,1,0,0:0:0:0:
188,289,71706,1,0,0:0:0:0:
437,115,71992,1,0,0:0:0:0:
319,293,72277,1,0,0:0:0:0:
192,64,72563,1,0,0:0:0:0:
476,63,72849,1,0,0:0:0:0:
220,241,73135,1,0,0:0:0:0:
335,73,73420,1,0,0:0:0:0:
393,311,73706,1,0,0:0:0:0:
140,146,73992,5,0,0:0:0:0:
411,119,74277,1,0,0:0:0:0:
215,302,74563,1,0,0:0:0:0:
243,55,74849,1,0,0:0:0:0:
378,246,75135,1,0,0:0:0:0:
94,147,75420,1,0,0:0:0:0:
258,83,75706,5,0,0:0:0:0:
251,302,75992,1,0,0:0:0:0:
88,239,76277,1,0,0:0:0:0:
376,146,76563,1,0,0:0:0:0:
132,83,76849,1,0,0:0:0:0:
374,283,77135,1,0,0:0:0:0:
319,52,77420,1,0,0:0:0:0:
81,239,77706,1,0,0:0:0:0:
388,242,77992,1,0,0:0:0:0:
146,102,78277,1,0,0:0:0:0:
260,278,78563,5,0,0:0:0:0:
361,54,78849,1,0,0:0:0:0:
93,147,79135,1,0,0:0:0:0:
390,265,79420,1,0,0:0:0:0:
218,31,79706,1,0,0:0:0:0:
174,292,79992,1,0,0:0:0:0:
383,75,80277,1,0,0:0:0:0:
103,93,80563,1,0,0:0:0:0:
380,244,80849,1,0,0:0:0:0:
295,1,81135,1,0,0:0:0:0:
46,320,81420,1,0,0:0:0:0:
192,128,81897,5,0,0:0:0:0:
192,96,81992,1,0,0:0:0:0:
320,96,82182,1,0,0:0:0:0:
320,128,82277,1,0,0:0:0:0:
256,224,82563,1,0,0:0:0:0:
352,256,83039,5,0,0:0:0:0:
352,224,83135,1,0,0:0:0:0:
224,256,83325,1,0,0:0:0:0:
224,224,83420,1,0,0:0:0:0:
288,128,83706,1,0,0:0:0:0:
128,128,84182,6,0,L|160:96,1,23.3333333333333
192,64,84468,2,0,L|224:32,1,23.3333333333333
352,32,84849,1,0,0:0:0:0:
256,192,85135,5,0,0:0:0:0:
256,64,85420,1,0,0:0:0:0:
384,288,85706,1,0,0:0:0:0:
128,288,85992,1,0,0:0:0:0:
128,96,86468,6,0,L|96:128,1,23.3333333333333
192,192,86754,2,0,L|160:224,1,23.3333333333333
288,320,87135,1,0,0:0:0:0:
384,256,87611,6,0,L|416:224,1,23.3333333333333
288,160,87897,2,0,L|320:128,1,23.3333333333333
192,32,88277,1,0,0:0:0:0:
224,192,88754,5,0,0:0:0:0:
224,192,88849,1,0,0:0:0:0:
192,160,89039,1,0,0:0:0:0:
192,160,89135,1,0,0:0:0:0:
192,160,89420,1,0,0:0:0:0:
288,160,89706,1,0,0:0:0:0:
288,288,89992,1,0,0:0:0:0:
96,288,90277,1,0,0:0:0:0:
96,64,90563,1,0,0:0:0:0:
320,32,91039,5,0,0:0:0:0:
320,32,91135,1,0,0:0:0:0:
320,64,91325,1,0,0:0:0:0:
320,64,91420,1,0,0:0:0:0:
320,160,91706,1,0,0:0:0:0:
320,320,92182,1,0,0:0:0:0:
320,320,92277,1,0,0:0:0:0:
320,256,92468,1,0,0:0:0:0:
320,256,92563,1,0,0:0:0:0:
320,160,92849,1,0,0:0:0:0:
256,160,93325,1,0,0:0:0:0:
256,160,93420,1,0,0:0:0:0:
160,160,93706,1,0,0:0:0:0:
64,64,93992,5,0,0:0:0:0:
128,288,94277,1,0,0:0:0:0:
384,288,94563,1,0,0:0:0:0:
416,64,94849,1,0,0:0:0:0:
96,160,95135,1,0,0:0:0:0:
256,96,95611,6,0,L|288:96,1,23.3333333333333
320,288,95897,2,0,L|352:288,1,23.3333333333333
416,160,96277,1,0,0:0:0:0:
416,96,96754,6,0,L|384:96,1,23.3333333333333
384,288,97039,2,0,L|352:288,1,23.3333333333333
256,160,97420,1,0,0:0:0:0:
0,160,97897,2,0,L|32:160,1,23.3333333333333
96,160,98182,2,0,L|128:160,1,23.3333333333333
224,160,98563,1,0,0:0:0:0:
384,160,98849,1,0,0:0:0:0:
512,160,99135,1,0,0:0:0:0:
32,160,99420,1,0,0:0:0:0:
256,160,99706,1,0,0:0:0:0:
256,160,100849,5,0,0:0:0:0:
160,256,101135,1,0,0:0:0:0:
384,128,101420,1,0,0:0:0:0:
160,96,101706,1,0,0:0:0:0:
320,256,101992,1,0,0:0:0:0:
288,96,102277,1,0,0:0:0:0:
160,256,102563,1,0,0:0:0:0:
448,128,102849,1,0,0:0:0:0:
96,96,103135,1,0,0:0:0:0:
384,288,103420,1,0,0:0:0:0:
32,288,103706,5,0,0:0:0:0:
384,128,103992,1,0,0:0:0:0:
32,64,104277,1,0,0:0:0:0:
288,320,104563,1,0,0:0:0:0:
0,192,104849,1,0,0:0:0:0:
192,32,105135,1,0,0:0:0:0:
128,288,105420,1,0,0:0:0:0:
384,128,105706,1,0,0:0:0:0:
32,64,105992,1,0,0:0:0:0:
96,256,106277,5,0,0:0:0:0:
192,64,106563,1,0,0:0:0:0:
288,256,106849,1,0,0:0:0:0:
96,128,107135,1,0,0:0:0:0:
288,128,107420,1,0,0:0:0:0:
128,288,107706,1,0,0:0:0:0:
224,32,107992,1,0,0:0:0:0:
352,288,108277,1,0,0:0:0:0:
64,96,108563,1,0,0:0:0:0:
384,96,108849,1,0,0:0:0:0:
128,288,109135,1,0,0:0:0:0:
224,0,109420,1,0,0:0:0:0:
352,288,109706,1,0,0:0:0:0:
160,128,109992,5,0,0:0:0:0:
320,128,110277,1,0,0:0:0:0:
320,288,110563,1,0,0:0:0:0:
128,288,110849,1,0,0:0:0:0:
128,64,111135,1,0,0:0:0:0:
352,64,111420,1,0,0:0:0:0:
352,288,111706,1,0,0:0:0:0:
96,288,111992,1,0,0:0:0:0:
96,32,112277,1,0,0:0:0:0:
352,32,112563,1,0,0:0:0:0:
352,224,112849,5,0,0:0:0:0:
160,224,113135,1,0,0:0:0:0:
160,64,113420,1,0,0:0:0:0:
320,64,113706,1,0,0:0:0:0:
320,192,113992,1,0,0:0:0:0:
192,192,114277,1,0,0:0:0:0:
192,96,114563,1,0,0:0:0:0:
288,96,114849,1,0,0:0:0:0:
288,192,115135,1,0,0:0:0:0:
192,160,115420,1,0,0:0:0:0:
192,32,115706,5,0,0:0:0:0:
352,32,115992,1,0,0:0:0:0:
448,192,116277,1,0,0:0:0:0:
288,320,116563,1,0,0:0:0:0:
64,256,116849,1,0,0:0:0:0:
32,32,117135,1,0,0:0:0:0:
320,32,117420,1,0,0:0:0:0:
448,288,117706,1,0,0:0:0:0:
32,96,117992,1,0,0:0:0:0:
256,192,137420,12,0,141135,0:0:0:0:
102,240,141801,6,0,B|160:96|222:127|244:282|335:249|352:160,3,350
320,160,146563,2,0,P|416:32|320:64,2,420
96,192,151135,2,0,B|128:160|128:160|160:224|160:224|192:160|192:160|224:224|224:224|256:160|256:160|288:224|288:224|288:192,2,420
32,192,155706,5,0,0:0:0:0:
189,85,156277,1,0,0:0:0:0:
54,157,156849,1,0,0:0:0:0:
313,57,157420,1,0,0:0:0:0:
320,160,157706,5,0,0:0:0:0:
160,288,157992,1,0,0:0:0:0:
416,288,158277,1,0,0:0:0:0:
161,73,158563,1,0,0:0:0:0:
416,64,158849,1,0,0:0:0:0:
160,224,159135,1,0,0:0:0:0:
288,32,159420,1,0,0:0:0:0:
288,288,159706,1,0,0:0:0:0:
32,32,159992,1,0,0:0:0:0:
384,64,160277,5,0,0:0:0:0:
192,64,160563,1,0,0:0:0:0:
480,192,160849,1,0,0:0:0:0:
96,160,161135,1,0,0:0:0:0:
512,320,161420,1,0,0:0:0:0:
32,320,161706,1,0,0:0:0:0:
192,192,161992,1,0,0:0:0:0:
384,192,162277,1,0,0:0:0:0:
32,32,162563,5,0,0:0:0:0:
256,32,162849,1,0,0:0:0:0:
32,192,163135,1,0,0:0:0:0:
320,128,163420,1,0,0:0:0:0:
256,320,163706,1,0,0:0:0:0:
480,288,163992,1,0,0:0:0:0:
448,32,164277,1,0,0:0:0:0:
96,32,164563,1,0,0:0:0:0:
96,256,164849,5,0,0:0:0:0:
288,64,165135,1,0,0:0:0:0:
384,288,165420,1,0,0:0:0:0:
96,96,165706,1,0,0:0:0:0:
416,64,165992,1,0,0:0:0:0:
256,288,166277,1,0,0:0:0:0:
160,64,166563,1,0,0:0:0:0:
448,96,166849,1,0,0:0:0:0:
96,224,167135,1,0,0:0:0:0:
448,288,167420,1,0,0:0:0:0:
192,32,167706,1,0,0:0:0:0:
160,320,167992,1,0,0:0:0:0:
416,64,168277,5,0,0:0:0:0:
128,64,168563,1,0,0:0:0:0:
416,320,168849,1,0,0:0:0:0:
128,320,169135,1,0,0:0:0:0:
192,64,169420,1,0,0:0:0:0:
375,269,169706,1,0,0:0:0:0:
87,194,169992,1,0,0:0:0:0:
388,149,170277,1,0,0:0:0:0:
155,81,170563,1,0,0:0:0:0:
382,283,170849,5,0,0:0:0:0:
168,237,171135,1,0,0:0:0:0:
329,120,171420,1,0,0:0:0:0:
483,259,171706,1,0,0:0:0:0:
178,128,171992,1,0,0:0:0:0:
371,37,172277,1,0,0:0:0:0:
347,282,172563,1,0,0:0:0:0:
38,57,172849,1,0,0:0:0:0:
85,109,182468,6,0,P|118:102|119:103,1,23.3333333333333
256,96,182754,2,0,P|277:120|277:121,1,23.3333333333333
256,256,183135,1,0,0:0:0:0:
124,261,183611,2,0,P|101:247|101:246,1,23.3333333333333
64,128,183897,2,0,P|86:103|87:103,1,23.3333333333333
256,32,184277,1,0,0:0:0:0:
400,143,184754,5,0,0:0:0:0:
398,147,184849,1,0,0:0:0:0:
358,202,185039,1,0,0:0:0:0:
358,202,185135,1,0,0:0:0:0:
247,273,185420,1,0,0:0:0:0:
51,213,185706,1,0,0:0:0:0:
133,12,185992,1,0,0:0:0:0:
401,22,186277,1,0,0:0:0:0:
256,256,186563,1,0,0:0:0:0:
320,128,187039,6,0,L|288:160,1,23.3333333333333
256,192,187325,2,0,L|224:224,1,23.3333333333333
128,224,187706,1,0,0:0:0:0:
128,128,188182,2,0,L|160:96,1,23.3333333333333
192,64,188468,2,0,L|224:32,1,23.3333333333333
352,32,188849,1,0,0:0:0:0:
416,128,189325,5,0,0:0:0:0:
416,128,189420,1,0,0:0:0:0:
384,256,189611,1,0,0:0:0:0:
384,256,189706,1,0,0:0:0:0:
224,288,189992,1,0,0:0:0:0:
64,192,190277,1,0,0:0:0:0:
256,32,190563,1,0,0:0:0:0:
480,64,190849,1,0,0:0:0:0:
512,320,191135,1,0,0:0:0:0:
85,191,192277,5,0,0:0:0:0:
256,192,192563,1,0,0:0:0:0:
480,192,192849,1,0,0:0:0:0:
32,192,193135,1,0,0:0:0:0:
255,193,193420,1,0,0:0:0:0:
416,192,193706,1,0,0:0:0:0:
128,192,193992,1,0,0:0:0:0:
352,192,194277,1,0,0:0:0:0:
128,192,194563,1,0,0:0:0:0:
480,192,194849,1,0,0:0:0:0:
96,192,195135,1,0,0:0:0:0:
128,32,195420,5,0,0:0:0:0:
384,32,195706,1,0,0:0:0:0:
128,160,195991,1,0,0:0:0:0:
384,160,196277,1,0,0:0:0:0:
128,288,196563,1,0,0:0:0:0:
384,288,196849,1,0,0:0:0:0:
256,64,197135,1,0,0:0:0:0:
256,288,197420,1,0,0:0:0:0:
96,192,197706,5,0,0:0:0:0:
416,192,197992,1,0,0:0:0:0:
128,192,198278,1,0,0:0:0:0:
320,64,198564,1,0,0:0:0:0:
320,256,198850,1,0,0:0:0:0:
128,96,199135,1,0,0:0:0:0:
416,96,199421,1,0,0:0:0:0:
160,256,199707,1,0,0:0:0:0:
256,64,199992,1,0,0:0:0:0:
352,256,200277,1,0,0:0:0:0:
416,64,200563,1,0,0:0:0:0:
512,256,200849,1,0,0:0:0:0:
224,192,201135,1,0,0:0:0:0:
0,192,201420,5,0,0:0:0:0:
96,64,201706,1,0,0:0:0:0:
192,288,201992,1,0,0:0:0:0:
288,64,202277,1,0,0:0:0:0:
384,288,202563,1,0,0:0:0:0:
448,64,202849,1,0,0:0:0:0:
256,192,203135,1,0,0:0:0:0:
32,192,203420,1,0,0:0:0:0:
480,192,203706,1,0,0:0:0:0:
320,352,203992,1,0,0:0:0:0:
256,160,204277,1,0,0:0:0:0:
160,352,204563,1,0,0:0:0:0:
96,160,204849,1,0,0:0:0:0:
192,0,205135,1,0,0:0:0:0:
288,160,205420,1,0,0:0:0:0:
384,0,205706,1,0,0:0:0:0:
480,192,205992,5,0,0:0:0:0:
352,320,206277,1,0,0:0:0:0:
288,160,206563,1,0,0:0:0:0:
480,192,206849,1,0,0:0:0:0:
352,320,207135,1,0,0:0:0:0:
288,160,207420,1,0,0:0:0:0:
480,192,207706,1,0,0:0:0:0:
352,320,207992,1,0,0:0:0:0:
288,160,208277,1,0,0:0:0:0:
480,192,208563,1,0,0:0:0:0:
352,320,208849,1,0,0:0:0:0:
96,320,209135,1,0,0:0:0:0:
64,64,209420,1,0,0:0:0:0:
