osu file format v14

[General]
AudioFilename: audio.mp3
AudioLeadIn: 0
PreviewTime: -1
Countdown: 1
SampleSet: Normal
StackLeniency: 0.7
Mode: 0
LetterboxInBreaks: 0
WidescreenStoryboard: 0

[Editor]
DistanceSpacing: 2
BeatDivisor: 4
GridSize: 4
TimelineZoom: 1.6

[Metadata]
Title:Unity
TitleUnicode:Unity
Artist:TheFatRat
ArtistUnicode:TheFatRat
Creator:-Moonbyul-
Version:owo
Source:
Tags:
BeatmapID:2076877
BeatmapSetID:993175

[Difficulty]
HPDrainRate:2.5
CircleSize:4
OverallDifficulty:6
ApproachRate:9
SliderMultiplier:2
SliderTickRate:1

[Events]
//Background and Video events
0,0,"unity.jpg",0,0
//Break Periods
//Storyboard Layer 0 (Background)
//Storyboard Layer 1 (Fail)
//Storyboard Layer 2 (Pass)
//Storyboard Layer 3 (Foreground)
//Storyboard Sound Samples

[TimingPoints]
7104,571.419748619311,4,1,0,100,1,0
26817,-133.333333333333,4,1,0,100,0,0
45246,-100,4,1,0,100,0,0
63388,-200,4,1,0,100,0,0
81959,-100,4,1,0,100,0,0
99959,-200,4,1,0,100,0,0
100816,-100,4,1,0,100,0,0

[HitObjects]
59,109,7104,5,0,0:0:0:0:
180,107,7389,1,0,0:0:0:0:
114,184,7675,1,0,0:0:0:0:
243,183,7961,1,0,0:0:0:0:
176,255,8246,1,0,0:0:0:0:
376,58,8818,5,0,0:0:0:0:
421,153,9103,1,0,0:0:0:0:
369,246,9389,2,0,P|333:281|266:290,1,100
72,151,9961,5,0,0:0:0:0:
141,232,10246,1,0,0:0:0:0:
197,146,10532,2,0,P|236:120|288:109,1,100
405,133,11103,5,0,0:0:0:0:
487,229,11389,1,0,0:0:0:0:
314,330,11675,5,0,0:0:0:0:
337,174,11961,1,0,0:0:0:0:
234,257,12246,1,0,0:0:0:0:
292,98,12532,1,0,0:0:0:0:
159,146,12818,1,0,0:0:0:0:
30,66,13389,5,0,0:0:0:0:
93,176,13675,1,0,0:0:0:0:
7,263,13961,2,0,P|57:303|106:307,1,100
256,246,14532,5,0,0:0:0:0:
384,213,14818,1,0,0:0:0:0:
389,83,15103,2,0,P|340:91|303:124,1,100
256,247,15675,1,0,0:0:0:0:
136,173,15961,1,0,0:0:0:0:
252,130,16246,5,0,0:0:0:0:
342,36,16532,1,0,0:0:0:0:
365,173,16818,1,0,0:0:0:0:
228,36,17103,1,0,0:0:0:0:
472,63,17389,1,0,0:0:0:0:
478,312,17960,5,0,0:0:0:0:
358,245,18246,1,0,0:0:0:0:
248,315,18532,2,0,P|187:331|123:310,1,100
42,202,19103,5,0,0:0:0:0:
133,128,19389,1,0,0:0:0:0:
180,242,19675,2,0,P|203:198|255:174,1,100
303,256,20246,5,0,0:0:0:0:
459,310,20532,1,0,0:0:0:0:
458,178,20818,5,0,0:0:0:0:
372,81,21103,1,0,0:0:0:0:
249,49,21389,1,0,0:0:0:0:
133,89,21675,1,0,0:0:0:0:
46,195,21960,1,0,0:0:0:0:
218,305,22532,5,0,0:0:0:0:
250,201,22818,1,0,0:0:0:0:
342,143,23103,2,0,P|376:110|399:58,1,100
243,45,23675,5,0,0:0:0:0:
117,77,23960,1,0,0:0:0:0:
39,175,24246,2,0,P|28:237|39:284,1,100
168,351,24818,5,0,0:0:0:0:
310,377,25103,1,0,0:0:0:0:
266,230,25389,5,0,0:0:0:0:
112,312,25675,1,0,0:0:0:0:
122,160,25960,1,0,0:0:0:0:
112,312,26246,1,0,0:0:0:0:
294,137,26532,1,0,0:0:0:0:
419,50,26817,6,0,L|437:128,1,75.0000028610231
378,127,27389,2,0,L|373:195,1,50.0000019073487
369,239,27675,5,0,0:0:0:0:
301,344,27960,1,0,0:0:0:0:
254,227,28246,1,0,0:0:0:0:
174,338,28532,1,0,0:0:0:0:
170,171,28817,1,0,0:0:0:0:
71,234,29103,1,0,0:0:0:0:
70,117,29389,1,0,0:0:0:0:
170,171,29675,1,0,0:0:0:0:
296,72,29960,5,0,0:0:0:0:
460,97,30246,1,0,0:0:0:0:
251,135,30532,1,0,0:0:0:0:
399,155,30817,1,0,0:0:0:0:
302,237,31103,1,0,0:0:0:0:
251,135,31389,1,0,0:0:0:0:
172,220,31675,1,0,0:0:0:0:
228,325,31960,1,0,0:0:0:0:
85,307,32246,5,0,0:0:0:0:
41,208,32532,1,0,0:0:0:0:
106,126,32817,1,0,0:0:0:0:
47,33,33103,1,0,0:0:0:0:
168,30,33389,1,0,0:0:0:0:
106,126,33675,1,0,0:0:0:0:
232,126,33960,1,0,0:0:0:0:
284,235,34246,1,0,0:0:0:0:
364,125,34532,5,0,0:0:0:0:
432,210,34817,1,0,0:0:0:0:
491,112,35103,1,0,0:0:0:0:
417,32,35389,1,0,0:0:0:0:
432,210,35674,1,0,0:0:0:0:
341,280,35960,1,0,0:0:0:0:
269,184,36246,1,0,0:0:0:0:
341,280,36532,1,0,0:0:0:0:
220,302,36817,5,0,0:0:0:0:
43,258,37103,1,0,0:0:0:0:
190,219,37389,1,0,0:0:0:0:
24,168,37674,1,0,0:0:0:0:
157,134,37960,1,0,0:0:0:0:
266,162,38246,1,0,0:0:0:0:
368,121,38532,1,0,0:0:0:0:
464,177,38817,1,0,0:0:0:0:
428,340,39103,5,0,0:0:0:0:
464,177,39389,1,0,0:0:0:0:
307,215,39674,1,0,0:0:0:0:
341,46,39960,1,0,0:0:0:0:
221,18,40246,1,0,0:0:0:0:
126,62,40532,1,0,0:0:0:0:
25,24,40817,1,0,0:0:0:0:
34,128,41103,1,0,0:0:0:0:
77,295,41389,5,0,0:0:0:0:
159,196,41674,1,0,0:0:0:0:
187,316,41960,1,0,0:0:0:0:
61,172,42246,1,0,0:0:0:0:
256,214,42532,1,0,0:0:0:0:
106,367,42817,1,0,0:0:0:0:
11,226,43103,1,0,0:0:0:0:
276,287,43389,1,0,0:0:0:0:
423,343,43674,5,0,0:0:0:0:
407,122,43960,1,0,0:0:0:0:
337,274,44246,5,0,0:0:0:0:
311,36,44531,1,0,0:0:0:0:
104,152,44817,5,0,0:0:0:0:
306,202,45389,6,0,P|228:230|170:233,1,100
92,236,45960,1,0,0:0:0:0:
223,124,46531,6,0,P|284:95|335:90,1,100
414,87,47102,1,0,0:0:0:0:
458,312,47674,6,0,P|384:300|335:306,1,100
261,330,48246,5,0,0:0:0:0:
231,139,48531,1,0,0:0:0:0:
182,294,48817,1,0,0:0:0:0:
152,81,49103,1,0,0:0:0:0:
102,240,49389,1,0,0:0:0:0:
251,89,49960,6,0,P|327:61|382:58,1,100
455,57,50531,1,0,0:0:0:0:
339,196,51103,6,0,P|271:229|209:238,1,100
130,248,51674,1,0,0:0:0:0:
22,56,52246,6,0,P|87:88|130:87,1,100
212,55,52817,5,0,0:0:0:0:
257,264,53103,1,0,0:0:0:0:
293,81,53388,1,0,0:0:0:0:
343,311,53674,1,0,0:0:0:0:
363,133,53960,1,0,0:0:0:0:
464,28,54531,6,0,P|482:82|482:141,1,100
460,242,55103,1,0,0:0:0:0:
290,360,55674,6,0,P|259:299|256:253,1,100
269,142,56246,1,0,0:0:0:0:
85,33,56817,6,0,P|105:91|103:146,1,100
83,242,57388,5,0,0:0:0:0:
326,205,57674,1,0,0:0:0:0:
73,302,57960,1,0,0:0:0:0:
325,256,58246,1,0,0:0:0:0:
72,353,58531,1,0,0:0:0:0:
457,36,59103,6,0,P|389:78|328:82,1,100
252,87,59674,1,0,0:0:0:0:
16,163,60246,6,0,P|71:191|145:202,1,100
237,202,60817,1,0,0:0:0:0:
482,275,61388,6,0,P|420:300|352:305,1,100
262,297,61960,5,0,0:0:0:0:
282,91,62246,1,0,0:0:0:0:
164,167,62531,1,0,0:0:0:0:
414,188,62817,1,0,0:0:0:0:
68,159,63103,1,0,0:0:0:0:
126,38,63388,6,0,L|135:95,1,50
214,110,63960,2,0,L|208:152,1,33.3333333333333
199,210,64245,5,0,0:0:0:0:
334,267,64531,1,0,0:0:0:0:
207,353,64817,1,0,0:0:0:0:
334,267,65103,1,0,0:0:0:0:
449,284,65388,1,0,0:0:0:0:
426,188,65674,1,0,0:0:0:0:
484,111,65960,1,0,0:0:0:0:
418,47,66245,1,0,0:0:0:0:
288,90,66531,5,0,0:0:0:0:
185,33,66817,1,0,0:0:0:0:
125,127,67103,1,0,0:0:0:0:
34,54,67388,1,0,0:0:0:0:
1,171,67674,1,0,0:0:0:0:
61,230,67960,1,0,0:0:0:0:
15,296,68245,1,0,0:0:0:0:
54,352,68531,1,0,0:0:0:0:
186,290,68817,5,0,0:0:0:0:
279,211,69103,1,0,0:0:0:0:
307,327,69388,1,0,0:0:0:0:
279,211,69674,1,0,0:0:0:0:
390,230,69960,1,0,0:0:0:0:
365,139,70245,1,0,0:0:0:0:
421,74,70531,1,0,0:0:0:0:
379,19,70817,1,0,0:0:0:0:
225,45,71103,5,0,0:0:0:0:
260,159,71388,1,0,0:0:0:0:
136,125,71674,1,0,0:0:0:0:
154,251,71960,1,0,0:0:0:0:
243,219,72245,1,0,0:0:0:0:
304,278,72531,1,0,0:0:0:0:
379,253,72817,1,0,0:0:0:0:
432,294,73102,1,0,0:0:0:0:
452,170,73388,5,0,0:0:0:0:
375,30,73674,1,0,0:0:0:0:
323,184,73960,1,0,0:0:0:0:
375,30,74245,1,0,0:0:0:0:
274,68,74531,1,0,0:0:0:0:
190,38,74817,1,0,0:0:0:0:
133,84,75102,1,0,0:0:0:0:
76,55,75388,1,0,0:0:0:0:
59,244,75674,5,0,0:0:0:0:
200,168,75960,1,0,0:0:0:0:
177,313,76245,1,0,0:0:0:0:
112,188,76531,1,0,0:0:0:0:
141,98,76817,1,0,0:0:0:0:
77,30,77102,1,0,0:0:0:0:
163,12,77388,1,0,0:0:0:0:
231,41,77674,1,0,0:0:0:0:
378,19,77960,5,0,0:0:0:0:
466,84,78245,1,0,0:0:0:0:
399,166,78531,1,0,0:0:0:0:
311,101,78817,1,0,0:0:0:0:
193,149,79102,5,0,0:0:0:0:
338,210,79388,1,0,0:0:0:0:
282,341,79674,1,0,0:0:0:0:
133,282,79960,1,0,0:0:0:0:
76,48,80245,5,0,0:0:0:0:
432,48,80530,1,0,0:0:0:0:
24,108,80816,1,0,0:0:0:0:
496,108,81102,1,0,0:0:0:0:
256,104,81388,1,0,0:0:0:0:
28,237,81959,6,0,P|90:216|134:213,1,100
256,218,82531,1,0,0:0:0:0:
256,218,82817,1,0,0:0:0:0:
369,87,83102,6,0,P|388:131|390:194,1,100
379,287,83674,1,0,0:0:0:0:
379,287,83959,1,0,0:0:0:0:
68,306,84245,6,0,P|122:268|187:255,1,100
254,253,84817,5,0,0:0:0:0:
289,116,85102,1,0,0:0:0:0:
254,253,85388,1,0,0:0:0:0:
289,116,85674,1,0,0:0:0:0:
254,253,85959,1,0,0:0:0:0:
163,52,86531,6,0,P|102:82|71:122,1,100
48,202,87102,1,0,0:0:0:0:
48,202,87388,1,0,0:0:0:0:
201,157,87674,6,0,P|257:168|325:157,1,100
412,138,88245,1,0,0:0:0:0:
412,138,88531,1,0,0:0:0:0:
370,269,88817,6,0,P|312:258|251:262,1,100
165,289,89388,5,0,0:0:0:0:
17,147,89674,1,0,0:0:0:0:
165,289,89959,1,0,0:0:0:0:
17,147,90245,1,0,0:0:0:0:
165,289,90531,1,0,0:0:0:0:
181,46,91102,6,0,P|235:62|312:59,1,100
388,44,91674,1,0,0:0:0:0:
388,44,91959,1,0,0:0:0:0:
412,248,92245,6,0,P|322:226|292:229,1,100
213,257,92816,1,0,0:0:0:0:
213,257,93102,1,0,0:0:0:0:
22,126,93388,6,0,P|47:177|44:233,1,100
37,302,93959,5,0,0:0:0:0:
273,274,94245,1,0,0:0:0:0:
37,302,94531,1,0,0:0:0:0:
273,274,94816,1,0,0:0:0:0:
37,302,95102,1,0,0:0:0:0:
416,72,95674,6,0,P|439:125|441:181,1,100
434,251,96245,1,0,0:0:0:0:
434,251,96531,1,0,0:0:0:0:
294,108,96817,6,0,P|252:73|186:56,1,100
87,50,97388,1,0,0:0:0:0:
87,50,97674,1,0,0:0:0:0:
24,168,97959,6,0,P|85:175|130:200,1,100
226,269,98531,5,0,0:0:0:0:
428,121,98816,1,0,0:0:0:0:
226,269,99102,1,0,0:0:0:0:
428,121,99388,1,0,0:0:0:0:
226,269,99673,1,0,0:0:0:0:
123,99,99959,6,0,L|107:156,1,50
37,170,100531,2,0,L|43:216,1,33.3333333333333
53,273,100816,5,0,0:0:0:0:
177,172,101102,1,0,0:0:0:0:
195,336,101388,1,0,0:0:0:0:
317,216,101673,1,0,0:0:0:0:
177,172,101959,1,0,0:0:0:0:
260,117,102245,1,0,0:0:0:0:
218,44,102531,1,0,0:0:0:0:
272,3,102816,1,0,0:0:0:0:
391,43,103102,5,0,0:0:0:0:
504,129,103388,1,0,0:0:0:0:
368,180,103673,1,0,0:0:0:0:
497,276,103959,1,0,0:0:0:0:
397,336,104245,1,0,0:0:0:0:
305,221,104531,1,0,0:0:0:0:
255,325,104816,1,0,0:0:0:0:
156,275,105102,1,0,0:0:0:0:
50,85,105388,5,0,0:0:0:0:
229,40,105673,1,0,0:0:0:0:
149,197,105959,1,0,0:0:0:0:
229,40,106245,1,0,0:0:0:0:
292,134,106531,1,0,0:0:0:0:
373,85,106816,1,0,0:0:0:0:
445,133,107102,1,0,0:0:0:0:
510,97,107388,1,0,0:0:0:0:
470,274,107673,5,0,0:0:0:0:
325,185,107959,1,0,0:0:0:0:
322,361,108245,1,0,0:0:0:0:
168,269,108531,1,0,0:0:0:0:
63,331,108816,1,0,0:0:0:0:
41,244,109102,1,0,0:0:0:0:
96,185,109388,1,0,0:0:0:0:
49,136,109673,1,0,0:0:0:0:
149,49,109959,5,0,0:0:0:0:
328,36,110245,1,0,0:0:0:0:
111,102,110530,1,0,0:0:0:0:
371,78,110816,1,0,0:0:0:0:
160,136,111102,1,0,0:0:0:0:
314,122,111388,1,0,0:0:0:0:
211,172,111673,1,0,0:0:0:0:
269,166,111959,1,0,0:0:0:0:
458,301,112245,5,0,0:0:0:0:
441,109,112530,1,0,0:0:0:0:
405,344,112816,1,0,0:0:0:0:
383,82,113102,1,0,0:0:0:0:
344,273,113388,1,0,0:0:0:0:
335,158,113673,1,0,0:0:0:0:
289,239,113959,1,0,0:0:0:0:
283,184,114245,1,0,0:0:0:0:
35,120,114530,5,0,0:0:0:0:
205,137,114816,1,0,0:0:0:0:
187,288,115102,1,0,0:0:0:0:
18,271,115388,1,0,0:0:0:0:
284,75,115673,5,0,0:0:0:0:
501,93,115959,1,0,0:0:0:0:
482,290,116245,1,0,0:0:0:0:
256,266,116530,1,0,0:0:0:0:
256,28,116816,5,0,0:0:0:0:
256,350,117102,1,0,0:0:0:0:
256,28,117388,1,0,0:0:0:0:
256,350,117673,1,0,0:0:0:0:
256,189,117959,1,0,0:0:0:0:
