osu file format v14

[General]
AudioFilename: audio.mp3
AudioLeadIn: 0
PreviewTime: 32286
Countdown: 0
SampleSet: Soft
StackLeniency: 0.7
Mode: 0
LetterboxInBreaks: 0
WidescreenStoryboard: 1

[Editor]
Bookmarks: 15279
DistanceSpacing: 1
BeatDivisor: 4
GridSize: 16
TimelineZoom: 0.9000001

[Metadata]
Title:Time Lapse
TitleUnicode:Time Lapse
Artist:TheFatRat
ArtistUnicode:TheFatRat
Creator:NotReallyMe
Version:Time Lapse
Source:
Tags:
BeatmapID:2091048
BeatmapSetID:999748

[Difficulty]
HPDrainRate:4
CircleSize:4
OverallDifficulty:7
ApproachRate:9.5
SliderMultiplier:1.5
SliderTickRate:1

[Events]
//Background and Video events
0,0,"tfrtimelapse.jpg",0,0
//Break Periods
2,62723,77116
2,85341,92234
2,99809,114911
//Storyboard Layer 0 (Background)
//Storyboard Layer 1 (Fail)
//Storyboard Layer 2 (Pass)
//Storyboard Layer 3 (Foreground)
//Storyboard Layer 4 (Overlay)
//Storyboard Sound Samples

[TimingPoints]
15279,472.44094488189,4,2,0,100,1,0
47404,-33.3333333333333,4,2,0,100,0,0
115436,-100,4,2,0,100,0,0
145672,-200,4,2,0,100,0,0
149452,-100,4,2,0,100,0,0

[HitObjects]
105,58,15279,6,4,P|76:113|93:141,1,75,0|4,2:0|2:0,2:0:0:0:
144,256,15751,2,0,L|224:208,5,75,8|0|0|0|8|0,0:0|0:0|0:0|0:0|0:0|0:0,0:0:0:0:
320,64,17168,6,0,P|368:80|368:112,1,75
62,149,17641,1,8,0:0:0:0:
194,292,17877,1,0,0:0:0:0:
187,101,18113,1,0,0:0:0:0:
78,260,18349,1,0,0:0:0:0:
282,197,18586,1,8,0:0:0:0:
113,219,19058,6,0,P|98:163|107:157,1,75,0|0,2:0|2:0,2:0:0:0:
288,112,19530,2,0,L|352:160,5,75,8|0|0|0|8|0,0:0|0:0|0:0|0:0|0:0|0:0,0:0:0:0:
124,252,20948,6,0,P|89:216|118:196,1,75,0|0,2:0|2:0,2:0:0:0:
430,308,21420,1,8,0:0:0:0:
50,76,21656,5,0,0:0:0:0:
415,170,21893,1,0,0:0:0:0:
333,73,22129,5,0,0:0:0:0:
25,318,22365,1,8,0:0:0:0:
80,160,22838,6,0,B|142:105,1,75
320,224,23310,2,0,L|256:288,5,75,8|0|0|0|8|0,0:0|0:0|0:0|0:0|0:0|0:0,0:0:0:0:
294,100,24727,6,0,P|357:118|352:133,1,75
390,34,25200,1,8,0:0:0:0:
42,299,25436,5,0,0:0:0:0:
471,204,25672,1,0,0:0:0:0:
409,321,25908,5,0,0:0:0:0:
168,52,26145,1,8,0:0:0:0:
256,144,26617,5,0,2:0:0:0:
192,256,26853,1,0,2:0:0:0:
320,256,27090,1,12,2:0:0:0:
208,96,27562,5,0,2:0:0:0:
144,304,27798,1,0,2:0:0:0:
368,208,28034,1,12,2:0:0:0:
256,48,28507,5,0,2:0:0:0:
464,320,28743,1,0,2:0:0:0:
48,304,28979,1,0,2:0:0:0:
32,32,29216,5,0,2:0:0:0:
192,336,29452,1,0,2:0:0:0:
53,265,29688,5,0,2:0:0:0:
409,87,29924,1,0,2:0:0:0:
86,69,30160,5,0,2:0:0:0:
432,304,30397,1,0,2:0:0:0:
87,249,30633,5,0,2:0:0:0:
464,160,30869,1,0,2:0:0:0:
272,320,31105,5,0,2:0:0:0:
113,57,31341,1,0,2:0:0:0:
352,154,31578,2,8,P|353:193|352:199,4,37.5,8|8|8|8|8,2:0|2:0|2:0|2:0|2:0,2:0:0:0:
130,76,32286,6,2,P|102:143|123:171,1,112.5,2|2,2:0|2:0,2:0:0:0:
192,288,32759,1,0,2:0:0:0:
256,96,32877,1,0,2:0:0:0:
304,288,32995,1,0,2:0:0:0:
160,176,33113,1,0,2:0:0:0:
352,176,33231,1,0,2:0:0:0:
80,256,33349,1,0,2:0:0:0:
416,80,33467,1,0,2:0:0:0:
256,336,33586,1,0,2:0:0:0:
128,80,33704,1,0,2:0:0:0:
448,304,33822,1,0,2:0:0:0:
64,176,33940,1,0,2:0:0:0:
391,327,34058,1,0,2:0:0:0:
219,229,34176,6,2,P|257:242|280:219,1,75,2|2,2:0|2:0,2:0:0:0:
140,313,34649,1,0,2:0:0:0:
278,79,34885,1,0,2:0:0:0:
331,300,35121,1,0,2:0:0:0:
144,98,35357,1,0,2:0:0:0:
470,191,35593,1,0,2:0:0:0:
452,176,36066,6,2,P|446:218|412:227,1,75,2|2,2:0|2:0,2:0:0:0:
160,240,36538,1,0,2:0:0:0:
339,134,36656,1,0,2:0:0:0:
289,316,36775,1,0,2:0:0:0:
210,123,36893,1,0,2:0:0:0:
381,258,37011,1,0,2:0:0:0:
80,272,37129,1,0,2:0:0:0:
416,64,37247,1,0,2:0:0:0:
112,80,37365,1,0,2:0:0:0:
368,336,37483,1,0,2:0:0:0:
240,80,37601,1,0,2:0:0:0:
192,320,37719,1,0,2:0:0:0:
403,148,37838,1,0,2:0:0:0:
90,200,37956,6,2,B|172:150|170:151,1,75,2|2,2:0|2:0,2:0:0:0:
400,160,38428,1,0,0:0:0:0:
352,96,38546,1,0,0:0:0:0:
288,64,38664,1,0,0:0:0:0:
208,64,38782,1,0,0:0:0:0:
128,96,38901,1,0,0:0:0:0:
96,176,39019,1,0,0:0:0:0:
112,272,39137,1,0,0:0:0:0:
208,304,39255,1,0,0:0:0:0:
320,272,39373,1,0,0:0:0:0:
48,128,39845,6,2,P|80:96|112:112,1,75
128,304,40318,1,0,0:0:0:0:
192,112,40436,1,0,0:0:0:0:
272,304,40554,1,0,0:0:0:0:
112,208,40672,1,0,0:0:0:0:
272,112,40790,1,0,0:0:0:0:
384,304,40908,1,0,0:0:0:0:
192,112,41027,1,0,0:0:0:0:
384,224,41145,1,0,0:0:0:0:
64,320,41263,1,0,0:0:0:0:
176,64,41381,1,0,0:0:0:0:
324,296,41499,1,0,0:0:0:0:
71,186,41617,1,0,0:0:0:0:
333,93,41735,6,2,P|285:93|269:125,1,75,0|2,0:0|0:0,0:0:0:0:
96,96,42208,1,0,0:0:0:0:
320,208,42326,1,0,0:0:0:0:
80,224,42444,1,0,0:0:0:0:
240,80,42562,1,0,0:0:0:0:
192,304,42680,1,0,0:0:0:0:
384,80,42798,1,0,0:0:0:0:
290,338,42916,1,0,0:0:0:0:
464,32,43034,1,0,0:0:0:0:
80,240,43153,1,0,0:0:0:0:
336,48,43625,5,0,0:0:0:0:
304,320,43861,1,8,0:0:0:0:
224,64,44097,1,0,0:0:0:0:
192,336,44334,1,8,0:0:0:0:
96,80,44570,1,0,0:0:0:0:
80,352,44806,1,8,0:0:0:0:
416,128,45042,1,0,0:0:0:0:
64,256,45279,1,8,0:0:0:0:
416,32,45515,1,0,0:0:0:0:
192,336,45751,1,8,0:0:0:0:
256,64,45987,1,0,0:0:0:0:
464,336,46223,1,8,0:0:0:0:
96,64,46460,1,0,0:0:0:0:
464,224,46696,1,8,0:0:0:0:
64,320,46932,1,0,0:0:0:0:
269,46,47404,6,0,P|200:45|162:72,1,112.500004291535
96,176,47641,1,0,0:0:0:0:
304,144,47759,1,0,0:0:0:0:
162,288,47877,1,0,0:0:0:0:
120,87,47995,2,0,P|201:49|212:76,1,112.500004291535
288,288,48231,1,0,0:0:0:0:
327,49,48349,6,0,P|427:68|426:95,1,112.500004291535
409,328,48586,2,0,L|263:276,1,112.500004291535
88,300,48822,2,0,B|70:236|110:232|86:177,1,112.500004291535
268,53,49058,2,0,P|370:57|384:76,1,112.500004291535
96,80,49294,5,2,0:0:0:0:
80,224,49412,1,0,0:0:0:0:
275,116,49530,2,0,P|364:105|398:139,1,112.500004291535
84,315,49767,6,0,P|166:250|177:244,1,112.500004291535
343,46,50003,2,0,P|402:122|444:110,1,112.500004291535
138,70,50239,2,0,B|123:166|121:145|121:145|83:155,1,112.500004291535
435,335,50475,2,0,B|366:279|403:254|371:227,1,112.500004291535
96,176,50712,5,0,0:0:0:0:
448,192,50830,1,0,0:0:0:0:
272,64,50948,1,0,0:0:0:0:
176,304,51066,1,0,0:0:0:0:
92,51,51184,6,0,P|149:104|65:100,1,112.500004291535
352,160,51420,1,0,0:0:0:0:
192,64,51538,1,0,0:0:0:0:
224,304,51656,1,0,0:0:0:0:
369,41,51775,2,0,P|423:88|391:90,1,112.500004291535
416,256,52011,1,0,0:0:0:0:
99,64,52129,6,0,P|149:147|130:157,1,112.500004291535
379,314,52365,2,0,P|344:232|354:223,1,112.500004291535
157,252,52601,2,0,L|56:321,1,112.500004291535
292,40,52838,2,0,B|358:94|375:60|400:69,1,112.500004291535
80,112,53074,5,0,0:0:0:0:
288,208,53192,1,0,0:0:0:0:
168,88,53310,2,0,B|239:38|255:74|225:113,1,112.500004291535
139,318,53546,6,0,P|103:214|75:214,1,112.500004291535
355,58,53782,2,0,P|428:121|422:142,1,112.500004291535
368,332,54019,2,0,P|382:265|428:256,1,112.500004291535
105,204,54255,2,0,P|81:93|82:92,1,112.500004291535
384,208,54491,5,0,0:0:0:0:
144,80,54609,1,0,0:0:0:0:
416,80,54727,1,0,0:0:0:0:
208,160,54845,1,0,0:0:0:0:
77,291,54964,6,0,B|124:244|196:266|142:309|247:320,1,112.500004291535
77,140,55200,1,0,0:0:0:0:
312,278,55318,1,0,0:0:0:0:
173,72,55436,1,0,0:0:0:0:
177,207,55554,2,0,B|254:214|247:128|342:174|278:243,1,112.500004291535
352,80,55790,1,0,0:0:0:0:
431,328,55908,6,0,P|455:255|449:211,1,112.500004291535
54,107,56145,2,0,P|50:185|65:187,1,112.500004291535
429,46,56381,2,0,P|359:108|346:100,1,112.500004291535
122,318,56617,2,0,P|196:280|236:292,1,112.500004291535
47,201,56853,5,0,0:0:0:0:
365,298,56971,1,0,0:0:0:0:
162,92,57090,2,0,P|263:59|297:69,1,112.500004291535
64,310,57326,6,0,L|102:195,1,112.500004291535
432,221,57562,2,0,P|421:123|395:122,1,112.500004291535
204,322,57798,2,0,B|235:262|274:271|285:236,1,112.500004291535
279,61,58034,2,0,B|205:71|205:112|161:80,1,112.500004291535
384,256,58271,1,0,0:0:0:0:
80,64,58389,1,0,0:0:0:0:
144,288,58507,1,0,0:0:0:0:
400,112,58625,1,0,0:0:0:0:
226,326,58743,6,0,B|328:341|364:313|287:252,1,112.500004291535
336,64,58979,1,0,0:0:0:0:
100,224,59097,1,0,0:0:0:0:
464,144,59216,1,0,0:0:0:0:
230,57,59334,2,0,P|182:58|227:121,1,112.500004291535
416,304,59570,1,0,0:0:0:0:
51,86,59688,6,0,P|140:64|141:84,1,112.500004291535
161,303,59924,2,0,P|242:295|255:272,1,112.500004291535
260,51,60160,2,0,P|323:117|314:148,1,112.500004291535
56,253,60397,2,0,P|61:163|79:155,1,112.500004291535
128,288,60633,5,0,0:0:0:0:
288,128,60751,1,0,0:0:0:0:
157,71,60869,2,0,P|87:46|32:83,1,112.500004291535
400,320,61105,1,0,0:0:0:0:
250,43,61223,1,0,0:0:0:0:
55,324,61341,6,0,P|62:240|90:231,1,112.500004291535
397,96,61578,2,0,P|425:154|389:193,1,112.500004291535
185,74,61814,2,0,P|102:82|98:51,1,112.500004291535
112,288,62050,5,0,0:0:0:0:
400,144,62168,1,0,0:0:0:0:
80,64,62286,1,0,0:0:0:0:
363,309,62404,1,0,0:0:0:0:
272,48,62523,1,0,0:0:0:0:
47,148,77641,5,0,0:0:0:0:
387,259,77759,1,0,0:0:0:0:
192,74,77877,2,0,P|283:57|386:155,1,225.000008583069
172,252,78231,2,0,P|217:310|259:321,1,112.500004291535
278,124,78467,1,0,0:0:0:0:
62,192,78586,1,0,0:0:0:0:
387,278,78704,2,0,P|369:224|429:154,1,112.500004291535
79,118,78940,1,0,0:0:0:0:
301,308,79294,1,0,0:0:0:0:
72,105,79767,5,0,0:0:0:0:
76,106,79885,2,0,B|179:49|232:168|312:114,1,225.000008583069
125,222,80239,2,0,P|106:299|177:271,1,112.500004291535
279,71,80593,1,0,0:0:0:0:
435,198,80830,2,0,P|334:204|320:270,1,112.500004291535
249,80,81184,1,0,0:0:0:0:
126,164,81420,5,0,0:0:0:0:
363,135,81538,1,0,0:0:0:0:
164,288,81656,1,0,0:0:0:0:
213,81,81775,1,0,0:0:0:0:
353,305,81893,1,0,0:0:0:0:
108,173,82011,1,0,0:0:0:0:
319,99,82129,1,0,0:0:0:0:
244,325,82247,1,0,0:0:0:0:
185,79,82365,5,0,0:0:0:0:
401,182,82483,1,0,0:0:0:0:
96,224,82601,1,0,0:0:0:0:
332,60,82719,1,0,0:0:0:0:
282,330,82838,1,0,0:0:0:0:
240,72,82956,1,0,0:0:0:0:
355,304,83074,1,0,0:0:0:0:
120,137,83192,1,0,0:0:0:0:
385,115,83310,1,0,0:0:0:0:
201,278,83428,2,0,P|150:257|94:288,1,112.500004291535
225,47,83664,6,0,P|118:79|110:103,1,112.500004291535
352,70,83901,1,0,0:0:0:0:
108,309,84019,1,0,0:0:0:0:
366,315,84137,1,0,0:0:0:0:
82,65,84255,1,0,0:0:0:0:
419,53,84373,1,0,0:0:0:0:
310,291,84609,1,0,0:0:0:0:
416,304,84727,5,0,0:0:0:0:
436,251,84786,1,0,0:0:0:0:
440,195,84845,1,0,0:0:0:0:
428,139,84904,1,0,0:0:0:0:
374,119,84964,1,0,0:0:0:0:
319,133,85023,1,0,0:0:0:0:
283,176,85082,1,0,0:0:0:0:
277,231,85141,1,0,0:0:0:0:
224,160,92759,5,0,0:0:0:0:
288,224,92995,1,0,0:0:0:0:
288,160,93231,5,0,0:0:0:0:
224,224,93467,1,0,0:0:0:0:
160,96,93704,5,0,0:0:0:0:
352,288,93940,1,0,0:0:0:0:
352,96,94176,5,0,0:0:0:0:
160,288,94412,1,0,0:0:0:0:
96,16,94649,5,0,0:0:0:0:
416,352,94885,1,0,0:0:0:0:
416,32,95121,5,0,0:0:0:0:
96,352,95357,1,0,0:0:0:0:
32,32,95593,5,0,0:0:0:0:
480,352,95830,1,0,0:0:0:0:
480,32,96066,5,0,0:0:0:0:
32,352,96302,1,0,0:0:0:0:
32,32,96538,5,0,0:0:0:0:
480,352,96775,1,0,0:0:0:0:
480,32,97011,5,0,0:0:0:0:
32,352,97247,1,0,0:0:0:0:
32,32,97483,5,0,0:0:0:0:
480,32,97719,1,0,0:0:0:0:
480,352,97956,5,0,0:0:0:0:
32,352,98192,1,0,0:0:0:0:
32,32,98428,5,0,0:0:0:0:
480,352,98664,1,0,0:0:0:0:
32,352,98901,5,0,0:0:0:0:
480,32,99137,1,0,0:0:0:0:
480,32,99373,5,0,0:0:0:0:
32,32,99609,1,0,0:0:0:0:
144,64,115436,6,0,P|96:96|96:144,1,75
75,315,115908,1,8,0:0:0:0:
279,46,116145,1,0,0:0:0:0:
319,344,116381,1,0,0:0:0:0:
96,112,116617,1,0,0:0:0:0:
416,176,116853,1,8,0:0:0:0:
53,149,117090,1,0,0:0:0:0:
465,182,117326,2,0,P|435:211|394:212,1,75
343,337,117798,1,8,0:0:0:0:
195,36,118034,1,0,0:0:0:0:
37,263,118271,1,0,0:0:0:0:
422,49,118507,1,0,0:0:0:0:
432,336,118743,1,8,0:0:0:0:
89,253,119216,6,0,P|70:203|81:186,1,75
93,49,119688,1,8,0:0:0:0:
225,341,119924,1,0,0:0:0:0:
376,45,120160,1,0,0:0:0:0:
57,284,120397,1,0,0:0:0:0:
451,232,120633,1,8,0:0:0:0:
128,320,120869,1,0,0:0:0:0:
256,64,121105,2,0,P|205:89|194:134,1,75
87,284,121578,1,8,0:0:0:0:
193,43,121814,1,0,0:0:0:0:
195,347,122050,1,0,0:0:0:0:
439,41,122286,1,0,0:0:0:0:
62,197,122523,1,8,0:0:0:0:
446,177,122995,6,0,P|450:221|427:246,1,75
359,328,123467,1,8,0:0:0:0:
296,44,123704,1,0,0:0:0:0:
50,111,123940,1,0,0:0:0:0:
98,315,124176,1,0,0:0:0:0:
440,46,124412,1,8,0:0:0:0:
46,230,124649,1,0,0:0:0:0:
396,225,124885,1,0,0:0:0:0:
144,304,125357,6,0,L|192:256,1,37.5,8|0,0:0|0:0,0:0:0:0:
144,80,125593,2,0,L|192:128,1,37.5
368,80,125830,2,0,L|336:112,1,37.5
336,272,126066,2,0,L|368:304,1,37.5
256,192,126302,1,8,0:0:0:0:
42,341,126775,5,0,0:0:0:0:
171,56,127011,1,0,0:0:0:0:
361,326,127247,1,8,0:0:0:0:
432,304,127719,1,0,0:0:0:0:
352,64,127956,1,0,0:0:0:0:
43,203,128192,1,8,0:0:0:0:
32,32,128664,6,0,L|96:96,1,75
480,352,129137,2,0,L|416:288,1,75
32,352,129609,2,0,L|96:288,1,75
480,32,130082,2,0,L|416:96,1,75
256,128,130554,1,0,0:0:0:0:
192,192,130790,1,0,0:0:0:0:
256,256,131027,1,0,0:0:0:0:
320,192,131263,1,0,0:0:0:0:
256,32,131499,1,0,0:0:0:0:
32,192,131735,1,0,0:0:0:0:
480,192,131971,1,0,0:0:0:0:
256,352,132208,1,0,0:0:0:0:
128,48,132798,5,0,0:0:0:0:
288,288,133093,1,0,0:0:0:0:
400,48,133389,1,0,0:0:0:0:
80,240,133743,1,0,0:0:0:0:
416,240,134038,1,0,0:0:0:0:
80,240,134334,6,2,P|48:208|64:176,1,75
96,176,134806,1,0,0:0:0:0:
432,112,134924,1,0,0:0:0:0:
144,336,135042,1,0,0:0:0:0:
240,32,135160,1,0,0:0:0:0:
384,336,135279,1,0,0:0:0:0:
80,240,135397,1,0,0:0:0:0:
320,64,135515,1,0,0:0:0:0:
256,320,135633,1,0,0:0:0:0:
128,80,135751,1,0,0:0:0:0:
400,112,135869,1,0,0:0:0:0:
64,208,135987,1,0,0:0:0:0:
288,32,136105,1,0,0:0:0:0:
192,304,136223,6,2,P|144:304|96:288,1,75
64,48,136696,1,0,0:0:0:0:
320,272,136932,1,0,0:0:0:0:
288,32,137168,1,0,0:0:0:0:
96,240,137404,1,0,0:0:0:0:
448,48,137641,1,0,0:0:0:0:
416,224,138113,6,2,P|432:272|400:272,1,75
272,304,138586,1,0,0:0:0:0:
224,64,138704,1,0,0:0:0:0:
80,208,138822,1,0,0:0:0:0:
304,96,138940,1,0,0:0:0:0:
176,288,139058,1,0,0:0:0:0:
80,64,139176,1,0,0:0:0:0:
368,224,139294,1,0,0:0:0:0:
64,304,139412,1,0,0:0:0:0:
272,32,139530,1,0,0:0:0:0:
336,320,139649,1,0,0:0:0:0:
112,64,139767,1,0,0:0:0:0:
464,192,139885,1,0,0:0:0:0:
80,304,140003,6,2,P|128:320|128:288,1,75
96,96,140475,1,0,0:0:0:0:
432,240,140593,1,0,0:0:0:0:
48,272,140712,1,0,0:0:0:0:
432,48,140830,1,0,0:0:0:0:
304,352,140948,1,0,0:0:0:0:
192,64,141066,1,0,0:0:0:0:
384,320,141184,1,0,0:0:0:0:
48,192,141302,1,0,0:0:0:0:
448,128,141420,1,0,0:0:0:0:
48,256,141893,6,2,P|64:304|80:304,1,75
80,96,142365,1,0,0:0:0:0:
384,288,142483,1,0,0:0:0:0:
240,48,142601,1,0,0:0:0:0:
48,256,142719,1,0,0:0:0:0:
448,208,142838,1,0,0:0:0:0:
64,96,142956,1,0,0:0:0:0:
384,288,143074,1,0,0:0:0:0:
272,32,143192,1,0,0:0:0:0:
112,272,143310,1,0,0:0:0:0:
256,48,143428,1,0,0:0:0:0:
272,320,143546,1,0,0:0:0:0:
80,112,143664,1,0,0:0:0:0:
432,144,143782,6,2,P|432:192|400:208,1,75
64,64,144255,1,0,0:0:0:0:
144,320,144491,1,0,0:0:0:0:
480,288,144964,1,0,0:0:0:0:
80,224,145200,1,0,0:0:0:0:
176,64,145672,6,0,B|160:96|176:112|160:128|176:144|160:160|192:176|160:192|192:224|160:256|192:288|176:304,1,225
112,224,147562,2,0,P|288:192|320:160,1,225
86,153,149452,5,2,0:0:0:0:
158,275,149689,1,0,0:0:0:0:
294,114,149807,1,0,0:0:0:0:
278,264,149925,1,0,0:0:0:0:
198,44,150043,1,0,0:0:0:0:
278,264,150279,1,0,0:0:0:0:
311,58,150397,1,0,0:0:0:0:
463,245,150634,1,0,0:0:0:0:
154,233,150870,1,0,0:0:0:0:
395,138,151106,1,0,0:0:0:0:
96,96,151342,5,2,0:0:0:0:
196,310,151460,1,0,0:0:0:0:
171,102,151578,1,0,0:0:0:0:
80,255,151815,1,0,0:0:0:0:
278,46,152051,1,0,0:0:0:0:
256,336,152287,1,0,0:0:0:0:
368,80,152523,1,0,0:0:0:0:
438,315,152758,1,0,0:0:0:0:
251,146,152878,1,0,0:0:0:0:
456,109,152996,1,0,0:0:0:0:
176,320,153114,1,0,0:0:0:0:
48,80,153232,5,2,0:0:0:0:
89,302,153468,1,0,0:0:0:0:
255,80,153586,1,0,0:0:0:0:
205,225,153704,1,0,0:0:0:0:
385,267,153823,1,0,0:0:0:0:
155,100,154059,1,0,0:0:0:0:
204,318,154177,1,0,0:0:0:0:
308,140,154413,1,0,0:0:0:0:
305,292,154649,1,0,0:0:0:0:
397,71,154886,1,0,0:0:0:0:
80,128,155122,5,0,0:0:0:0:
285,204,155240,1,0,0:0:0:0:
67,269,155358,1,0,0:0:0:0:
276,60,155594,1,0,0:0:0:0:
171,203,155830,1,0,0:0:0:0:
385,253,156067,1,0,0:0:0:0:
233,300,156303,1,0,0:0:0:0:
461,140,156539,1,0,0:0:0:0:
270,80,156657,1,0,0:0:0:0:
383,79,156775,1,0,0:0:0:0:
208,176,156893,1,0,0:0:0:0:
128,304,157012,5,2,0:0:0:0:
136,150,157248,1,0,0:0:0:0:
327,205,157366,1,0,0:0:0:0:
199,58,157484,1,0,0:0:0:0:
248,302,157602,1,0,0:0:0:0:
296,76,157838,1,0,0:0:0:0:
425,296,157956,1,0,0:0:0:0:
416,96,158193,1,0,0:0:0:0:
162,218,158429,1,0,0:0:0:0:
307,192,158665,1,0,0:0:0:0:
160,304,158901,5,0,0:0:0:0:
137,101,159019,1,0,0:0:0:0:
270,166,159138,1,0,0:0:0:0:
70,233,159374,1,0,0:0:0:0:
269,290,159610,1,0,0:0:0:0:
435,95,159846,1,0,0:0:0:0:
285,80,160082,1,0,0:0:0:0:
393,233,160319,1,0,0:0:0:0:
80,80,160437,1,0,0:0:0:0:
208,228,160555,1,0,0:0:0:0:
83,221,160673,1,0,0:0:0:0:
220,339,160791,5,0,0:0:0:0:
318,95,161027,1,0,0:0:0:0:
314,236,161145,1,0,0:0:0:0:
448,58,161264,1,0,0:0:0:0:
222,58,161382,1,0,0:0:0:0:
76,151,161618,1,0,0:0:0:0:
144,249,161736,1,0,0:0:0:0:
101,57,161972,1,0,0:0:0:0:
196,168,162208,1,0,0:0:0:0:
60,287,162445,1,0,0:0:0:0:
346,291,162681,5,0,0:0:0:0:
279,168,162799,1,0,0:0:0:0:
220,300,162917,1,0,0:0:0:0:
419,191,163153,1,0,0:0:0:0:
292,79,163271,1,0,0:0:0:0:
467,299,163389,1,0,0:0:0:0:
279,250,163626,1,0,0:0:0:0:
420,101,163862,1,0,0:0:0:0:
241,173,164098,1,0,0:0:0:0:
160,320,164216,1,0,0:0:0:0:
128,48,164334,1,0,0:0:0:0:
448,192,164452,1,0,0:0:0:0:
48,176,164571,1,0,0:0:0:0:
