osu file format v14

[General]
AudioFilename: audio.mp3
AudioLeadIn: 0
PreviewTime: 90153
Countdown: 0
SampleSet: Soft
StackLeniency: 0.2
Mode: 0
LetterboxInBreaks: 0
WidescreenStoryboard: 1

[Editor]
Bookmarks: 53064
DistanceSpacing: 0.1
BeatDivisor: 4
GridSize: 4
TimelineZoom: 1.500006

[Metadata]
Title:The Calling (feat. Laura Brehm)
TitleUnicode:The Calling (feat. Laura Brehm)
Artist:TheFatRat
ArtistUnicode:TheFatRat
Creator:Ritaka
Version:[2B] Euphoria
Source:
Tags:
BeatmapID:1678064
BeatmapSetID:799210

[Difficulty]
HPDrainRate:2
CircleSize:4
OverallDifficulty:7
ApproachRate:9
SliderMultiplier:1
SliderTickRate:0.5

[Events]
//Background and Video events
0,0,"space.png",0,0
//Break Periods
2,33748,69904
2,78340,89550
//Storyboard Layer 0 (Background)
//Storyboard Layer 1 (Fail)
//Storyboard Layer 2 (Pass)
//Storyboard Layer 3 (Foreground)
//Storyboard Sound Samples

[TimingPoints]
699,1090.90909090909,4,2,1,75,1,0
700,-800,4,2,1,75,0,0
971,-700,4,2,1,75,0,0
1244,-600,4,2,1,75,0,0
1517,-500,4,2,1,75,0,0
1789,-400,4,2,1,75,0,0
2062,-300,4,2,1,75,0,0
2335,-200,4,2,1,75,0,0
2608,-100,4,2,1,75,0,0
2881,-800,4,2,1,45,0,0
3154,-700,4,2,1,75,0,0
3427,-600,4,2,1,75,0,0
3699,-500,4,2,1,75,0,0
3972,-400,4,2,1,75,0,0
4245,-300,4,2,1,75,0,0
4518,-200,4,2,1,75,0,0
4790,-100,4,2,1,75,0,0
5062,-800,4,2,1,45,0,0
5335,-700,4,2,1,75,0,0
5608,-600,4,2,1,75,0,0
5880,-500,4,2,1,75,0,0
6153,-400,4,2,1,75,0,0
6426,-300,4,2,1,75,0,0
6698,-200,4,2,1,75,0,0
6971,-100,4,2,1,75,0,0
7244,-800,4,2,1,45,0,0
7517,-700,4,2,1,75,0,0
7789,-600,4,2,1,75,0,0
8062,-500,4,2,1,75,0,0
8335,-400,4,2,1,75,0,0
8608,-300,4,2,1,75,0,0
8880,-200,4,2,1,75,0,0
9153,-100,4,2,1,75,0,0
9426,-53.475935828877,4,2,1,45,0,0
9698,-26.7379679144385,4,2,1,45,0,0
9971,545.454545454546,4,2,1,75,1,0
9971,-19,4,2,1,45,0,0
10243,272.727272727273,4,2,1,75,1,0
10243,-13,4,2,1,45,0,0
10515,18.0722891566265,4,2,1,75,1,0
10515,-10,4,2,1,45,0,0
10786,2159.98272013824,4,2,1,75,1,0
10786,-833.333333333333,4,2,1,75,0,0
11055,-758,4,2,1,75,0,0
11325,-682,4,2,1,75,0,0
11602,1090.90909090909,4,2,1,75,1,0
11602,-53.475935828877,4,2,1,75,0,0
11874,-26.7379679144385,4,2,1,75,0,0
12147,545.454545454546,4,2,1,75,1,0
12147,-19,4,2,1,75,0,0
12419,272.727272727273,4,2,1,75,1,0
12420,-13,4,2,1,75,0,0
12691,18.0722891566265,4,2,1,75,1,0
12692,-10,4,2,1,45,0,0
12967,1090.90909090909,4,2,1,75,1,0
12967,-480,4,2,1,75,0,0
13239,-320,4,2,1,75,0,0
13512,-160,4,2,1,75,0,0
13785,-33.3333333333333,4,2,1,45,0,0
14057,-25,4,2,1,75,0,0
14330,-16.68,4,2,1,75,0,0
14603,545.454545454546,4,2,1,75,1,0
14603,-16.6,4,2,1,75,0,0
14875,1090.90909090909,4,2,1,75,1,0
14875,-30,4,2,1,45,0,0
15147,-25,4,2,1,75,0,0
15420,-25,4,2,1,75,0,0
15693,-18.7,4,2,1,75,0,0
15965,-17.8,4,2,1,75,0,0
16238,545.454545454546,4,2,1,75,1,0
16238,-17.8,4,2,1,75,0,0
16510,1090.90909090909,4,2,1,75,1,0
16510,-300,4,2,1,45,0,0
16782,-250,4,2,1,75,0,0
17055,-200,4,2,1,75,0,0
17328,-150,4,2,1,75,0,0
17600,-100,4,2,1,75,0,0
17873,-50,4,2,1,75,0,0
18146,-25,4,2,1,75,0,0
18147,-400,4,2,1,45,0,0
18419,-300,4,2,1,75,0,0
18691,-200,4,2,1,75,0,0
18964,-100,4,2,1,75,0,0
19237,-400,4,2,1,45,0,0
19509,-75,4,2,1,75,0,0
19782,-22.2,4,2,1,75,0,0
20055,-75,4,2,1,75,0,0
20328,-78.6,4,2,1,45,0,0
20600,-71.4285714285714,4,2,1,75,0,0
20873,-24.3,4,2,1,75,0,0
21146,-21.6,4,2,1,75,0,0
23328,-21.6,4,2,1,45,0,0
24693,-80,4,2,1,75,0,0
24964,-69.9300699300699,4,2,1,75,0,0
25237,-50,4,2,1,75,0,0
25509,-31.25,4,2,1,75,0,0
25782,-23.5,4,2,1,75,0,0
26055,-15.8,4,2,1,75,0,0
26328,-14.2,4,2,1,75,0,0
26600,-11.1,4,2,1,75,0,0
26873,-100,4,2,1,45,0,0
31237,-25,4,2,1,45,0,0
31509,-25,4,2,1,45,0,0
31782,-25,4,2,1,45,0,0
32055,-25,4,2,1,45,0,0
32328,-25,4,2,1,45,0,0
32600,-25,4,2,1,45,0,0
32873,-25,4,2,1,45,0,0
33146,-25,4,2,1,45,0,0
35610,545.454545454546,4,2,1,75,1,0
53050,1090.90909090909,4,2,1,75,1,0
70504,-25,4,2,1,75,0,0
90150,545.454545454546,4,2,1,75,1,0
90150,-100,4,2,1,75,0,1

[HitObjects]
256,192,700,6,0,L|256:156,1,25
256,192,973,2,0,L|220:192,1,25
256,192,1245,2,0,L|256:224,1,25
256,192,1518,2,0,L|288:192,1,25
256,192,1789,2,0,L|281:166,1,25
256,192,2062,2,0,L|281:217,1,25
256,192,2336,2,0,L|230:217,1,25
256,192,2609,2,0,L|230:166,1,25
372,80,2881,6,0,L|372:44,1,25
372,80,3154,2,0,L|408:80,1,25
372,80,3427,2,0,L|372:112,1,25
372,80,3699,2,0,L|340:80,1,25
372,80,3972,2,0,L|347:54,1,25
372,80,4245,2,0,L|347:105,1,25
372,80,4518,2,0,L|398:105,1,25
372,80,4790,2,0,L|398:54,1,25
140,80,5062,6,0,L|140:116,1,25
140,80,5335,2,0,L|176:80,1,25
140,80,5608,2,0,L|140:48,1,25
140,80,5880,2,0,L|108:80,1,25
140,80,6153,2,0,L|115:106,1,25
140,80,6426,2,0,L|115:55,1,25
140,80,6699,2,0,L|166:55,1,25
140,80,6971,2,0,L|166:106,1,25
256,192,7244,6,0,L|256:228,1,25
256,192,7517,2,0,L|292:192,1,25
256,192,7790,2,0,L|256:160,1,25
256,192,8062,2,0,L|224:192,1,25
256,192,8335,2,0,L|231:218,1,25
256,192,8608,2,0,L|231:167,1,25
256,192,8881,2,0,L|282:167,1,25
256,192,9153,2,0,L|282:218,1,25
404,76,9426,6,0,L|252:204,1,187.5
404,76,9698,2,0,P|388:204|256:192,1,281.25
404,76,9971,2,0,P|492:232|260:196,1,531.25
404,76,10244,2,0,P|536:324|264:192,1,769.999976501466
404,76,10516,2,0,P|644:356|268:188,1,1093.75
324,40,10786,6,0,L|343:20,1,16.6666666666667
256,32,11058,2,0,L|256:4,1,16.6666666666667
188,40,11331,2,0,L|168:20,1,16.6666666666667
118,76,11602,6,0,L|278:212,1,187.5
118,76,11874,2,0,P|134:204|266:192,1,281.25
118,76,12147,2,0,P|30:232|262:196,1,531.25
118,76,12420,2,0,P|-18:332|258:196,1,781.25
118,76,12692,2,0,P|-122:356|254:188,1,1093.75
256,108,12967,6,0,L|256:124,1,15.625
256,108,13240,2,0,L|267:119,1,15.625
256,108,13513,2,0,L|244:119,1,15.625
296,192,13785,6,0,P|376:276|252:356,1,300
216,192,14058,2,0,P|136:276|260:356,1,300
368,192,14331,2,0,P|268:192|256:360,1,300
144,192,14604,2,0,P|244:192|256:360,1,300
255,43,14876,2,0,P|36:117|59:347,1,500
256,44,15149,2,0,P|452:88|452:348,1,500
256,120,15422,2,0,B|320:84|408:92|408:156|468:180|428:232|456:276|344:344,1,400
256,120,15694,2,0,B|192:84|104:92|104:156|44:180|84:232|56:276|168:344,1,400
256,200,15967,6,0,B|320:152|372:140|424:264|332:264|280:292|256:328|256:328|256:368,1,279.749991089201
256,200,16240,2,0,B|192:152|140:140|88:264|180:264|232:292|256:328|256:328|256:368,1,279.749991089201
256,380,16511,2,0,L|201:365,1,50
256,380,16783,2,0,L|223:334,1,50
256,380,17056,2,0,L|246:324,1,50
256,380,17329,2,0,L|270:325,1,50
256,380,17601,2,0,L|291:337,1,50
256,380,17874,2,0,L|310:365,1,50
256,44,18147,6,0,L|230:69,1,25
256,44,18420,2,0,L|246:78,1,25
256,44,18693,2,0,L|265:78,1,25
256,44,18965,2,0,L|281:69,1,25
244,160,19238,2,0,P|256:164|268:160,1,25
244,160,19511,2,0,P|256:196|268:160,1,100
244,160,19784,2,0,P|256:240|268:160,1,225
244,160,20056,2,0,P|256:296|268:160,1,400
256,72,20329,6,0,B|24:72|24:244|132:244|132:152,1,350
256,72,20602,2,0,B|488:72|488:244|380:244|380:152,1,350
252,76,20874,2,0,P|52:32|256:360,1,925
260,76,21147,2,0,P|460:32|256:360,1,925
88,296,21420,1,0,0:0:0:0:
424,296,21693,1,0,0:0:0:0:
88,296,21965,1,0,0:0:0:0:
424,296,22238,1,0,0:0:0:0:
256,228,22511,5,0,0:0:0:0:
256,228,22784,1,0,0:0:0:0:
256,228,23056,1,0,0:0:0:0:
256,228,23329,1,0,0:0:0:0:
80,340,23600,1,0,0:0:0:0:
432,340,23873,1,0,0:0:0:0:
52,272,24147,1,0,0:0:0:0:
456,272,24420,1,0,0:0:0:0:
256,340,24693,6,0,P|188:292|280:200,1,250
256,268,24965,2,0,P|348:224|280:128,1,250
207,132,25238,2,0,P|114:240|159:376,1,300
327,336,25511,2,0,P|422:177|284:56,1,400
208,56,25784,2,0,P|48:200|88:408,1,425
396,384,26056,2,0,P|496:228|360:0,1,475
400,384,26329,2,0,P|496:208|452:68,1,350
396,384,26602,2,0,P|488:264|496:192,1,225
279,199,26873,6,0,L|280:148,1,50
278,198,27146,2,0,L|226:197,1,50
278,198,27419,2,0,L|277:250,1,50
278,198,27692,2,0,L|329:199,1,50
278,198,27964,2,0,L|315:162,1,50
278,198,28237,2,0,L|242:161,1,50
278,197,28510,2,0,L|240:233,1,50
278,198,28783,2,0,L|314:235,1,50
104,304,29055,6,0,L|104:355,1,50
103,305,29328,2,0,L|51:305,1,50
103,305,29601,2,0,L|102:253,1,50
103,305,29874,2,0,L|154:304,1,50
103,305,30146,2,0,L|140:340,1,50
103,306,30419,2,0,L|67:343,1,50
103,306,30692,2,0,L|65:270,1,50
103,306,30964,2,0,L|138:268,1,50
256,192,31237,6,0,B|256:88|256:88|256:36|192:104|116:38|116:38|40:132|152:280|260:280,1,600
256,192,31509,2,0,B|256:88|256:88|256:36|320:104|395:38|395:38|472:132|360:280|252:280,1,600
180,144,31782,2,0,B|164:124|188:156,1,25
332,144,32055,2,0,B|348:124|324:156,1,25
108,316,32328,2,0,B|64:360|64:360|15:315|15:315|59:270|59:270|108:315,1,257.5
404,316,32600,2,0,B|447:360|447:360|496:315|496:315|452:270|452:270|403:315,1,257.5
184,332,32873,2,0,P|256:348|328:332,1,147.5
328,332,33146,2,0,P|256:348|184:332,1,147.5
259,188,70504,6,0,P|460:190|259:191,1,625
260,188,70505,6,0,P|59:190|260:191,1,625
160,190,71049,1,0,0:0:0:0:
360,190,71595,1,0,0:0:0:0:
260,40,72140,1,0,0:0:0:0:
256,280,72686,6,0,P|24:88|100:52,1,600
256,280,72687,2,0,P|488:88|412:52,1,600
124,204,73231,1,0,0:0:0:0:
388,204,73777,1,0,0:0:0:0:
256,36,74322,1,0,0:0:0:0:
256,192,74868,6,0,P|160:52|256:208,1,1000
256,192,74869,2,0,P|352:52|256:208,1,1000
96,200,75413,1,0,0:0:0:0:
416,200,75959,1,0,0:0:0:0:
92,120,76504,2,0,P|16:184|140:272,1,300
96,200,76777,1,0,0:0:0:0:
420,120,77322,2,0,P|496:184|372:272,1,300
416,200,77595,1,0,0:0:0:0:
256,184,90150,5,0,0:0:0:0:
256,184,90695,1,0,0:0:0:0:
256,184,91240,1,0,0:0:0:0:
256,184,91513,1,0,0:0:0:0:
256,184,91786,1,0,0:0:0:0:
256,184,92059,1,0,0:0:0:0:
