osu file format v14

[General]
AudioFilename: audio.mp3
AudioLeadIn: 0
PreviewTime: 38740
Countdown: 1
SampleSet: None
StackLeniency: 0.4
Mode: 0
LetterboxInBreaks: 0
WidescreenStoryboard: 1

[Editor]
DistanceSpacing: 1
BeatDivisor: 2
GridSize: 16
TimelineZoom: 1

[Metadata]
Title:Nemesis
TitleUnicode:Nemesis
Artist:TheFatRat
ArtistUnicode:TheFatRat
Creator:Villfuk02
Version:Easy
Source:Dota 2
Tags:
BeatmapID:1778074
BeatmapSetID:850441

[Difficulty]
HPDrainRate:2
CircleSize:2.6
OverallDifficulty:2
ApproachRate:4
SliderMultiplier:0.8
SliderTickRate:1

[Events]
//Background and Video events
0,0,"maxresdefault (1).jpg",0,0
//Break Periods
2,38940,50220
//Storyboard Layer 0 (Background)
//Storyboard Layer 1 (Fail)
//Storyboard Layer 2 (Pass)
//Storyboard Layer 3 (Foreground)
//Storyboard Sound Samples

[TimingPoints]
340,400,4,3,0,74,1,0
6740,-100,4,3,0,74,0,1
13140,-100,4,3,0,74,0,0
28340,-100,4,3,0,74,0,0
29140,-100,4,3,0,74,0,1
35540,-100,4,3,0,74,0,1
38740,-100,4,3,0,74,0,0
51540,-100,4,3,0,74,0,0
64340,-100,4,3,0,74,0,1
70740,-100,4,3,0,74,0,1
73940,-100,4,3,0,74,0,1
77140,-100,4,3,0,74,0,0

[Colours]
Combo1 : 255,77,0
Combo2 : 87,87,87
Combo3 : 255,202,17
Combo4 : 95,108,141

[HitObjects]
55,261,340,5,0,0:0:0:0:
195,230,1140,1,0,0:0:0:0:
335,196,1940,1,0,0:0:0:0:
473,157,2740,2,0,P|466:211|437:240,1,80,0|0,0:0|0:0,0:0:0:0:
388,279,3540,5,0,0:0:0:0:
248,248,4340,1,0,0:0:0:0:
108,214,5140,1,0,0:0:0:0:
261,167,5940,2,0,P|315:173|344:202,1,80,0|0,0:0|0:0,0:0:0:0:
393,241,6740,6,0,L|286:312,4,120,0|0|0|0|0,1:1|1:1|1:1|1:1|1:1,0:0:0:0:
461,199,9540,1,0,1:1:0:0:
400,146,9940,6,0,L|305:63,4,120,0|0|0|0|0,1:1|1:1|1:1|1:1|1:1,0:0:0:0:
454,204,12740,1,0,1:1:0:0:
375,221,13140,6,0,P|290:229|227:277,1,160,0|8,1:1|1:1,0:0:0:0:
187,338,14340,1,0,1:1:0:0:
151,266,14740,2,0,L|151:211,2,40,0|0|0,0:0|1:1|2:2,0:0:0:0:
107,333,15540,1,8,1:1:0:0:
45,185,16340,6,0,P|61:101|116:43,1,160,0|8,1:1|1:1,0:0:0:0:
190,51,17540,1,0,1:1:0:0:
229,120,17940,2,0,L|229:160,2,40,0|0|0,0:0|1:1|2:2,0:0:0:0:
270,51,18740,1,8,1:1:0:0:
363,180,19540,6,0,P|282:207|205:189,1,160,0|8,1:1|1:1,0:0:0:0:
159,130,20740,1,0,1:1:0:0:
81,151,21140,2,0,L|46:131,2,40,0|0|0,0:0|1:1|2:2,0:0:0:0:
134,210,21940,1,8,1:1:0:0:
242,92,22740,6,0,P|282:113|308:151,1,80,0|0,1:1|1:1,0:0:0:0:
308,219,23540,2,0,P|287:259|249:285,1,80,0|0,1:1|1:1,0:0:0:0:
180,281,24340,2,0,P|140:260|113:222,1,80,0|0,1:1|1:1,0:0:0:0:
115,152,25140,2,0,P|136:112|174:85,1,80,0|0,1:1|1:1,0:0:0:0:
227,42,25940,5,8,3:3:0:0:
296,82,26340,2,0,L|395:50,4,100,4|4|4|4|0,3:3|3:3|3:3|3:3|0:0,0:0:0:0:
220,108,28740,1,0,0:0:0:0:
283,156,29140,6,0,L|294:228,1,40,4|0,1:1|0:0,0:0:0:0:
309,272,29740,2,0,L|320:344,1,40,0|8,1:1|1:1,0:0:0:0:
394,320,30340,2,0,L|387:280,1,40,0|0,1:1|0:0,0:0:0:0:
369,202,30940,2,0,L|362:162,1,40,0|0,1:1|2:2,0:0:0:0:
312,100,31540,1,8,1:1:0:0:
285,175,31940,1,0,0:0:0:0:
252,248,32340,6,0,L|180:237,1,40,0|0,1:1|0:0,0:0:0:0:
146,196,32940,2,0,L|74:185,1,40,0|8,1:1|1:1,0:0:0:0:
101,269,33540,2,0,L|140:275,1,40,0|0,1:1|0:0,0:0:0:0:
200,328,34140,2,0,L|239:334,1,40,0|0,1:1|2:2,0:0:0:0:
310,297,34740,1,8,1:1:0:0:
241,255,35140,1,0,0:0:0:0:
256,192,35540,12,0,38740,1:1:0:0:
363,180,51540,6,0,P|282:207|205:189,1,160,0|8,1:1|1:1,0:0:0:0:
159,130,52740,1,0,1:1:0:0:
81,151,53140,2,0,L|46:131,2,40,0|0|0,0:0|1:1|2:2,0:0:0:0:
134,210,53940,1,8,1:1:0:0:
189,267,54340,1,0,0:0:0:0:
249,319,54740,6,0,P|313:262|335:186,1,160,0|8,1:1|1:1,0:0:0:0:
310,117,55940,1,0,1:1:0:0:
257,177,56340,2,0,L|236:211,2,40,0|0|0,0:0|1:1|2:2,0:0:0:0:
231,101,57140,1,8,1:1:0:0:
176,159,57540,1,0,0:0:0:0:
129,224,57940,6,0,P|185:288|261:310,1,160,0|8,1:1|1:1,0:0:0:0:
334,316,59140,1,0,1:1:0:0:
379,250,59540,2,0,L|344:230,2,40,0|0|0,0:0|1:1|2:2,0:0:0:0:
412,322,60340,2,0,L|512:331,1,80,8|0,1:1|0:0,0:0:0:0:
498,249,61140,6,0,P|508:205|496:160,1,80,0|0,1:1|1:1,0:0:0:0:
462,101,61940,2,0,P|429:70|384:57,1,80,0|0,1:1|1:1,0:0:0:0:
325,96,62740,2,0,P|281:83|248:50,1,80,0|0,1:1|1:1,0:0:0:0:
181,89,63540,2,0,P|137:101|104:134,1,80,0|0,1:1|1:1,0:0:0:0:
82,200,64340,5,8,3:3:0:0:
144,250,64740,2,0,L|243:282,4,100,4|4|4|4|0,3:3|3:3|3:3|3:3|0:0,0:0:0:0:
67,226,67140,1,0,0:0:0:0:
87,148,67540,6,0,L|139:97,1,40,4|0,1:1|0:0,0:0:0:0:
144,45,68140,2,0,L|196:-6,1,40,0|8,1:1|1:1,0:0:0:0:
223,79,68740,2,0,L|194:106,1,40,0|0,1:1|0:0,0:0:0:0:
175,184,69340,2,0,L|146:211,1,40,0|0,1:1|2:2,0:0:0:0:
68,221,69940,1,8,1:1:0:0:
100,147,70340,1,0,0:0:0:0:
174,117,70740,6,0,L|246:128,1,40,0|0,1:1|0:0,0:0:0:0:
280,169,71340,2,0,L|352:180,1,40,0|8,1:1|1:1,0:0:0:0:
325,96,71940,2,0,L|285:89,1,40,0|0,1:1|0:0,0:0:0:0:
226,37,72540,2,0,L|186:30,1,40,0|0,1:1|2:2,0:0:0:0:
116,68,73140,1,8,1:1:0:0:
185,110,73540,1,0,0:0:0:0:
256,192,73940,12,4,77140,1:1:0:0:
