osu file format v14

[General]
AudioFilename: audio.mp3
AudioLeadIn: 0
PreviewTime: 53773
Countdown: 0
SampleSet: Normal
StackLeniency: 0.2
Mode: 0
LetterboxInBreaks: 0
WidescreenStoryboard: 1

[Editor]
Bookmarks: 23033,46017
DistanceSpacing: 0.8
BeatDivisor: 16
GridSize: 8
TimelineZoom: 2.1

[Metadata]
Title:Monody (feat. Laura Brehm)
TitleUnicode:Monody (feat. Laura Brehm)
Artist:TheFatRat
ArtistUnicode:TheFatRat
Creator:Musixiem
Version:Insane
Source:
Tags:
BeatmapID:1321073
BeatmapSetID:625983

[Difficulty]
HPDrainRate:5
CircleSize:4
OverallDifficulty:6
ApproachRate:9
SliderMultiplier:1.1
SliderTickRate:2

[Events]
//Background and Video events
0,0,"Monody Background.jpg",0,0
//Break Periods
2,40619,43994
//Storyboard Layer 0 (Background)
//Storyboard Layer 1 (Fail)
//Storyboard Layer 2 (Pass)
//Storyboard Layer 3 (Foreground)
//Storyboard Sound Samples

[TimingPoints]
8142,306.17055430968,4,1,0,100,1,0
18021,313.270554309681,4,1,0,100,1,0
44894,280.768527918781,4,1,0,100,1,0
53878,-100,4,1,0,100,0,1
71847,-100,4,1,0,100,0,0
89816,278.270554309681,4,1,0,100,1,0
98767,278.085937138622,4,1,0,100,1,0
107712,278.370554309681,4,1,0,100,1,0
125648,280.768527918781,4,1,0,100,1,0
166373,375.368527918783,4,1,0,100,1,0
168986,413,4,1,0,100,1,0
195602,443.130030052204,4,1,0,100,1,0
225457,280.468527918782,4,1,0,100,1,0

[Colours]
Combo1 : 128,128,192
Combo2 : 192,192,192
Combo3 : 196,0,196
Combo4 : 75,158,250

[HitObjects]
256,192,13040,12,0,16714,0:0:0:0:
104,64,17378,5,0,0:0:0:0:
256,64,17684,1,0,0:0:0:0:
392,64,18016,1,0,0:0:0:0:
392,144,18647,2,0,L|256:144,1,123.75
165,202,19326,1,0,0:0:0:0:
128,288,19959,1,0,0:0:0:0:
256,192,20272,1,0,0:0:0:0:
352,96,20585,1,0,0:0:0:0:
416,64,21055,2,0,L|416:128,1,55
416,192,21525,6,0,L|434:305,1,110
416,288,22465,2,0,P|352:288|288:256,1,110
192,224,23092,1,0,0:0:0:0:
64,128,23738,2,0,P|128:128|169:100,1,110
288,96,24345,1,0,0:0:0:0:
104,253,24971,1,0,0:0:0:0:
236,298,25284,1,0,0:0:0:0:
355,159,25598,2,0,B|419:223|483:223|547:159|515:63|451:31|355:31|259:63,1,440
256,192,27477,1,0,0:0:0:0:
192,256,27791,1,0,0:0:0:0:
96,256,28104,1,0,0:0:0:0:
64,192,28574,1,0,0:0:0:0:
64,160,28730,1,0,0:0:0:0:
144,76,29044,1,0,0:0:0:0:
256,32,29357,1,0,0:0:0:0:
224,128,29984,6,0,P|256:192|320:224,1,110
363,292,30590,1,0,0:0:0:0:
398,150,31060,2,0,L|413:215,1,55
416,288,31530,1,0,0:0:0:0:
320,320,31804,1,0,0:0:0:0:
96,256,32431,2,0,P|128:256|192:192,1,110
241,129,33057,1,0,0:0:0:0:
448,256,33684,2,0,P|384:256|352:192,1,110
320,128,34311,1,0,0:0:0:0:
256,64,34937,2,0,L|256:192,1,110
256,192,35564,12,0,40419,0:0:0:0:
160,64,44894,5,0,0:0:0:0:
288,96,45361,1,0,0:0:0:0:
288,96,45455,1,0,0:0:0:0:
352,128,45736,1,0,0:0:0:0:
384,224,46017,5,0,0:0:0:0:
224,224,46485,1,0,0:0:0:0:
128,224,46578,2,0,L|49:188,1,73.3333333333333
37,176,46859,2,0,L|86:102,1,73.3333333333333
160,64,47140,1,0,0:0:0:0:
256,96,47631,1,0,0:0:0:0:
256,96,47701,1,0,0:0:0:0:
384,96,47982,1,0,0:0:0:0:
256,192,48263,5,0,0:0:0:0:
320,256,48754,1,0,0:0:0:0:
416,256,48824,2,0,L|451:190,1,73.3333333333333
448,192,49105,2,0,L|448:109,1,73.3333333333333
421,105,49386,1,0,0:0:0:0:
347,47,49667,1,0,0:0:0:0:
274,73,49877,1,0,0:0:0:0:
239,94,49947,1,0,0:0:0:0:
144,136,50228,2,0,L|131:223,1,82.5
129,275,50509,1,0,0:0:0:0:
216,272,50790,1,0,0:0:0:0:
286,217,51000,1,0,0:0:0:0:
317,192,51070,1,0,0:0:0:0:
369,128,51351,1,0,0:0:0:0:
320,53,51562,1,0,0:0:0:0:
311,54,51632,1,0,0:0:0:0:
227,72,51843,1,0,0:0:0:0:
227,72,51913,1,0,0:0:0:0:
147,119,52123,1,0,0:0:0:0:
147,119,52193,1,0,0:0:0:0:
79,191,52404,1,0,0:0:0:0:
79,191,52474,1,0,0:0:0:0:
81,255,52685,5,0,0:0:0:0:
90,277,52755,5,0,0:0:0:0:
108,302,52849,1,0,0:0:0:0:
142,315,52942,1,0,0:0:0:0:
179,290,53036,1,0,0:0:0:0:
200,256,53129,1,0,0:0:0:0:
217,208,53223,1,0,0:0:0:0:
228,175,53317,5,0,0:0:0:0:
241,144,53410,1,0,0:0:0:0:
269,111,53504,1,0,0:0:0:0:
316,114,53597,1,0,0:0:0:0:
355,140,53691,1,0,0:0:0:0:
376,184,53785,1,0,0:0:0:0:
382,239,53878,5,0,0:0:0:0:
384,96,54346,6,0,L|352:64,1,36.6666666666667
320,64,54720,1,0,0:0:0:0:
256,64,55001,1,0,0:0:0:0:
64,160,55469,2,0,L|96:128,1,36.6666666666667
128,96,55843,1,0,0:0:0:0:
256,64,56124,1,0,0:0:0:0:
256,128,56405,1,0,0:0:0:0:
256,192,56686,2,0,P|256:224|288:256,1,73.3333333333333
288,256,56967,2,0,P|320:256|352:224,1,73.3333333333333
352,224,57247,1,0,0:0:0:0:
352,160,57528,1,0,0:0:0:0:
352,128,57686,1,0,0:0:0:0:
352,64,57967,1,0,0:0:0:0:
103,53,58370,5,0,0:0:0:0:
61,193,58838,1,0,0:0:0:0:
73,219,58932,1,0,0:0:0:0:
139,276,59213,1,0,0:0:0:0:
224,288,59493,1,0,0:0:0:0:
320,256,59961,1,0,0:0:0:0:
352,224,60055,1,0,0:0:0:0:
352,64,60336,5,0,0:0:0:0:
237,90,60617,1,0,0:0:0:0:
130,117,60897,1,0,0:0:0:0:
64,192,61178,2,0,B|114:256,1,73.3333333333333
109,249,61459,2,0,B|139:272|166:282|177:274,1,75.625
187,276,61740,1,0,0:0:0:0:
256,256,62020,2,0,L|255:190,1,61.875
256,160,62459,1,0,0:0:0:0:
256,64,62863,6,0,B|288:96|320:96|352:64,1,110,2|0,0:0|0:0,0:0:0:0:
384,64,63331,1,0,0:0:0:0:
416,96,63424,1,0,0:0:0:0:
424,183,63705,1,0,0:0:0:0:
384,256,63986,2,0,P|352:288|288:256,1,110,2|0,0:0|0:0,0:0:0:0:
256,224,64454,1,0,0:0:0:0:
224,192,64547,1,0,0:0:0:0:
160,128,64828,1,0,0:0:0:0:
96,64,65109,2,0,P|160:32|192:64,1,110
224,64,65670,2,0,L|259:135,1,73.3333333333333
256,160,65951,2,0,B|256:183|256:224|288:224,1,73.3333333333333
320,256,66232,1,0,0:0:0:0:
384,288,66513,2,0,P|416:288|447:252,1,73.3333333333333
448,224,66951,5,0,0:0:0:0:
461,131,67355,2,0,B|461:98|440:65|412:50|384:65,1,110
336,112,67823,1,0,0:0:0:0:
319,139,67917,1,0,0:0:0:0:
268,193,68197,1,0,0:0:0:0:
192,192,68478,2,0,B|160:192|96:160|96:128,1,110
69,64,68946,1,0,0:0:0:0:
101,52,69040,1,0,0:0:0:0:
192,64,69320,1,0,0:0:0:0:
256,192,69601,12,0,71847,0:0:0:0:
256,64,72315,6,0,L|288:96,1,36.6666666666667
333,140,72690,1,0,0:0:0:0:
274,201,72970,1,0,0:0:0:0:
216,149,73438,2,0,L|180:113,1,36.6666666666667
136,72,73813,1,0,0:0:0:0:
256,64,74093,5,0,0:0:0:0:
310,108,74374,1,0,0:0:0:0:
230,123,74655,1,0,0:0:0:0:
301,187,74842,1,0,0:0:0:0:
314,205,74936,1,0,0:0:0:0:
263,271,75123,1,0,0:0:0:0:
242,296,75217,1,0,0:0:0:0:
165,302,75497,2,0,B|106:299|96:288,1,55
64,231,75918,2,0,B|36:185|39:112|82:73,1,165
151,86,76808,5,0,0:0:0:0:
183,84,76901,1,0,0:0:0:0:
277,76,77182,1,0,0:0:0:0:
275,173,77463,5,0,0:0:0:0:
357,193,77931,1,0,0:0:0:0:
387,192,78024,1,0,0:0:0:0:
480,192,78305,1,0,0:0:0:0:
436,104,78586,1,0,0:0:0:0:
317,54,78866,1,0,0:0:0:0:
191,61,79147,1,0,0:0:0:0:
67,76,79334,1,0,0:0:0:0:
89,94,79428,5,0,0:0:0:0:
160,152,79621,2,0,L|193:173,1,34.375
256,200,79896,2,0,L|288:216,1,36.6666666666667
394,254,80130,2,0,P|426:286|458:350,1,110
384,320,80832,2,0,P|320:352|235:288,1,183.333333333333
195,224,81393,1,0,0:0:0:0:
136,160,81674,1,0,0:0:0:0:
64,320,81955,6,0,P|128:352|221:299,1,183.333333333333
260,244,82516,1,0,0:0:0:0:
316,188,82797,1,0,0:0:0:0:
376,80,83078,2,0,P|408:56|472:80,2,110
328,136,83797,2,0,L|288:160,1,41.25
216,184,84108,1,0,0:0:0:0:
192,152,84201,1,0,0:0:0:0:
120,96,84435,1,0,0:0:0:0:
56,88,84605,2,0,P|72:200|72:200,1,110
88,256,85324,6,0,B|144:272|192:240|208:216|232:160,1,183.333333333333
256,120,85868,1,0,0:0:0:0:
264,56,86166,1,0,0:0:0:0:
464,216,86447,2,0,P|400:296|344:256,1,183.333333333333
304,208,86974,1,0,0:0:0:0:
256,40,87290,1,0,0:0:0:0:
184,104,87553,1,0,0:0:0:0:
320,136,87834,1,0,0:0:0:0:
384,248,88132,1,0,0:0:0:0:
296,256,88325,2,0,L|256:256,1,34.375
184,272,88553,2,0,L|144:272,1,34.375
83,266,89255,6,0,B|58:229|50:193|67:169|81:154,1,110
92,101,89816,2,0,B|152:79|274:56|309:75,1,220
388,132,90650,1,0,0:0:0:0:
410,210,90929,2,0,B|380:248|306:285|198:278,1,220
137,265,91763,1,0,0:0:0:0:
186,229,92042,1,0,0:0:0:0:
127,203,92320,1,0,0:0:0:0:
182,170,92598,1,0,0:0:0:0:
127,137,92876,1,0,0:0:0:0:
118,73,93155,6,0,P|168:79|263:206,1,220
267,297,93990,2,0,P|309:303|368:258,1,110
259,235,94807,5,0,0:0:0:0:
205,204,95085,2,0,P|162:213|106:172,1,110
250,137,95937,5,0,0:0:0:0:
252,122,96216,1,0,0:0:0:0:
128,64,96494,6,0,B|384:-32|480:160|320:192|192:192|128:192|96:224|160:352|192:384|288:352|288:352,1,678.333333333333
320,320,98488,5,0,0:0:0:0:
352,256,98767,2,0,B|448:160|416:96,1,183.333333333333
330,44,99323,1,0,0:0:0:0:
240,47,99601,2,0,P|176:79|144:111,1,110
160,160,100435,5,0,0:0:0:0:
96,320,100713,1,0,0:0:0:0:
64,160,100991,1,0,0:0:0:0:
96,64,101455,2,0,L|140:65,1,36.6666666666667
192,128,101825,1,0,0:0:0:0:
288,224,102104,1,0,0:0:0:0:
352,288,102660,2,0,P|384:288|433:229,1,110
434,219,103216,1,0,0:0:0:0:
432,151,103772,2,0,B|416:96|355:78,1,110
337,77,104375,1,0,0:0:0:0:
160,128,104884,1,0,0:0:0:0:
384,224,105162,1,0,0:0:0:0:
256,192,105441,1,0,0:0:0:0:
256,192,105580,12,0,107109,0:0:0:0:
256,296,107712,5,0,0:0:0:0:
208,232,108175,2,0,L|160:208,1,36.6666666666667
80,168,108547,1,0,0:0:0:0:
128,88,108732,5,0,0:0:0:0:
208,80,109011,1,0,0:0:0:0:
304,80,109289,1,0,0:0:0:0:
352,80,109382,1,0,0:0:0:0:
400,168,109660,1,0,0:0:0:0:
336,192,109846,5,0,0:0:0:0:
312,208,109892,1,0,0:0:0:0:
280,216,109938,1,0,0:0:0:0:
192,240,110217,1,0,0:0:0:0:
104,256,110495,5,0,0:0:0:0:
96,168,110681,2,0,L|120:136,1,36.6666666666667
168,112,110959,1,0,0:0:0:0:
208,96,111052,1,0,0:0:0:0:
278,81,111238,1,0,0:0:0:0:
347,76,111377,1,0,0:0:0:0:
415,72,111516,1,0,0:0:0:0:
448,168,111794,1,0,0:0:0:0:
224,264,112212,5,0,0:0:0:0:
120,241,112676,1,0,0:0:0:0:
95,199,112769,1,0,0:0:0:0:
92,128,113001,2,0,P|92:91|136:80,1,73.3333333333333
188,81,113511,1,0,0:0:0:0:
246,147,113789,1,0,0:0:0:0:
269,174,113882,1,0,0:0:0:0:
325,259,114160,2,0,P|371:293|414:266,1,110
428,208,114717,1,0,0:0:0:0:
411,145,114996,1,0,0:0:0:0:
322,83,115181,1,0,0:0:0:0:
281,66,115274,1,0,0:0:0:0:
163,66,115506,1,0,0:0:0:0:
123,85,115599,1,0,0:0:0:0:
94,107,115738,1,0,0:0:0:0:
53,174,115877,2,0,P|46:213|64:240,1,73.3333333333333
61,258,116341,1,0,0:0:0:0:
108,322,116666,5,0,0:0:0:0:
200,325,117130,1,0,0:0:0:0:
245,318,117222,1,0,0:0:0:0:
326,301,117501,1,0,0:0:0:0:
108,322,117826,5,0,0:0:0:0:
210,317,118243,1,0,0:0:0:0:
258,313,118382,1,0,0:0:0:0:
346,298,118614,1,0,0:0:0:0:
407,248,118916,5,0,0:0:0:0:
428,170,119125,1,0,0:0:0:0:
425,148,119171,1,0,0:0:0:0:
412,122,119217,1,0,0:0:0:0:
345,65,119438,1,0,0:0:0:0:
246,58,119629,1,0,0:0:0:0:
224,59,119734,1,0,0:0:0:0:
117,83,119942,1,0,0:0:0:0:
91,157,120064,2,0,P|45:179|49:230,1,91.6666666666667
51,242,120517,2,0,P|88:267|160:253,1,110
167,286,121143,2,0,P|273:261|288:180,1,199.375
286,176,121723,1,0,0:0:0:0:
187,55,122001,1,0,0:0:0:0:
111,45,122187,1,0,0:0:0:0:
56,87,122465,1,0,0:0:0:0:
57,181,122744,1,0,0:0:0:0:
80,203,122836,1,0,0:0:0:0:
164,257,123115,1,0,0:0:0:0:
283,277,123439,1,0,0:0:0:0:
380,207,123718,1,0,0:0:0:0:
394,108,123996,1,0,0:0:0:0:
278,53,124182,1,0,0:0:0:0:
249,42,124275,1,0,0:0:0:0:
116,28,124466,1,0,0:0:0:0:
119,55,124588,5,0,0:0:0:0:
238,40,124988,1,0,0:0:0:0:
266,67,125092,1,0,0:0:0:0:
229,171,125301,1,0,0:0:0:0:
262,186,125405,1,0,0:0:0:0:
223,289,125579,1,0,0:0:0:0:
260,313,125649,1,0,0:0:0:0:
320,323,126115,6,0,P|340:318|340:303,1,36.6666666666667
321,229,126490,1,0,0:0:0:0:
326,134,126677,2,0,B|341:158|371:173|389:171|422:149,1,110
441,153,127239,2,0,B|453:143|459:121|455:104,1,36.6666666666667
368,74,127613,1,0,0:0:0:0:
275,63,127800,1,0,0:0:0:0:
254,65,127847,1,0,0:0:0:0:
229,70,127894,1,0,0:0:0:0:
144,92,128174,1,0,0:0:0:0:
81,137,128455,1,0,0:0:0:0:
41,206,128642,1,0,0:0:0:0:
45,239,128736,1,0,0:0:0:0:
93,309,128923,2,0,P|107:327|133:333,1,36.6666666666667
209,320,129297,2,0,B|229:322|245:313|258:296,1,55
328,260,129765,2,0,B|359:250|375:222|370:191|365:166,1,110
362,140,130093,1,0,0:0:0:0:
360,128,130140,1,0,0:0:0:0:
328,53,130608,2,0,P|311:44|287:45,1,36.6666666666667
194,57,130982,1,0,0:0:0:0:
105,80,131169,1,0,0:0:0:0:
54,137,131450,1,0,0:0:0:0:
46,214,131684,1,0,0:0:0:0:
46,214,131824,1,0,0:0:0:0:
123,109,132105,1,0,0:0:0:0:
258,177,132386,1,0,0:0:0:0:
389,237,132667,1,0,0:0:0:0:
315,270,132947,2,0,L|239:277,1,73.3333333333333
169,283,133228,2,0,L|208:220,1,73.3333333333333
238,166,133509,1,0,0:0:0:0:
251,157,133649,1,0,0:0:0:0:
302,105,133790,2,0,P|332:84|351:103,1,55
376,116,134211,2,0,B|394:155|423:198|410:242|373:275,1,165
