osu file format v14

[General]
AudioFilename: audio.mp3
AudioLeadIn: 0
PreviewTime: -1
Countdown: 1
SampleSet: None
StackLeniency: 0.7
Mode: 0
LetterboxInBreaks: 0
WidescreenStoryboard: 1

[Editor]
Bookmarks: 36323
DistanceSpacing: 3.3
BeatDivisor: 2
GridSize: 16
TimelineZoom: 1

[Metadata]
Title:Mayday Jump Practice
TitleUnicode:Mayday Jump Practice
Artist:TheFatRat
ArtistUnicode:TheFatRat
Creator:MemeMeme_YT
Version:Normal Square Jump
Source:
Tags:
BeatmapID:1736248
BeatmapSetID:828709

[Difficulty]
HPDrainRate:4
CircleSize:4
OverallDifficulty:9.5
ApproachRate:9
SliderMultiplier:1.4
SliderTickRate:1

[Events]
//Background and Video events
//Break Periods
//Storyboard Layer 0 (Background)
//Storyboard Layer 1 (Fail)
//Storyboard Layer 2 (Pass)
//Storyboard Layer 3 (Foreground)
//Storyboard Sound Samples

[TimingPoints]
323,400,4,2,22,42,1,0

[Colours]
Combo1 : 255,255,255
Combo2 : 128,0,255
Combo3 : 0,0,255
Combo4 : 0,128,0

[HitObjects]
256,355,323,1,0,0:0:0:0:
92,191,523,1,0,0:0:0:0:
256,28,723,1,0,0:0:0:0:
419,192,923,1,0,0:0:0:0:
255,355,1123,1,0,0:0:0:0:
92,191,1323,1,0,0:0:0:0:
256,28,1523,1,0,0:0:0:0:
419,192,1723,1,0,0:0:0:0:
255,355,1923,1,0,0:0:0:0:
92,191,2123,1,0,0:0:0:0:
256,28,2323,1,0,0:0:0:0:
419,192,2523,1,0,0:0:0:0:
255,355,2723,1,0,0:0:0:0:
92,191,2923,1,0,0:0:0:0:
256,28,3123,1,0,0:0:0:0:
419,192,3323,1,0,0:0:0:0:
255,355,3523,1,0,0:0:0:0:
92,191,3723,1,0,0:0:0:0:
256,28,3923,1,0,0:0:0:0:
419,192,4123,1,0,0:0:0:0:
255,355,4323,1,0,0:0:0:0:
92,191,4523,1,0,0:0:0:0:
256,28,4723,1,0,0:0:0:0:
419,192,4923,1,0,0:0:0:0:
255,355,5123,1,0,0:0:0:0:
92,191,5323,1,0,0:0:0:0:
256,28,5523,1,0,0:0:0:0:
419,192,5723,1,0,0:0:0:0:
255,355,5923,1,0,0:0:0:0:
92,191,6123,1,0,0:0:0:0:
256,28,6323,1,0,0:0:0:0:
419,192,6523,1,0,0:0:0:0:
255,355,6723,1,0,0:0:0:0:
92,191,6923,1,0,0:0:0:0:
256,28,7123,1,0,0:0:0:0:
419,192,7323,1,0,0:0:0:0:
255,355,7523,1,0,0:0:0:0:
92,191,7723,1,0,0:0:0:0:
256,28,7923,1,0,0:0:0:0:
419,192,8123,1,0,0:0:0:0:
256,355,8323,1,0,0:0:0:0:
92,191,8523,1,0,0:0:0:0:
256,28,8723,1,0,0:0:0:0:
419,192,8923,1,0,0:0:0:0:
255,355,9123,1,0,0:0:0:0:
92,191,9323,1,0,0:0:0:0:
256,28,9523,1,0,0:0:0:0:
419,192,9723,1,0,0:0:0:0:
255,355,9923,1,0,0:0:0:0:
92,191,10123,1,0,0:0:0:0:
256,28,10323,1,0,0:0:0:0:
419,192,10523,1,0,0:0:0:0:
255,355,10723,1,0,0:0:0:0:
92,191,10923,1,0,0:0:0:0:
256,28,11123,1,0,0:0:0:0:
419,192,11323,1,0,0:0:0:0:
255,355,11523,1,0,0:0:0:0:
92,191,11723,1,0,0:0:0:0:
256,28,11923,1,0,0:0:0:0:
419,192,12123,1,0,0:0:0:0:
255,355,12323,1,0,0:0:0:0:
92,191,12523,1,0,0:0:0:0:
256,28,12723,1,0,0:0:0:0:
419,192,12923,1,0,0:0:0:0:
255,355,13123,1,0,0:0:0:0:
92,191,13323,1,0,0:0:0:0:
256,28,13523,1,0,0:0:0:0:
419,192,13723,1,0,0:0:0:0:
255,355,13923,1,0,0:0:0:0:
92,191,14123,1,0,0:0:0:0:
256,28,14323,1,0,0:0:0:0:
419,192,14523,1,0,0:0:0:0:
255,355,14723,1,0,0:0:0:0:
92,191,14923,1,0,0:0:0:0:
256,28,15123,1,0,0:0:0:0:
419,192,15323,1,0,0:0:0:0:
255,355,15523,1,0,0:0:0:0:
92,191,15723,1,0,0:0:0:0:
256,28,15923,1,0,0:0:0:0:
419,192,16123,1,0,0:0:0:0:
256,355,16323,1,0,0:0:0:0:
92,191,16523,1,0,0:0:0:0:
256,28,16723,1,0,0:0:0:0:
419,192,16923,1,0,0:0:0:0:
255,355,17123,1,0,0:0:0:0:
92,191,17323,1,0,0:0:0:0:
256,28,17523,1,0,0:0:0:0:
419,192,17723,1,0,0:0:0:0:
255,355,17923,1,0,0:0:0:0:
92,191,18123,1,0,0:0:0:0:
256,28,18323,1,0,0:0:0:0:
419,192,18523,1,0,0:0:0:0:
255,355,18723,1,0,0:0:0:0:
92,191,18923,1,0,0:0:0:0:
256,28,19123,1,0,0:0:0:0:
419,192,19323,1,0,0:0:0:0:
255,355,19523,1,0,0:0:0:0:
92,191,19723,1,0,0:0:0:0:
256,28,19923,1,0,0:0:0:0:
419,192,20123,1,0,0:0:0:0:
255,355,20323,1,0,0:0:0:0:
92,191,20523,1,0,0:0:0:0:
256,28,20723,1,0,0:0:0:0:
419,192,20923,1,0,0:0:0:0:
255,355,21123,1,0,0:0:0:0:
92,191,21323,1,0,0:0:0:0:
256,28,21523,1,0,0:0:0:0:
419,192,21723,1,0,0:0:0:0:
255,355,21923,1,0,0:0:0:0:
92,191,22123,1,0,0:0:0:0:
256,28,22323,1,0,0:0:0:0:
419,192,22523,1,0,0:0:0:0:
255,355,22723,1,0,0:0:0:0:
92,191,22923,1,0,0:0:0:0:
256,28,23123,1,0,0:0:0:0:
419,192,23323,1,0,0:0:0:0:
255,355,23523,1,0,0:0:0:0:
92,191,23723,1,0,0:0:0:0:
256,28,23923,1,0,0:0:0:0:
419,192,24123,1,0,0:0:0:0:
256,355,24323,1,0,0:0:0:0:
92,191,24523,1,0,0:0:0:0:
256,28,24723,1,0,0:0:0:0:
419,192,24923,1,0,0:0:0:0:
255,355,25123,1,0,0:0:0:0:
92,191,25323,1,0,0:0:0:0:
256,28,25523,1,0,0:0:0:0:
419,192,25723,1,0,0:0:0:0:
255,355,25923,1,0,0:0:0:0:
92,191,26123,1,0,0:0:0:0:
256,28,26323,1,0,0:0:0:0:
419,192,26523,1,0,0:0:0:0:
255,355,26723,1,0,0:0:0:0:
92,191,26923,1,0,0:0:0:0:
256,28,27123,1,0,0:0:0:0:
419,192,27323,1,0,0:0:0:0:
255,355,27523,1,0,0:0:0:0:
92,191,27723,1,0,0:0:0:0:
256,28,27923,1,0,0:0:0:0:
419,192,28123,1,0,0:0:0:0:
255,355,28323,1,0,0:0:0:0:
92,191,28523,1,0,0:0:0:0:
256,28,28723,1,0,0:0:0:0:
419,192,28923,1,0,0:0:0:0:
255,355,29123,1,0,0:0:0:0:
92,191,29323,1,0,0:0:0:0:
256,28,29523,1,0,0:0:0:0:
419,192,29723,1,0,0:0:0:0:
255,355,29923,1,0,0:0:0:0:
92,191,30123,1,0,0:0:0:0:
256,28,30323,1,0,0:0:0:0:
419,192,30523,1,0,0:0:0:0:
255,355,30723,1,0,0:0:0:0:
92,191,30923,1,0,0:0:0:0:
256,28,31123,1,0,0:0:0:0:
419,192,31323,1,0,0:0:0:0:
255,355,31523,1,0,0:0:0:0:
92,191,31723,1,0,0:0:0:0:
256,28,31923,1,0,0:0:0:0:
419,192,32123,1,0,0:0:0:0:
256,355,32323,1,0,0:0:0:0:
92,191,32523,1,0,0:0:0:0:
256,28,32723,1,0,0:0:0:0:
419,192,32923,1,0,0:0:0:0:
255,355,33123,1,0,0:0:0:0:
92,191,33323,1,0,0:0:0:0:
256,28,33523,1,0,0:0:0:0:
419,192,33723,1,0,0:0:0:0:
255,355,33923,1,0,0:0:0:0:
92,191,34123,1,0,0:0:0:0:
256,28,34323,1,0,0:0:0:0:
419,192,34523,1,0,0:0:0:0:
255,355,34723,1,0,0:0:0:0:
92,191,34923,1,0,0:0:0:0:
256,28,35123,1,0,0:0:0:0:
419,192,35323,1,0,0:0:0:0:
255,355,35523,1,0,0:0:0:0:
92,191,35723,1,0,0:0:0:0:
256,28,35923,1,0,0:0:0:0:
419,192,36123,1,0,0:0:0:0:
255,355,36323,1,0,0:0:0:0:
92,191,36523,1,0,0:0:0:0:
256,28,36723,1,0,0:0:0:0:
419,192,36923,1,0,0:0:0:0:
255,355,37123,1,0,0:0:0:0:
92,191,37323,1,0,0:0:0:0:
256,28,37523,1,0,0:0:0:0:
419,192,37723,1,0,0:0:0:0:
255,355,37923,1,0,0:0:0:0:
92,191,38123,1,0,0:0:0:0:
256,28,38323,1,0,0:0:0:0:
419,192,38523,1,0,0:0:0:0:
255,355,38723,1,0,0:0:0:0:
92,191,38923,1,0,0:0:0:0:
256,28,39123,1,0,0:0:0:0:
419,192,39323,1,0,0:0:0:0:
255,355,39523,1,0,0:0:0:0:
92,191,39723,1,0,0:0:0:0:
256,28,39923,1,0,0:0:0:0:
419,192,40123,1,0,0:0:0:0:
256,355,40323,1,0,0:0:0:0:
92,191,40523,1,0,0:0:0:0:
256,28,40723,1,0,0:0:0:0:
419,192,40923,1,0,0:0:0:0:
255,355,41123,1,0,0:0:0:0:
92,191,41323,1,0,0:0:0:0:
256,28,41523,1,0,0:0:0:0:
419,192,41723,1,0,0:0:0:0:
255,355,41923,1,0,0:0:0:0:
92,191,42123,1,0,0:0:0:0:
256,28,42323,1,0,0:0:0:0:
419,192,42523,1,0,0:0:0:0:
255,355,42723,1,0,0:0:0:0:
92,191,42923,1,0,0:0:0:0:
256,28,43123,1,0,0:0:0:0:
419,192,43323,1,0,0:0:0:0:
255,355,43523,1,0,0:0:0:0:
92,191,43723,1,0,0:0:0:0:
256,28,43923,1,0,0:0:0:0:
419,192,44123,1,0,0:0:0:0:
255,355,44323,1,0,0:0:0:0:
92,191,44523,1,0,0:0:0:0:
256,28,44723,1,0,0:0:0:0:
419,192,44923,1,0,0:0:0:0:
255,355,45123,1,0,0:0:0:0:
92,191,45323,1,0,0:0:0:0:
256,28,45523,1,0,0:0:0:0:
419,192,45723,1,0,0:0:0:0:
255,355,45923,1,0,0:0:0:0:
92,191,46123,1,0,0:0:0:0:
256,28,46323,1,0,0:0:0:0:
419,192,46523,1,0,0:0:0:0:
255,355,46723,1,0,0:0:0:0:
92,191,46923,1,0,0:0:0:0:
256,28,47123,1,0,0:0:0:0:
419,192,47323,1,0,0:0:0:0:
255,355,47523,1,0,0:0:0:0:
92,191,47723,1,0,0:0:0:0:
256,28,47923,1,0,0:0:0:0:
419,192,48123,1,0,0:0:0:0:
256,355,48323,1,0,0:0:0:0:
92,191,48523,1,0,0:0:0:0:
256,28,48723,1,0,0:0:0:0:
419,192,48923,1,0,0:0:0:0:
255,355,49123,1,0,0:0:0:0:
92,191,49323,1,0,0:0:0:0:
256,28,49523,1,0,0:0:0:0:
419,192,49723,1,0,0:0:0:0:
255,355,49923,1,0,0:0:0:0:
92,191,50123,1,0,0:0:0:0:
256,28,50323,1,0,0:0:0:0:
419,192,50523,1,0,0:0:0:0:
255,355,50723,1,0,0:0:0:0:
92,191,50923,1,0,0:0:0:0:
256,28,51123,1,0,0:0:0:0:
419,192,51323,1,0,0:0:0:0:
255,355,51523,1,0,0:0:0:0:
92,191,51723,1,0,0:0:0:0:
256,28,51923,1,0,0:0:0:0:
419,192,52123,1,0,0:0:0:0:
255,355,52323,1,0,0:0:0:0:
92,191,52523,1,0,0:0:0:0:
256,28,52723,1,0,0:0:0:0:
419,192,52923,1,0,0:0:0:0:
255,355,53123,1,0,0:0:0:0:
92,191,53323,1,0,0:0:0:0:
256,28,53523,1,0,0:0:0:0:
419,192,53723,1,0,0:0:0:0:
255,355,53923,1,0,0:0:0:0:
92,191,54123,1,0,0:0:0:0:
256,28,54323,1,0,0:0:0:0:
419,192,54523,1,0,0:0:0:0:
255,355,54723,1,0,0:0:0:0:
92,191,54923,1,0,0:0:0:0:
256,28,55123,1,0,0:0:0:0:
419,192,55323,1,0,0:0:0:0:
255,355,55523,1,0,0:0:0:0:
92,191,55723,1,0,0:0:0:0:
256,28,55923,1,0,0:0:0:0:
419,192,56123,1,0,0:0:0:0:
256,355,56323,1,0,0:0:0:0:
92,191,56523,1,0,0:0:0:0:
256,28,56723,1,0,0:0:0:0:
419,192,56923,1,0,0:0:0:0:
255,355,57123,1,0,0:0:0:0:
92,191,57323,1,0,0:0:0:0:
256,28,57523,1,0,0:0:0:0:
419,192,57723,1,0,0:0:0:0:
255,355,57923,1,0,0:0:0:0:
92,191,58123,1,0,0:0:0:0:
256,28,58323,1,0,0:0:0:0:
419,192,58523,1,0,0:0:0:0:
255,355,58723,1,0,0:0:0:0:
92,191,58923,1,0,0:0:0:0:
256,28,59123,1,0,0:0:0:0:
419,192,59323,1,0,0:0:0:0:
255,355,59523,1,0,0:0:0:0:
92,191,59723,1,0,0:0:0:0:
256,28,59923,1,0,0:0:0:0:
419,192,60123,1,0,0:0:0:0:
255,355,60323,1,0,0:0:0:0:
92,191,60523,1,0,0:0:0:0:
256,28,60723,1,0,0:0:0:0:
419,192,60923,1,0,0:0:0:0:
255,355,61123,1,0,0:0:0:0:
92,191,61323,1,0,0:0:0:0:
256,28,61523,1,0,0:0:0:0:
419,192,61723,1,0,0:0:0:0:
255,355,61923,1,0,0:0:0:0:
92,191,62123,1,0,0:0:0:0:
256,28,62323,1,0,0:0:0:0:
419,192,62523,1,0,0:0:0:0:
255,355,62723,1,0,0:0:0:0:
92,191,62923,1,0,0:0:0:0:
256,28,63123,1,0,0:0:0:0:
419,192,63323,1,0,0:0:0:0:
255,355,63523,1,0,0:0:0:0:
92,191,63723,1,0,0:0:0:0:
256,28,63923,1,0,0:0:0:0:
419,192,64123,1,0,0:0:0:0:
256,355,64323,1,0,0:0:0:0:
92,191,64523,1,0,0:0:0:0:
256,28,64723,1,0,0:0:0:0:
419,192,64923,1,0,0:0:0:0:
255,355,65123,1,0,0:0:0:0:
92,191,65323,1,0,0:0:0:0:
256,28,65523,1,0,0:0:0:0:
419,192,65723,1,0,0:0:0:0:
255,355,65923,1,0,0:0:0:0:
92,191,66123,1,0,0:0:0:0:
256,28,66323,1,0,0:0:0:0:
419,192,66523,1,0,0:0:0:0:
255,355,66723,1,0,0:0:0:0:
92,191,66923,1,0,0:0:0:0:
256,28,67123,1,0,0:0:0:0:
419,192,67323,1,0,0:0:0:0:
255,355,67523,1,0,0:0:0:0:
92,191,67723,1,0,0:0:0:0:
256,28,67923,1,0,0:0:0:0:
419,192,68123,1,0,0:0:0:0:
255,355,68323,1,0,0:0:0:0:
92,191,68523,1,0,0:0:0:0:
256,28,68723,1,0,0:0:0:0:
419,192,68923,1,0,0:0:0:0:
255,355,69123,1,0,0:0:0:0:
92,191,69323,1,0,0:0:0:0:
256,28,69523,1,0,0:0:0:0:
419,192,69723,1,0,0:0:0:0:
255,355,69923,1,0,0:0:0:0:
92,191,70123,1,0,0:0:0:0:
256,28,70323,1,0,0:0:0:0:
419,192,70523,1,0,0:0:0:0:
255,355,70723,1,0,0:0:0:0:
92,191,70923,1,0,0:0:0:0:
256,28,71123,1,0,0:0:0:0:
419,192,71323,1,0,0:0:0:0:
255,355,71523,1,0,0:0:0:0:
92,191,71723,1,0,0:0:0:0:
256,28,71923,1,0,0:0:0:0:
419,192,72123,1,0,0:0:0:0:
256,355,72323,1,0,0:0:0:0:
92,191,72523,1,0,0:0:0:0:
256,28,72723,1,0,0:0:0:0:
419,192,72923,1,0,0:0:0:0:
255,355,73123,1,0,0:0:0:0:
92,191,73323,1,0,0:0:0:0:
256,28,73523,1,0,0:0:0:0:
419,192,73723,1,0,0:0:0:0:
255,355,73923,1,0,0:0:0:0:
92,191,74123,1,0,0:0:0:0:
256,28,74323,1,0,0:0:0:0:
419,192,74523,1,0,0:0:0:0:
255,355,74723,1,0,0:0:0:0:
92,191,74923,1,0,0:0:0:0:
256,28,75123,1,0,0:0:0:0:
419,192,75323,1,0,0:0:0:0:
255,355,75523,1,0,0:0:0:0:
92,191,75723,1,0,0:0:0:0:
256,28,75923,1,0,0:0:0:0:
419,192,76123,1,0,0:0:0:0:
255,355,76323,1,0,0:0:0:0:
92,191,76523,1,0,0:0:0:0:
256,28,76723,1,0,0:0:0:0:
419,192,76923,1,0,0:0:0:0:
255,355,77123,1,0,0:0:0:0:
92,191,77323,1,0,0:0:0:0:
256,28,77523,1,0,0:0:0:0:
419,192,77723,1,0,0:0:0:0:
255,355,77923,1,0,0:0:0:0:
92,191,78123,1,0,0:0:0:0:
256,28,78323,1,0,0:0:0:0:
419,192,78523,1,0,0:0:0:0:
255,355,78723,1,0,0:0:0:0:
92,191,78923,1,0,0:0:0:0:
256,28,79123,1,0,0:0:0:0:
419,192,79323,1,0,0:0:0:0:
255,355,79523,1,0,0:0:0:0:
92,191,79723,1,0,0:0:0:0:
256,28,79923,1,0,0:0:0:0:
419,192,80123,1,0,0:0:0:0:
