osu file format v14

[General]
AudioFilename: audio.mp3
AudioLeadIn: 0
PreviewTime: 139471
Countdown: 0
SampleSet: Soft
StackLeniency: 0.7
Mode: 0
LetterboxInBreaks: 0
WidescreenStoryboard: 0

[Editor]
DistanceSpacing: 1.2
BeatDivisor: 4
GridSize: 16
TimelineZoom: 1

[Metadata]
Title:Mayday (feat. Laura Brehm)
TitleUnicode:Mayday (feat. Laura Brehm)
Artist:TheFatRat
ArtistUnicode:TheFatRat
Creator:Violet-Fox
Version:Easy
Source:
Tags:
BeatmapID:1674553
BeatmapSetID:797344

[Difficulty]
HPDrainRate:2
CircleSize:3
OverallDifficulty:1
ApproachRate:4
SliderMultiplier:1
SliderTickRate:1

[Events]
//Background and Video events
0,0,"girl_planet_ship_space-651632.jpg",0,0
//Break Periods
2,38871,50031
2,115671,126831
2,166871,178031
//Storyboard Layer 0 (Background)
//Storyboard Layer 1 (Fail)
//Storyboard Layer 2 (Pass)
//Storyboard Layer 3 (Foreground)
//Storyboard Sound Samples

[TimingPoints]
271,1600,4,2,0,100,1,0
13071,800,4,2,0,100,1,0
13071,-100,4,2,0,50,0,0
25871,-100,4,2,0,75,0,0
51471,-80,4,3,0,70,0,0
64271,-66.6666666666667,4,3,0,90,0,1
93071,-100,4,2,0,50,0,0
128271,-80,4,3,0,70,0,0
141071,-66.6666666666667,4,3,0,90,0,1
166671,-133.333333333333,4,2,0,30,0,0
192271,-66.6666666666667,4,3,0,90,0,1
217871,-200,4,2,0,40,0,0
227471,-200,4,2,0,30,0,0
233871,-200,4,2,0,20,0,0
243471,-200,4,2,0,5,0,0

[HitObjects]
102,94,13071,6,0,B|102:208|102:208,1,100,2|8,0:0|0:0,0:0:0:0:
187,197,14271,2,0,L|187:125,1,50
267,177,15071,1,0,0:0:0:0:
271,210,15471,2,0,P|244:291|127:284,2,200,0|8|8,0:0|0:0|0:0,0:0:0:0:
474,110,19471,5,2,0:0:0:0:
445,82,19871,1,0,0:0:0:0:
410,61,20271,2,0,P|357:39|220:72,1,200,8|8,0:0|0:0,0:0:0:0:
36,193,22671,5,2,0:0:0:0:
59,225,23071,1,0,0:0:0:0:
93,245,23471,2,0,P|161:272|291:230,1,200,8|8,0:0|0:0,0:0:0:0:
373,208,25871,5,2,0:0:0:0:
375,247,26271,1,0,0:0:0:0:
355,281,26671,1,8,0:0:0:0:
326,303,27071,2,0,P|277:286|173:303,1,150,0|8,0:0|0:0,0:0:0:0:
222,81,29071,5,0,0:0:0:0:
214,120,29471,1,0,0:0:0:0:
229,156,29871,1,8,0:0:0:0:
260,173,30271,2,0,P|309:176|378:265,1,150,0|8,0:0|0:0,0:0:0:0:
391,41,32271,5,0,0:0:0:0:
351,37,32671,1,0,0:0:0:0:
311,41,33071,1,8,0:0:0:0:
215,76,33471,2,0,P|182:91|145:95,2,50
298,124,34671,1,0,0:0:0:0:
331,145,35071,1,0,0:0:0:0:
426,129,35471,2,0,P|426:177|381:227,2,100,0|8|0,0:0|0:0|0:0,0:0:0:0:
300,223,37871,2,0,P|265:274|270:323,1,100,8|0,0:0|0:0,0:0:0:0:
165,47,51471,6,0,L|229:111,3,62.5
119,128,53071,2,0,L|179:186,3,62.5
77,210,54671,2,0,L|137:268,3,62.5
29,283,56271,2,0,L|89:341,3,62.5
202,297,57871,6,0,L|197:336,6,31.25
282,242,59471,2,0,L|293:280,6,31.25
371,173,61071,6,0,L|365:212,8,31.25,0|0|0|0|0|0|0|0|4,0:0|0:0|0:0|0:0|0:0|0:0|0:0|0:0|0:2,0:0:0:0:
341,48,64271,6,0,P|298:47|250:143,1,150.000005722046,4|8,0:1|0:2,0:0:0:0:
375,148,65471,2,0,P|403:175|419:221,2,75.0000028610231
305,232,66671,2,0,P|267:249|228:244,2,75.0000028610231,8|0|0,0:2|0:0|0:0,0:0:0:0:
245,131,67871,1,0,0:0:0:0:
144,160,68271,6,0,P|115:188|108:232,2,75.0000028610231,8|0|0,0:2|0:0|0:0,0:0:0:0:
212,239,69471,1,0,0:0:0:0:
205,343,69871,2,0,P|253:336|280:308,2,75.0000028610231,8|0|0,0:2|0:0|0:0,0:0:0:0:
104,313,71071,1,0,0:0:0:0:
63,216,71471,1,8,0:2:0:0:
31,115,71871,2,0,B|109:57|173:161|276:73,1,225.000008583069,0|8,0:0|0:2,0:0:0:0:
333,32,73471,5,0,0:0:0:0:
416,95,73871,2,0,L|350:154,2,75.0000028610231,0|0|8,0:0|0:0|0:2,0:0:0:0:
436,198,75071,1,0,0:0:0:0:
476,294,75471,6,0,P|421:305|345:240,2,150.000005722046,0|8|4,0:0|0:2|0:1,0:0:0:0:
436,198,77471,5,0,0:0:0:0:
359,125,77871,2,0,P|325:105|270:116,2,75.0000028610231,8|0|0,0:2|0:0|0:2,0:0:0:0:
285,200,79071,1,0,0:0:0:0:
182,175,79471,2,0,P|181:212|211:261,2,75.0000028610231,8|0|0,0:2|0:0|0:0,0:0:0:0:
270,304,80671,5,0,0:0:0:0:
173,344,81071,2,0,P|141:349|93:333,2,75.0000028610231,8|0|0,0:2|0:0|0:0,0:0:0:0:
116,255,82271,1,0,0:0:0:0:
80,156,82671,2,0,P|50:172|31:231,2,75.0000028610231,8|0|0,0:2|0:0|0:0,0:0:0:0:
187,132,83871,5,0,0:0:0:0:
290,147,84271,2,0,P|279:189|240:220,2,75.0000028610231,8|0|0,0:2|0:0|0:0,0:0:0:0:
247,50,85471,1,0,0:0:0:0:
143,34,85871,2,0,P|112:68|111:113,1,75.0000028610231,8|0,0:2|0:0,0:0:0:0:
256,192,86671,12,0,89871,0:0:0:0:
162,110,93071,6,0,L|180:175,2,50,4|0|8,0:1|0:0|0:0,0:0:0:0:
98,140,94271,1,0,0:0:0:0:
138,267,95071,2,0,L|198:245,1,50,0|8,0:0|0:0,0:0:0:0:
398,228,96271,6,0,P|382:270|325:296,1,100,0|8,0:0|0:0,0:0:0:0:
253,247,97471,2,0,P|266:212|288:194,2,50
267,340,98671,1,8,0:0:0:0:
328,76,99471,6,0,P|302:85|292:167,1,100,0|8,0:0|0:0,0:0:0:0:
368,184,100671,2,0,L|405:189,1,25
455,258,101271,2,0,L|415:257,3,25,0|0|0|8,0:0|0:0|0:0|0:0,0:0:0:0:
215,187,102671,6,0,P|228:219|200:290,2,100,0|8|0,0:0|0:0|0:0,0:0:0:0:
65,95,105871,2,0,P|52:127|80:198,2,100,0|8|0,0:0|0:0|0:0,0:0:0:0:
221,74,108271,2,0,L|341:73,1,100,8|0,0:0|0:0,0:0:0:0:
407,110,109471,6,0,L|363:163,1,50,0|8,0:0|0:0,0:0:0:0:
300,157,110271,1,0,0:0:0:0:
226,173,110671,2,0,L|264:226,1,50
302,271,111471,1,8,0:0:0:0:
348,330,111871,2,0,L|308:362,3,50,0|0|0|8,0:0|0:0|0:0|0:0,0:0:0:0:
182,274,113871,6,0,L|192:324,2,50,0|0|8,0:0|0:0|0:0,0:0:0:0:
80,202,115471,1,0,0:0:0:0:
406,147,128271,6,0,L|430:219,3,62.5,4|0|0|0,0:1|0:0|0:0|0:0,0:0:0:0:
332,211,129871,2,0,L|318:282,3,62.5
254,205,131471,2,0,L|198:267,3,62.5
176,164,133071,2,0,L|94:181,3,62.5
144,87,134671,6,0,L|171:57,6,31.25
237,97,136271,2,0,L|211:47,6,31.25
315,45,137871,6,0,L|261:33,8,31.25,0|0|0|0|0|0|0|0|4,0:0|0:0|0:0|0:0|0:0|0:0|0:0|0:0|0:1,0:0:0:0:
346,61,141071,6,0,P|354:114|287:181,1,150.000005722046,4|8,0:1|0:2,0:0:0:0:
201,178,142271,1,0,0:0:0:0:
118,142,142671,2,0,P|111:106|127:52,2,75.0000028610231,0|0|8,0:0|0:0|0:2,0:0:0:0:
201,178,143871,1,0,0:0:0:0:
72,273,144271,6,0,P|114:303|234:288,1,150.000005722046,0|8,0:0|0:2,0:0:0:0:
295,329,145471,2,0,P|345:340|439:268,1,150.000005722046
421,203,146671,1,8,0:2:0:0:
313,64,147471,6,0,P|310:106|204:149,1,150.000005722046,0|8,0:0|0:2,0:0:0:0:
164,88,148671,1,0,0:0:0:0:
74,78,149071,2,0,P|70:133|101:169,2,75.0000028610231,0|0|8,0:0|0:0|0:2,0:0:0:0:
164,88,150271,1,0,0:0:0:0:
154,243,150671,6,0,P|128:305|47:329,1,150.000005722046,0|8,0:0|0:2,0:0:0:0:
65,247,151871,2,0,L|65:206,1,37.5000014305115
155,127,152471,2,0,L|154:167,3,37.5000014305115,0|0|0|8,0:0|0:0|0:0|0:2,0:0:0:0:
217,341,153871,6,0,P|286:343|337:285,1,150.000005722046,4|8,0:1|0:2,0:0:0:0:
325,205,155071,1,0,0:0:0:0:
287,128,155471,2,0,P|241:181|272:279,1,150.000005722046,0|8,0:0|0:2,0:0:0:0:
455,229,157071,6,0,P|421:206|431:84,1,150.000005722046,0|8,0:0|0:2,0:0:0:0:
486,148,158271,1,0,0:0:0:0:
455,229,158671,2,0,P|401:240|324:176,1,150.000005722046,0|8,0:0|0:2,0:0:0:0:
292,35,160271,6,0,P|226:32|174:112,1,150.000005722046,0|8,0:0|0:2,0:0:0:0:
205,177,161471,2,0,P|211:215|187:264,2,75.0000028610231
120,144,162671,1,8,0:2:0:0:
256,192,163471,12,0,166671,0:0:0:0:
326,242,179471,6,0,P|277:271|216:270,1,112.500004291535,0|2,0:0|0:0,0:0:0:0:
108,202,181071,6,0,P|133:184|186:179,1,75.0000028610231,0|2,0:0|0:0,0:0:0:0:
312,156,182671,6,0,P|287:138|234:133,1,75.0000028610231
113,65,184271,6,0,P|136:58|202:61,1,75.0000028610231
269,94,185871,1,0,0:0:0:0:
427,146,186471,6,0,L|402:156,3,18.7500007152558,2|2|2|2,0:0|0:0|0:0|0:0,0:0:0:0:
334,226,187471,2,0,L|377:236,1,37.5000014305115,2|2,0:0|0:0,0:0:0:0:
452,301,188271,2,0,L|417:303,2,18.7500007152558,2|2|2,0:0|0:0|0:0,0:0:0:0:
214,288,189671,6,0,L|188:300,3,18.7500007152558,2|2|2|2,0:0|0:0|0:0|0:0,0:0:0:0:
90,296,190671,1,2,0:0:0:0:
205,97,192271,6,0,L|135:124,2,75.0000028610231,0|0|8,0:0|0:0|0:2,0:0:0:0:
284,140,193471,2,0,P|317:161|330:219,1,75.0000028610231
300,277,194271,1,0,0:0:0:0:
243,347,194671,2,0,P|195:332|158:227,1,150.000005722046,8|0,0:2|0:0,0:0:0:0:
159,157,195871,5,0,0:0:0:0:
120,75,196271,2,0,P|80:108|72:152,2,75.0000028610231,8|0|0,0:2|0:0|0:0,0:0:0:0:
208,57,197471,1,0,0:0:0:0:
297,60,197871,2,0,P|337:93|345:137,2,75.0000028610231,8|0|0,0:2|0:0|0:0,0:0:0:0:
251,137,199071,5,0,0:0:0:0:
193,206,199471,2,0,P|177:256|191:294,2,75.0000028610231,8|0|0,0:2|0:0|0:0,0:0:0:0:
282,205,200671,1,0,0:0:0:0:
266,293,201071,2,0,P|309:337|349:345,2,75.0000028610231,8|0|0,0:2|0:0|0:0,0:0:0:0:
355,261,202271,1,0,0:0:0:0:
444,260,202671,1,8,0:2:0:0:
379,91,203471,6,0,P|326:64|225:88,2,150.000005722046,0|8|0,0:0|0:2|0:0,0:0:0:0:
425,168,205471,5,0,0:0:0:0:
335,167,205871,2,0,P|296:173|253:207,2,75.0000028610231,8|0|0,0:2|0:0|0:0,0:0:0:0:
401,228,207071,1,0,0:0:0:0:
313,250,207471,2,0,P|276:281|268:320,2,75.0000028610231,8|0|0,0:2|0:0|0:0,0:0:0:0:
164,328,208671,5,0,0:0:0:0:
114,252,209071,2,0,P|97:215|103:157,2,75.0000028610231,8|0|0,0:2|0:0|0:0,0:0:0:0:
203,256,210271,1,0,0:0:0:0:
178,169,210671,2,0,P|178:124|205:81,2,75.0000028610231,8|0|0,0:2|0:0|0:0,0:0:0:0:
263,139,211871,5,0,0:0:0:0:
303,58,212271,2,0,P|344:29|380:24,2,75.0000028610231,8|0|0,0:2|0:0|0:0,0:0:0:0:
313,147,213471,1,0,0:0:0:0:
391,102,213871,2,0,P|436:117|464:151,1,75.0000028610231,8|0,0:2|0:0,0:0:0:0:
256,192,214671,12,0,217071,0:0:0:0:
199,114,217871,6,0,L|204:191,1,75
257,305,221071,6,0,L|297:232,1,75
334,132,224271,6,0,L|356:204,1,75
410,330,227471,6,0,L|345:293,1,75
201,235,230671,6,0,L|160:302,1,75
164,164,233871,6,0,L|113:104,1,75
218,48,237071,6,0,L|198:122,1,75
256,192,240271,12,0,243471,0:0:0:0:
