osu file format v14

[General]
AudioFilename: audio.mp3
AudioLeadIn: 0
PreviewTime: 62623
Countdown: 0
SampleSet: Soft
StackLeniency: 0.7
Mode: 2
LetterboxInBreaks: 0
WidescreenStoryboard: 1

[Editor]
DistanceSpacing: 1
BeatDivisor: 4
GridSize: 32
TimelineZoom: 1

[Metadata]
Title:MAYDAY (feat. Laura Brehm)
TitleUnicode:MAYDAY (feat. Laura Brehm)
Artist:TheFatRat
ArtistUnicode:TheFatRat
Creator:Ascendance
Version:Salad
Source:
Tags:edm
BeatmapID:2064714
BeatmapSetID:987012

[Difficulty]
HPDrainRate:4
CircleSize:3
OverallDifficulty:6.7
ApproachRate:6.7
SliderMultiplier:1.5
SliderTickRate:1

[Events]
//Background and Video events
0,0,"66392942_p0_master1200.jpg",0,0
//Break Periods
//Storyboard Layer 0 (Background)
//Storyboard Layer 1 (Fail)
//Storyboard Layer 2 (Pass)
//Storyboard Layer 3 (Foreground)
//Storyboard Sound Samples

[TimingPoints]
13123,400,4,2,1,42,1,0
19123,-100,4,2,1,42,0,0
19423,-100,4,2,1,42,0,0
19523,-100,4,2,1,42,0,0
23923,-100,4,2,1,42,0,0
25923,-100,4,2,1,42,0,0
38723,-100,4,2,1,42,0,0
45123,-100,4,2,1,42,0,0
48323,-100,4,2,1,42,0,0
51523,-100,4,2,1,42,0,0
61123,-100,4,2,1,42,0,0
61523,-100,4,2,1,42,0,0
61923,-100,4,2,1,42,0,0
62323,-100,4,2,1,42,0,0
62723,-100,4,2,1,42,0,0
64323,-83.3333333333333,4,2,1,42,0,1
89923,-100,4,2,1,42,0,0

[Colours]
Combo1 : 0,128,192
Combo2 : 0,64,128
Combo3 : 0,128,64
Combo4 : 0,0,160

[HitObjects]
91,318,13123,5,0,3:0:0:0:
276,237,13523,2,0,L|365:252,2,75,0|0|8,0:0|0:0|0:0,0:0:0:0:
119,158,14323,2,0,L|30:173,2,75,0|0|0,3:0|3:0|0:0,0:0:0:0:
276,237,15123,2,0,L|365:252,2,75,0|0|8,0:0|0:0|0:0,0:0:0:0:
137,314,15923,1,0,0:0:0:0:
312,361,16323,6,0,L|312:127,1,225,0|0,3:0|0:0,0:0:0:0:
122,30,17123,2,0,L|123:187,1,150,8|0,0:0|3:0,0:0:0:0:
122,179,18323,1,0,3:0:0:0:
290,330,18723,2,0,L|129:315,1,150,8|0,0:0|0:0,0:0:0:0:
332,203,19523,5,0,3:0:0:0:
175,282,19923,2,0,L|86:297,2,75,0|0|8,0:0|0:0|0:0,0:0:0:0:
332,203,20723,2,0,L|421:218,2,75,0|0|0,3:0|3:0|0:0,0:0:0:0:
175,282,21523,2,0,L|86:297,2,75,0|0|8,0:0|0:0|0:0,0:0:0:0:
375,358,22323,1,0,0:0:0:0:
184,268,22723,6,0,L|184:32,1,225,0|0,3:0|0:0,0:0:0:0:
364,174,23523,2,0,L|364:338,1,150,2|2,0:0|0:0,0:0:0:0:
202,243,24323,2,0,L|52:243,2,150,2|2|2,0:0|0:0|0:0,0:0:0:0:
284,241,25323,1,0,0:0:0:0:
366,240,25523,1,2,0:0:0:0:
197,50,25923,6,0,L|198:144,1,75,0|0,3:0|0:0,0:0:0:0:
310,117,26323,2,0,P|356:164|294:218,1,150,0|8,0:0|0:0,0:0:0:0:
211,215,26923,1,0,0:0:0:0:
29,320,27123,6,0,P|14:211|183:130,1,300,0|0,3:0|3:0,0:0:0:0:
351,214,28323,2,0,L|355:54,1,150,8|0,0:0|0:0,0:0:0:0:
259,27,28923,1,0,0:0:0:0:
152,306,29123,5,0,3:0:0:0:
86,272,29323,1,0,0:0:0:0:
55,205,29523,1,0,0:0:0:0:
127,87,29923,1,8,0:0:0:0:
205,67,30123,1,0,0:0:0:0:
402,29,30323,6,0,P|470:67|422:202,1,225,0|0,3:0|0:0,0:0:0:0:
356,208,31123,1,0,3:0:0:0:
192,304,31523,2,0,L|365:304,1,150,8|0,0:0|0:0,0:0:0:0:
144,222,32323,5,0,3:0:0:0:
301,301,32723,2,0,L|390:316,2,75,0|0|8,0:0|0:0|0:0,0:0:0:0:
144,222,33523,2,0,L|55:237,2,75,0|0|0,3:0|3:0|0:0,0:0:0:0:
301,301,34323,2,0,L|390:316,2,75,0|0|8,0:0|0:0|0:0,0:0:0:0:
101,377,35123,1,0,0:0:0:0:
316,314,35523,6,0,L|316:83,1,225,0|0,3:0|0:0,0:0:0:0:
146,143,36323,2,0,L|146:300,1,150,2|2,0:0|0:0,0:0:0:0:
302,241,37123,2,0,L|457:242,2,150,2|2|2,0:0|0:0|0:0,0:0:0:0:
219,241,38123,1,0,0:0:0:0:
136,241,38323,1,2,0:0:0:0:
336,353,38723,6,0,P|417:320|301:58,1,450,4|2,0:0|0:0,0:0:0:0:
93,67,41723,6,0,L|73:149,1,75,0|2,0:0|0:0,0:0:0:0:
252,200,42323,2,0,L|260:293,1,75,0|2,0:0|0:0,0:0:0:0:
73,285,42923,2,0,L|56:370,1,75,0|2,0:0|0:0,0:0:0:0:
419,67,44923,6,0,L|439:149,1,75,0|2,0:0|0:0,0:0:0:0:
260,200,45523,2,0,L|252:293,1,75,0|2,0:0|0:0,0:0:0:0:
439,285,46123,2,0,L|456:370,1,75,0|2,0:0|0:0,0:0:0:0:
318,328,48123,6,0,L|338:246,1,75,0|2,0:0|0:0,0:0:0:0:
159,195,48723,2,0,L|151:102,1,75,0|2,0:0|0:0,0:0:0:0:
338,110,49323,2,0,L|355:25,1,75,0|2,0:0|0:0,0:0:0:0:
70,70,51523,6,0,L|245:49,1,150,8|0,3:0|0:0,0:0:0:0:
300,39,52123,1,8,3:0:0:0:
381,27,52323,1,8,3:0:0:0:
239,112,52723,1,8,3:0:0:0:
394,168,53123,6,0,L|404:272,2,75,8|8|8,3:0|3:0|3:0,0:0:0:0:
235,120,53923,1,8,3:0:0:0:
86,192,54323,2,0,L|87:284,1,75,0|2,0:0|0:0,0:0:0:0:
263,327,54723,6,0,L|423:328,1,150,8|0,3:0|0:0,0:0:0:0:
333,304,55323,1,8,3:0:0:0:
250,305,55523,1,8,3:0:0:0:
94,305,55923,1,8,3:0:0:0:
250,305,56323,6,0,L|346:306,2,75,8|8|8,3:0|3:0|3:0,0:0:0:0:
79,311,57123,2,0,L|190:195,1,150,0|0,0:0|0:0,0:0:0:0:
266,185,57723,1,2,0:0:0:0:
471,354,57923,6,0,P|494:283|386:191,1,225,2|0,0:0|0:0,0:0:0:0:
319,223,58723,1,2,0:0:0:0:
245,259,58923,1,0,0:0:0:0:
45,338,59123,6,0,P|16:243|120:162,1,225,2|0,0:0|0:0,0:0:0:0:
198,159,59923,2,0,L|199:243,1,75,2|0,0:0|0:0,0:0:0:0:
296,235,60323,2,0,L|298:325,1,75,2|0,0:0|0:0,0:0:0:0:
207,352,60723,1,2,0:0:0:0:
256,192,61123,12,4,62723,3:0:0:0:
116,330,64323,6,0,P|53:271|143:126,1,269.999991760254,4|0,0:0|0:0,0:0:0:0:
214,123,65123,1,8,0:0:0:0:
303,124,65323,1,0,0:0:0:0:
115,21,65523,6,0,P|39:63|111:204,1,269.999991760254,8|0,3:0|0:0,0:0:0:0:
213,240,66323,2,0,L|324:243,1,89.9999972534181,0|0,0:0|0:0,0:0:0:0:
77,362,66723,1,8,0:0:0:0:
58,276,66923,1,0,0:0:0:0:
108,204,67123,1,0,0:0:0:0:
195,192,67323,1,0,0:0:0:0:
419,256,67523,6,0,P|487:203|477:108,1,179.999994506836,8|0,3:0|0:0,0:0:0:0:
311,36,68323,2,0,L|311:151,1,89.9999972534181,8|0,0:0|0:0,0:0:0:0:
433,135,68723,2,0,P|453:258|316:320,1,269.999991760254,8|0,3:0|0:0,0:0:0:0:
251,327,69523,1,8,3:0:0:0:
161,328,69723,1,0,0:0:0:0:
351,250,69923,2,0,L|453:250,2,89.9999972534181,8|0|0,0:0|0:0|0:0,0:0:0:0:
171,283,70723,6,0,P|102:218|190:90,1,269.999991760254,8|0,3:0|0:0,0:0:0:0:
271,88,71523,1,8,0:0:0:0:
361,88,71723,1,0,0:0:0:0:
189,23,71923,6,0,P|110:62|201:186,1,269.999991760254,8|0,3:0|0:0,0:0:0:0:
289,241,72723,2,0,L|289:127,1,89.9999972534181,0|0,3:0|0:0,0:0:0:0:
188,121,73123,1,8,0:0:0:0:
371,93,73523,1,0,0:0:0:0:
180,135,73923,6,0,L|377:139,1,179.999994506836,8|0,3:0|0:0,0:0:0:0:
389,224,74523,1,0,0:0:0:0:
411,311,74723,1,8,0:0:0:0:
238,102,75123,2,0,L|221:197,1,89.9999972534181,8|8,3:0|3:0,0:0:0:0:
408,32,75723,2,0,L|421:138,1,89.9999972534181,8|8,3:0|3:0,0:0:0:0:
261,246,76323,2,0,L|452:234,1,179.999994506836,8|8,0:0|3:0,0:0:0:0:
90,350,77123,6,0,P|18:253|117:149,1,269.999991760254,4|0,0:0|0:0,0:0:0:0:
189,145,77923,1,8,0:0:0:0:
278,142,78123,1,0,0:0:0:0:
456,112,78323,6,0,P|496:193|382:315,1,269.999991760254,8|0,3:0|0:0,0:0:0:0:
289,317,79123,1,0,0:0:0:0:
391,316,79323,1,0,0:0:0:0:
192,257,79523,1,8,0:0:0:0:
120,208,79723,1,0,0:0:0:0:
122,122,79923,1,0,0:0:0:0:
196,77,80123,1,0,0:0:0:0:
406,31,80323,5,8,3:0:0:0:
428,115,80523,1,0,0:0:0:0:
383,191,80723,1,0,0:0:0:0:
298,213,80923,1,0,0:0:0:0:
113,277,81123,2,0,L|111:174,1,89.9999972534181,8|0,0:0|0:0,0:0:0:0:
297,352,81523,6,0,P|379:302|306:170,1,269.999991760254,8|0,3:0|0:0,0:0:0:0:
206,191,82323,2,0,L|201:92,1,89.9999972534181,8|0,3:0|0:0,0:0:0:0:
411,26,82723,2,0,L|418:218,1,179.999994506836,8|0,0:0|0:0,0:0:0:0:
203,338,83523,6,0,P|129:284|231:143,1,269.999991760254,8|0,3:0|0:0,0:0:0:0:
291,138,84323,1,8,0:0:0:0:
114,47,84723,2,0,L|97:157,1,89.9999972534181,8|8,3:0|3:0,0:0:0:0:
315,240,85523,2,0,L|103:229,2,179.999994506836,0|8|0,0:0|0:0|0:0,0:0:0:0:
113,352,86723,6,0,P|99:254|250:189,1,269.999991760254,8|0,3:0|0:0,0:0:0:0:
322,196,87523,1,8,0:0:0:0:
136,123,87923,2,0,L|123:33,1,89.9999972534181,8|8,3:0|3:0,0:0:0:0:
322,285,88523,2,0,L|336:185,1,89.9999972534181,8|8,3:0|3:0,0:0:0:0:
165,351,89123,2,0,L|382:333,1,179.999994506836,2|2,0:0|0:0,0:0:0:0:
132,235,89923,5,6,0:0:0:0:
