osu file format v14

[General]
AudioFilename: audio.mp3
AudioLeadIn: 0
PreviewTime: 26305
Countdown: 0
SampleSet: None
StackLeniency: 0.7
Mode: 0
LetterboxInBreaks: 0
EpilepsyWarning: 1
WidescreenStoryboard: 1

[Editor]
DistanceSpacing: 1.4
BeatDivisor: 8
GridSize: 4
TimelineZoom: 1

[Metadata]
Title:Mad Moon Falling
TitleUnicode:Mad Moon Falling
Artist:TheFatRat
ArtistUnicode:TheFatRat
Creator:Arcubin
Version:Dark Moon
Source:DOTA 2
Tags:defense of the ancient warrior song trap orchestral
BeatmapID:1907619
BeatmapSetID:913211

[Difficulty]
HPDrainRate:6
CircleSize:4
OverallDifficulty:6
ApproachRate:9
SliderMultiplier:2.2
SliderTickRate:1

[Events]
//Background and Video events
0,0,"Sven by Sandara.jpg",0,0
//Break Periods
//Storyboard Layer 0 (Background)
//Storyboard Layer 1 (Fail)
//Storyboard Layer 2 (Pass)
//Storyboard Layer 3 (Foreground)
//Storyboard Sound Samples

[TimingPoints]
805.701425146913,800,4,2,1,75,1,0

[HitObjects]
123,215,805,6,0,P|133:243|110:327,1,110,4|0,0:1|0:0,0:0:0:0:
232,224,1605,2,0,B|237:188|228:135|228:135|261:168,1,110,8|2,0:0|0:0,0:0:0:0:
329,204,2205,2,0,L|410:199,1,55,8|0,0:0|0:0,0:0:0:0:
344,120,2605,1,8,0:0:0:0:
308,284,2805,2,0,L|449:276,1,110,2|8,0:0|0:0,0:0:0:0:
470,206,3405,1,0,0:0:0:0:
228,219,3605,2,0,P|228:245|242:289,1,55,0|8,0:0|0:0,0:0:0:0:
115,163,4005,6,0,L|122:40,2,110,2|0|8,0:0|0:0|0:0,0:0:0:0:
314,295,5205,1,2,0:0:0:0:
270,116,5405,1,8,0:0:0:0:
198,271,5605,1,0,0:0:0:0:
385,196,5805,1,8,0:0:0:0:
180,33,6005,2,0,L|183:176,1,110,2|8,0:0|0:0,0:0:0:0:
188,233,6605,1,0,0:0:0:0:
273,170,6805,2,0,L|273:113,1,55,8|8,0:3|0:3,0:0:0:0:
276,102,7205,6,0,L|279:233,1,110,4|0,0:1|0:0,0:0:0:0:
482,78,8005,2,0,P|448:49|372:38,1,110,8|2,0:0|0:0,0:0:0:0:
288,108,8605,2,0,P|319:121|347:122,1,55,8|0,0:0|0:0,0:0:0:0:
206,151,9005,1,8,0:0:0:0:
136,78,9205,2,0,P|94:75|34:116,1,110,2|8,0:0|0:0,0:0:0:0:
115,208,9805,1,0,0:0:0:0:
219,161,10005,1,0,0:0:0:0:
141,91,10205,1,8,0:0:0:0:
112,322,10405,6,0,B|225:313|225:313|279:324,1,165,2|2,0:0|0:0,0:0:0:0:
287,325,11205,2,0,L|222:319,1,55,8|0,0:0|0:0,0:0:0:0:
301,326,11605,2,0,P|288:301|294:218,1,110,2|0,0:0|0:0,0:0:0:0:
309,252,12205,2,0,L|304:135,1,110,2|0,0:0|0:0,0:0:0:0:
160,29,12805,2,0,B|152:97|152:97|161:117,1,82.5,8|0,0:0|0:0,0:0:0:0:
164,110,13205,2,0,L|86:93,1,55,8|8,0:0|0:0,0:0:0:0:
42,49,13605,5,4,0:3:0:0:
17,275,13805,2,0,P|57:282|114:179,1,165,4|8,0:3|0:0,0:0:0:0:
118,191,14805,2,0,B|159:168|197:192|197:192|235:216|275:192,1,165,2|8,0:0|0:0,0:0:0:0:
376,122,15605,2,0,L|312:126,1,55,2|0,0:0|0:0,0:0:0:0:
445,172,16005,2,0,P|461:126|430:55,1,110,8|0,0:0|0:0,0:0:0:0:
337,38,16605,1,8,0:0:0:0:
197,93,16805,6,0,L|260:91,1,55,2|8,0:0|0:0,0:0:0:0:
134,35,17205,2,0,L|24:31,2,110,0|8|2,0:0|0:0|0:0,0:0:0:0:
184,128,18205,1,8,0:0:0:0:
272,78,18405,2,0,P|281:36|280:11,1,55,0|8,0:0|0:0,0:0:0:0:
107,142,18805,2,0,P|123:182|196:206,1,110,2|8,0:0|0:0,0:0:0:0:
202,59,19405,1,0,0:0:0:0:
108,76,19605,2,8,L|104:157,1,55,8|8,0:3|0:3,0:3:0:0:
205,274,20005,6,0,B|210:187|210:187|188:205,1,110,4|0,0:1|0:0,0:0:0:0:
45,353,20805,2,0,B|100:360|100:360|165:348,1,110,8|2,0:0|0:0,0:0:0:0:
210,281,21405,1,8,0:0:0:0:
122,214,21605,2,0,P|112:241|121:290,1,55,0|8,0:0|0:0,0:0:0:0:
298,337,22005,2,0,P|308:310|299:261,1,55,2|0,0:0|0:0,0:0:0:0:
207,93,22405,2,0,L|208:202,1,110,8|0,0:0|0:0,0:0:0:0:
478,63,23205,6,0,B|445:66|408:44|408:44|387:59|387:59|366:42|324:46,1,165,4|2,0:3|0:0,0:0:0:0:
310,49,24005,2,0,P|336:47|367:62,1,55,8|0,0:0|0:0,0:0:0:0:
292,53,24405,2,0,P|279:99|299:159,1,110,2|0,0:0|0:0,0:0:0:0:
315,175,25005,2,0,L|200:155,1,110,2|0,0:0|0:0,0:0:0:0:
94,222,25605,2,0,P|128:225|156:215,1,55,8|0,0:0|0:0,0:0:0:0:
93,76,26005,2,0,L|28:93,1,55,2|8,0:0|0:0,0:0:0:0:
181,45,26405,6,0,L|302:51,1,110,4|0,0:1|0:0,0:0:0:0:
371,102,27005,1,0,0:0:0:0:
467,42,27205,2,0,L|464:122,1,55,8|0,0:0|0:0,0:0:0:0:
418,183,27605,1,2,0:0:0:0:
484,352,27805,2,0,B|495:264|495:264|490:237,1,110,8|8,0:0|0:0,0:0:0:0:
401,175,28405,2,0,P|393:194|399:233,1,55,2|0,0:0|0:0,0:0:0:0:
312,129,28805,2,0,P|263:120|197:142,1,110,8|0,0:0|0:0,0:0:0:0:
139,81,29405,1,8,0:0:0:0:
37,217,29605,6,0,P|67:237|139:222,1,110,2|0,0:0|0:0,0:0:0:0:
207,157,30205,1,0,0:0:0:0:
272,226,30405,2,0,L|269:280,1,55,8|0,0:0|0:0,0:0:0:0:
361,168,30805,2,0,L|357:284,1,110,2|0,0:0|0:0,0:0:0:0:
448,323,31405,1,8,0:0:0:0:
456,164,31605,2,0,L|452:242,1,55,2|0,0:0|0:0,0:0:0:0:
423,75,32005,2,0,P|391:86|306:50,1,110,8|0,0:0|0:0,0:0:0:0:
241,27,32605,1,8,0:0:0:0:
150,145,32805,6,0,P|180:163|259:125,1,110,2|0,0:0|0:0,0:0:0:0:
62,35,33605,2,0,L|71:148,1,110,8|2,0:0|0:0,0:0:0:0:
151,269,34205,2,0,L|147:205,1,55,8|0,0:0|0:0,0:0:0:0:
227,296,34605,2,0,L|223:232,1,55,8|2,0:0|0:0,0:0:0:0:
203,148,35005,1,2,0:0:0:0:
148,295,35205,1,8,0:0:0:0:
311,211,35405,1,0,0:0:0:0:
87,183,35605,2,0,P|84:215|87:257,1,55,0|8,0:0|0:0,0:0:0:0:
326,330,36005,6,0,P|338:254|322:205,1,110,2|0,0:0|0:0,0:0:0:0:
248,158,36605,1,2,0:0:0:0:
248,158,36805,2,0,P|242:108|252:45,1,110,8|2,0:0|0:0,0:0:0:0:
357,72,37405,2,0,L|358:128,1,55,8|0,0:0|0:0,0:0:0:0:
454,154,37805,2,0,L|444:208,1,55,8|2,0:0|0:0,0:0:0:0:
364,254,38205,1,2,0:0:0:0:
429,346,38405,2,0,L|300:339,1,110,8|2,0:0|0:0,0:0:0:0:
243,277,39005,1,8,0:0:0:0:
109,376,39205,6,0,L|238:369,1,110,4|0,0:1|0:0,0:0:0:0:
285,115,40005,2,0,L|156:122,1,110,8|2,0:0|0:0,0:0:0:0:
96,76,40605,2,0,P|86:43|90:16,1,55,8|0,0:0|0:0,0:0:0:0:
242,193,41005,2,0,P|250:228|248:257,1,55,8|2,0:0|0:0,0:0:0:0:
150,287,41405,1,2,0:0:0:0:
245,109,41605,2,0,P|276:117|327:178,1,110,8|0,0:0|0:0,0:0:0:0:
409,217,42205,1,8,0:0:0:0:
461,129,42405,6,0,L|468:11,1,110,2|0,0:0|0:0,0:0:0:0:
327,56,43205,2,0,L|333:165,1,110,8|2,0:0|0:0,0:0:0:0:
417,242,43805,2,0,P|427:213|422:184,1,55,8|0,0:0|0:0,0:0:0:0:
241,173,44205,1,8,0:0:0:0:
317,312,44405,2,0,P|363:308|415:264,2,110,2|8|2,0:0|0:0|0:0,0:0:0:0:
159,273,45605,6,0,P|122:268|55:297,1,110,2|0,0:0|0:0,0:0:0:0:
206,180,46205,1,0,0:0:0:0:
206,180,46405,2,0,B|271:186|271:186|321:166,1,110,8|2,0:0|0:0,0:0:0:0:
346,88,47005,1,8,0:0:0:0:
265,38,47205,2,0,P|251:66|250:96,1,55,0|8,0:0|0:0,0:0:0:0:
397,254,47605,2,0,P|416:221|414:148,1,110,2|8,0:0|0:0,0:0:0:0:
216,184,48405,2,0,L|224:256,1,55,2|8,0:0|0:0,0:0:0:0:
130,335,48805,6,0,L|141:268,2,55,2|8|0,0:0|0:0|0:0,0:0:0:0:
83,208,49405,1,2,0:0:0:0:
223,338,49605,2,0,B|300:349|300:349|329:330,1,110,8|2,0:0|0:0,0:0:0:0:
295,165,50205,2,0,B|256:182|256:182|230:248,1,110,8|8,0:0|0:0,0:0:0:0:
384,267,50805,2,0,B|396:241|396:241|385:152,1,110,2|8,0:0|0:0,0:0:0:0:
320,96,51405,1,0,0:0:0:0:
394,53,51605,2,0,P|421:56|450:45,1,55,2|0,0:0|0:0,0:0:0:0:
252,37,52005,6,0,L|140:33,1,110,4|0,0:1|0:0,0:0:0:0:
25,236,52805,2,0,P|60:249|133:229,1,110,8|2,0:0|0:0,0:0:0:0:
194,167,53405,2,0,L|199:100,1,55,8|0,0:0|0:0,0:0:0:0:
78,68,53805,1,8,0:0:0:0:
98,160,54005,1,2,0:0:0:0:
281,142,54205,1,0,0:0:0:0:
184,97,54405,2,0,L|196:218,1,110,8|0,0:0|0:0,0:0:0:0:
134,298,55005,1,8,0:0:0:0:
18,222,55205,6,0,L|24:151,1,55,2|8,0:0|0:0,0:0:0:0:
83,93,55605,2,0,P|117:118|188:104,1,110,0|8,0:0|0:0,0:0:0:0:
406,194,56405,2,0,L|345:191,1,55,2|8,0:0|0:0,0:0:0:0:
276,263,56805,2,0,L|337:267,1,55,0|8,0:0|0:0,0:0:0:0:
447,123,57205,2,0,L|335:116,1,110,2|8,0:0|0:0,0:0:0:0:
257,61,57805,1,0,0:0:0:0:
182,142,58005,1,8,0:3:0:0:
56,59,58205,1,8,0:3:0:0:
87,210,58405,6,0,P|130:205|175:157,1,110,4|0,0:1|0:0,0:0:0:0:
68,69,59005,1,0,0:0:0:0:
70,202,59205,2,0,L|74:323,1,110,8|2,0:0|0:0,0:0:0:0:
147,353,59805,1,8,0:0:0:0:
213,278,60005,2,0,L|270:272,1,55,0|8,0:0|0:0,0:0:0:0:
338,356,60405,2,0,L|281:350,1,55,2|0,0:0|0:0,0:0:0:0:
402,277,60805,2,0,B|428:253|428:253|426:167,1,110,8|0,0:0|0:0,0:0:0:0:
358,127,61405,1,8,0:0:0:0:
394,43,61605,6,0,B|359:48|329:32|329:32|310:35|306:54|306:54|283:33|234:42,1,165,2|0,0:0|0:0,0:0:0:0:
233,44,62405,2,0,P|267:40|290:46,1,55,8|0,0:0|0:0,0:0:0:0:
218,47,62805,2,0,B|219:133|219:133|214:162,1,110,2|0,0:0|0:0,0:0:0:0:
195,146,63405,2,0,B|195:237|195:237|206:256,1,110,2|0,0:0|0:0,0:0:0:0:
407,340,64005,2,0,B|403:277|403:277|393:295,1,82.5,8|0,0:0|0:0,0:0:0:0:
393,293,64405,2,0,L|397:236,1,55,8|8,0:0|0:0,0:0:0:0:
352,163,64805,5,2,0:0:0:0:
389,41,65005,2,0,P|437:29|425:111,1,165,2|8,0:0|0:0,0:0:0:0:
425,110,66005,2,0,B|356:103|356:103|332:114|332:114|260:108,1,165,2|8,0:0|0:0,0:0:0:0:
175,51,66805,2,0,P|208:44|245:30,1,55,2|0,0:0|0:0,0:0:0:0:
93,38,67205,2,0,P|88:77|97:150,1,110,8|0,0:0|0:0,0:0:0:0:
169,198,67805,1,8,0:0:0:0:
113,299,68005,6,0,P|105:269|87:243,2,55,2|8|0,0:0|0:0|0:0,0:0:0:0:
327,266,68805,2,0,P|370:266|428:305,1,110,8|2,0:0|0:0,0:0:0:0:
489,234,69405,1,8,0:0:0:0:
415,147,69605,2,0,L|419:205,1,55,0|8,0:0|0:0,0:0:0:0:
325,161,70005,2,0,L|335:46,2,110,2|8|8,0:0|0:0|0:3,0:0:0:0:
258,216,71005,1,8,0:3:0:0:
140,42,71205,6,0,P|179:38|241:85,1,110,4|0,0:1|0:0,0:0:0:0:
54,226,72005,2,0,L|51:105,1,110,8|2,0:0|0:0,0:0:0:0:
169,118,72605,2,0,L|153:177,1,55,8|0,0:0|0:0,0:0:0:0:
243,241,73005,2,0,L|235:180,2,55,8|2|0,0:0|0:0|0:0,0:0:0:0:
332,173,73605,2,0,P|345:136|338:62,1,110,8|2,0:0|0:0,0:0:0:0:
416,25,74205,1,8,0:0:0:0:
484,140,74405,6,0,L|473:322,1,165,4|2,0:3|0:0,0:0:0:0:
474,319,75205,2,0,L|478:261,1,55,8|0,0:0|0:0,0:0:0:0:
472,335,75605,2,0,B|407:324|407:324|341:333,1,110,2|0,0:0|0:0,0:0:0:0:
342,344,76205,2,0,P|302:355|228:317,1,110,2|0,0:0|0:0,0:0:0:0:
278,78,76805,2,0,B|319:63|306:147|351:89|351:89|320:156|332:211,1,220,8|4,0:0|0:1,0:0:0:0:
