osu file format v14

[General]
AudioFilename: audio.mp3
AudioLeadIn: 0
PreviewTime: 62623
Countdown: 0
SampleSet: Soft
StackLeniency: 0.7
Mode: 0
LetterboxInBreaks: 0
WidescreenStoryboard: 0

[Editor]
DistanceSpacing: 0.9
BeatDivisor: 4
GridSize: 16
TimelineZoom: 2.6

[Metadata]
Title:MAYDAY (feat. Laura Brehm)
TitleUnicode:MAYDAY (feat. Laura Brehm)
Artist:TheFatRat
ArtistUnicode:TheFatRat
Creator:Sotarks
Version:Help!
Source:
Tags:akitoshi corinn -laura- shunao shogunmoon armin a_r_m_i_n Dance Edm Female Vocal
BeatmapID:1676342
BeatmapSetID:798261

[Difficulty]
HPDrainRate:6
CircleSize:4
OverallDifficulty:9
ApproachRate:8.5
SliderMultiplier:1.62
SliderTickRate:1

[Events]
//Background and Video events
0,0,"BG.jpg",0,0
//Break Periods
//Storyboard Layer 0 (Background)
//Storyboard Layer 1 (Fail)
//Storyboard Layer 2 (Pass)
//Storyboard Layer 3 (Foreground)
//Storyboard Sound Samples

[TimingPoints]
13123,400,4,2,22,42,1,0
13123,-138.888888888889,4,2,22,42,0,0
19123,-98.0392156862745,4,2,22,42,0,0
19423,-98.0392156862745,4,2,22,5,0,0
19523,-138.888888888889,4,2,22,42,0,0
23923,-98.0392156862745,4,2,22,42,0,0
25923,-98.0392156862745,4,2,22,52,0,0
38723,-192.307692307692,4,2,22,32,0,0
45123,-312.499999999999,4,2,22,32,0,0
48323,-454.545454545452,4,2,22,32,0,0
51523,-138.888888888889,4,2,22,52,0,0
61123,-121.951219512195,4,2,22,52,0,0
61523,-108.695652173913,4,2,22,52,0,0
61923,-98.0392156862744,4,2,22,52,0,0
62323,-89.2857142857143,4,2,22,52,0,0
62743,400,4,2,22,32,1,0
62743,-121.951219512195,4,2,22,32,0,0
64323,400,4,2,22,82,1,1
64323,-89.2857142857142,4,2,22,82,0,1
89923,-89.2857142857142,4,2,22,42,0,0

[Colours]
Combo1 : 142,164,179
Combo2 : 191,166,166
Combo3 : 223,153,151

[HitObjects]
220,40,13123,6,0,P|235:84|238:122,1,58.3200014238282,0|0,1:2|0:0,0:0:0:0:
177,254,13523,1,2,0:2:0:0:
235,202,13723,1,2,0:2:0:0:
304,235,13923,2,0,P|348:248|385:245,1,58.3200014238282,10|0,0:2|0:0,0:0:0:0:
419,101,14323,1,2,1:2:0:0:
361,49,14523,1,2,1:2:0:0:
292,82,14723,2,0,P|248:95|211:92,1,58.3200014238282,2|0,0:0|0:0,0:0:0:0:
65,58,15123,1,2,0:0:0:0:
116,119,15323,1,2,0:0:0:0:
99,198,15523,2,0,P|90:249|91:275,1,58.3200014238282,10|0,0:0|0:0,0:0:0:0:
205,328,15923,2,0,P|202:298|195:270,1,58.3200014238282,2|0,0:0|0:0,0:0:0:0:
365,89,16323,6,0,P|334:160|336:273,1,174.960004271484,2|0,1:2|0:0,0:0:0:0:
265,100,17123,2,0,P|230:76|199:73,1,58.3200014238282,8|0,0:0|0:0,0:0:0:0:
40,106,17523,2,0,B|150:100|97:156|223:156,1,174.960004271484,0|0,1:0|0:0,0:0:0:0:
71,256,18323,2,0,P|115:236|140:235,1,58.3200014238282,0|0,1:0|0:0,0:0:0:0:
264,328,18723,2,0,P|235:321|210:306,1,58.3200014238282,8|0,0:0|0:0,0:0:0:0:
336,123,19123,2,0,P|380:96|454:130,1,123.930000756409,12|0,0:0|0:0,0:0:0:0:
393,170,19523,6,0,P|344:159|316:159,1,58.3200014238282,0|0,1:2|0:0,0:0:0:0:
137,211,19923,1,2,0:2:0:0:
187,145,20123,1,2,0:2:0:0:
164,68,20323,2,0,P|153:31|153:3,1,58.3200014238282,10|0,0:2|0:0,0:0:0:0:
286,92,20723,1,2,1:2:0:0:
336,158,20923,1,2,1:2:0:0:
313,235,21123,2,0,P|302:272|302:300,1,58.3200014238282,2|0,0:0|0:0,0:0:0:0:
203,172,21523,1,2,0:0:0:0:
125,140,21723,1,2,0:0:0:0:
57,183,21923,2,0,P|24:203|-2:210,1,58.3200014238282,10|0,0:0|0:0,0:0:0:0:
50,68,22323,2,0,P|82:47|109:40,1,58.3200014238282,2|0,0:0|0:0,0:0:0:0:
316,116,22723,6,0,P|256:104|204:46,1,116.640002847656,2|0,1:2|0:0,0:0:0:0:
346,237,23323,1,2,0:0:0:0:
401,30,23523,1,10,0:0:0:0:
512,208,23723,1,2,0:0:0:0:
294,34,23923,2,0,L|199:20,1,82.6200005042725,2|0,1:2|1:0,0:0:0:0:
152,306,24323,6,0,L|247:292,1,82.6200005042725,2|0,0:0|1:0,0:0:0:0:
284,40,24723,2,0,L|189:26,1,82.6200005042725,2|0,1:2|0:0,0:0:0:0:
402,218,25123,5,10,0:2:0:0:
166,120,25323,1,2,0:2:0:0:
451,57,25523,1,2,1:2:0:0:
333,154,25723,5,2,0:2:0:0:
468,283,25923,1,2,1:2:0:0:
429,136,26123,1,2,3:2:0:0:
372,301,26323,2,0,P|317:287|281:286,1,82.6200005042725,2|0,3:2|0:0,0:0:0:0:
449,160,26723,1,10,0:0:0:0:
307,94,26923,1,2,0:0:0:0:
458,24,27123,1,2,1:2:0:0:
297,194,27323,2,0,P|212:160|105:159,1,165.240001008545,2|0,1:2|0:0,0:0:0:0:
19,299,27923,2,0,P|70:274|116:271,1,82.6200005042725,0|0,3:0|3:0,0:0:0:0:
334,295,28323,2,0,B|235:298|278:351|152:352,1,165.240001008545,8|0,0:0|3:0,0:0:0:0:
392,199,28923,5,2,3:2:0:0:
324,380,29123,1,2,1:2:0:0:
250,169,29323,1,2,0:2:0:0:
182,350,29523,1,2,0:2:0:0:
368,166,29723,1,2,3:2:0:0:
113,254,29923,1,10,0:2:0:0:
289,54,30123,1,2,3:2:0:0:
57,338,30323,6,0,P|34:277|73:169,1,165.240001008545,2|0,1:2|3:0,0:0:0:0:
180,293,30923,1,0,3:0:0:0:
164,122,31123,2,0,P|190:198|187:228,1,82.6200005042725,0|0,1:0|3:0,0:0:0:0:
39,93,31523,2,0,P|45:52|65:16,1,82.6200005042725,10|0,0:0|3:0,0:0:0:0:
274,114,31923,2,0,P|220:108|177:65,1,82.6200005042725,12|0,0:0|3:0,0:0:0:0:
407,35,32323,1,0,1:0:0:0:
407,35,32723,5,2,0:0:0:0:
430,111,32923,1,2,0:0:0:0:
408,187,33123,2,0,P|397:230|399:273,1,82.6200005042725,10|0,0:2|3:0,0:0:0:0:
265,347,33523,1,2,1:2:0:0:
242,271,33723,1,2,1:2:0:0:
264,194,33923,2,0,P|274:154|273:113,1,82.6200005042725,2|0,0:0|3:0,0:0:0:0:
110,64,34323,1,2,3:2:0:0:
177,28,34523,1,2,3:2:0:0:
257,31,34723,2,0,P|308:17|344:16,1,82.6200005042725,10|0,0:0|3:0,0:0:0:0:
439,157,35123,2,0,P|399:144|358:141,1,82.6200005042725,2|0,0:0|3:0,0:0:0:0:
201,235,35523,6,0,B|298:223|258:280|394:259,1,165.240001008545,2|0,1:2|3:0,0:0:0:0:
157,322,36123,1,2,0:0:0:0:
237,102,36323,1,10,0:0:0:0:
349,345,36523,1,2,3:2:0:0:
144,164,36723,2,0,L|43:147,1,82.6200005042725,2|0,1:2|1:0,0:0:0:0:
336,67,37123,6,0,L|437:50,1,82.6200005042725,2|0,3:2|1:0,0:0:0:0:
135,175,37523,2,0,L|34:158,1,82.6200005042725,2|0,1:2|3:0,0:0:0:0:
389,225,37923,5,10,0:0:0:0:
155,70,38123,1,2,3:2:0:0:
357,296,38323,1,2,0:0:0:0:
357,296,38723,6,0,B|264:291|297:345|190:341,1,168.47999897168,2|0,0:0|0:0,0:0:0:0:
53,296,39923,2,0,P|29:217|181:21,1,336.959997943359,2|0,0:0|0:0,0:0:0:0:
268,38,41723,5,2,0:0:0:0:
212,103,41923,2,0,P|203:141|206:200,1,84.2399994858398,2|2,0:0|0:0,0:0:0:0:
302,159,42523,2,0,P|311:199|310:241,1,84.2399994858398,2|2,0:0|0:0,0:0:0:0:
249,335,43123,2,0,P|236:275|75:275,1,252.71999845752,2|0,0:0|0:0,0:0:0:0:
214,72,44923,5,2,0:0:0:0:
214,72,45123,2,0,P|236:64|271:65,1,51.84,2|0,0:0|0:0,0:0:0:0:
317,119,45723,2,0,P|342:119|367:127,1,51.84,2|0,0:0|0:0,0:0:0:0:
422,185,46323,2,0,P|382:208|343:310,1,155.52,2|0,0:0|0:0,0:0:0:0:
70,323,48123,5,2,0:0:0:0:
70,323,48323,2,0,P|72:304|73:285,1,35.6400010876465,2|0,0:0|0:0,0:0:0:0:
125,230,48923,2,0,P|123:212|122:194,1,35.6400010876465,2|0,0:0|0:0,0:0:0:0:
71,135,49523,2,0,P|80:101|145:69,1,106.92000326294,2|0,0:0|0:0,0:0:0:0:
261,333,51523,6,0,L|194:321,1,58.3200014238282,10|0,0:2|0:0,0:0:0:0:
360,242,51923,1,0,1:0:0:0:
128,185,52123,1,8,0:0:0:0:
360,242,52323,2,0,L|302:252,1,58.3200014238282,0|0,1:0|0:0,0:0:0:0:
465,131,52723,2,0,L|407:120,1,58.3200014238282,10|0,0:2|0:0,0:0:0:0:
457,304,53123,5,0,1:0:0:0:
443,47,53323,1,8,0:0:0:0:
457,304,53523,2,0,L|439:233,1,58.3200014238282,0|0,1:0|0:0,0:0:0:0:
225,359,53923,2,0,L|243:288,1,58.3200014238282,8|0,0:0|0:0,0:0:0:0:
43,346,54323,1,8,0:0:0:0:
157,81,54523,2,0,L|170:49,2,19.4400004746094,8|8|0,0:2|0:2|0:2,0:2:0:0:
158,106,54723,6,0,L|167:170,1,58.3200014238282,10|0,0:2|0:0,0:0:0:0:
285,16,55123,1,2,1:2:0:0:
168,243,55323,1,10,0:2:0:0:
285,16,55523,2,0,L|276:80,1,58.3200014238282,0|2,1:0|0:2,0:0:0:0:
361,306,55923,2,0,L|352:248,1,58.3200014238282,10|0,0:2|0:0,0:0:0:0:
164,347,56323,5,0,1:0:0:0:
377,171,56523,1,8,0:0:0:0:
164,347,56723,2,0,L|172:289,1,58.3200014238282,0|0,1:0|0:0,0:0:0:0:
457,294,57123,2,0,L|448:236,1,58.3200014238282,8|0,0:0|0:0,0:0:0:0:
252,361,57523,1,8,0:0:0:0:
302,87,57723,2,0,L|307:51,2,19.4400004746094,8|8|8,0:2|0:2|0:2,0:2:0:0:
318,106,57923,5,10,0:2:0:0:
180,176,58123,1,0,1:0:0:0:
397,216,58323,5,8,0:0:0:0:
220,157,58523,1,0,1:0:0:0:
412,59,58723,5,8,0:0:0:0:
339,297,58923,1,0,1:0:0:0:
209,39,59123,5,10,0:2:0:0:
356,256,59323,1,0,1:0:0:0:
430,21,59523,5,8,0:0:0:0:
182,131,59723,1,0,1:0:0:0:
350,347,59923,5,8,0:0:0:0:
253,75,60123,1,0,1:0:0:0:
26,303,60323,5,8,0:0:0:0:
293,187,60523,1,0,1:0:0:0:
26,46,60723,5,8,0:0:0:0:
110,329,60923,2,0,L|113:296,2,19.4400004746094,8|8|8,0:2|0:2|0:2,0:2:0:0:
113,347,61123,6,0,P|150:334|161:333,1,33.2100005067444,10|0,0:2|1:0,0:0:0:0:
230,300,61323,2,0,P|193:287|182:286,1,33.2100005067444,0|0,1:0|1:0,0:0:0:0:
127,169,61523,6,0,P|164:179|182:187,1,37.2599987492066,8|0,0:0|1:0,0:0:0:0:
261,201,61723,2,0,P|238:169|228:161,1,37.2599987492066,0|0,1:0|1:0,0:0:0:0:
286,45,61923,6,0,P|310:75|316:89,1,41.3100002521362,8|0,0:0|1:0,0:0:0:0:
383,155,62123,2,0,P|382:115|374:92,1,41.3100002521362,0|0,1:0|1:0,0:0:0:0:
474,24,62323,6,0,P|476:63|473:90,1,45.3600005537109,8|0,0:0|1:0,0:0:0:0:
489,187,62523,2,0,P|511:154|515:134,1,45.3600005537109,0|0,1:0|1:0,0:0:0:0:
376,30,62743,6,0,L|292:19,1,66.4200010134888,2|2,0:0|0:0,0:0:0:0:
235,99,63143,1,2,0:0:0:0:
235,99,63543,2,0,P|247:136|252:171,1,66.4200010134888,2|0,0:0|0:0,0:0:0:0:
172,218,63943,2,0,P|160:255|155:290,1,66.4200010134888,2|0,0:0|0:0,0:0:0:0:
27,39,64323,5,6,1:2:0:0:
67,187,64523,1,0,3:0:0:0:
141,44,64723,1,0,3:0:0:0:
181,192,64923,1,0,3:0:0:0:
271,50,65123,2,0,P|329:33|365:34,1,90.7200011074219,8|0,0:0|0:0,0:0:0:0:
446,264,65523,5,2,1:2:0:0:
228,122,65723,2,0,B|147:81|140:155|52:114,1,181.440002214844,0|0,1:0|0:0,0:0:0:0:
260,217,66323,2,0,P|286:282|284:324,1,90.7200011074219,0|0,3:0|0:0,0:0:0:0:
333,116,66723,1,8,0:0:0:0:
168,222,66923,5,2,0:2:0:0:
401,308,67123,1,2,3:2:0:0:
300,90,67323,1,2,3:2:0:0:
156,319,67523,5,2,1:2:0:0:
477,234,67723,1,2,3:2:0:0:
167,182,67923,1,2,3:2:0:0:
478,88,68123,1,2,3:2:0:0:
216,88,68323,5,10,0:2:0:0:
379,194,68523,1,2,3:2:0:0:
222,262,68723,2,0,P|144:223|27:198,1,181.440002214844,2|0,1:2|3:0,0:0:0:0:
240,349,69323,5,2,0:2:0:0:
298,139,69523,1,2,1:2:0:0:
355,324,69723,1,2,3:2:0:0:
275,184,69923,1,10,0:2:0:0:
246,318,70123,1,2,3:2:0:0:
180,195,70323,1,2,3:2:0:0:
150,296,70523,1,2,3:2:0:0:
75,82,70723,6,0,P|119:25|237:40,1,181.440002214844,2|0,1:2|3:0,0:0:0:0:
340,196,71323,1,0,3:0:0:0:
163,104,71523,2,0,P|154:173|155:217,1,90.7200011074219,8|0,0:0|0:0,0:0:0:0:
355,68,71923,5,2,1:2:0:0:
230,305,72123,2,0,P|153:276|18:270,1,181.440002214844,0|0,1:0|0:0,0:0:0:0:
269,197,72723,2,0,P|337:180|369:179,1,90.7200011074219,0|0,3:0|0:0,0:0:0:0:
488,283,73123,1,8,0:0:0:0:
242,222,73323,5,2,0:2:0:0:
474,136,73523,1,2,0:2:0:0:
220,70,73723,1,2,0:2:0:0:
377,317,73923,6,0,P|360:247|384:112,1,181.440002214844,0|0,1:0|3:0,0:0:0:0:
284,283,74523,1,0,3:0:0:0:
206,79,74723,2,0,P|240:135|245:173,1,90.7200011074219,8|0,0:0|0:0,0:0:0:0:
380,17,75123,1,0,1:0:0:0:
126,110,75323,1,0,1:0:0:0:
332,211,75523,5,2,0:2:0:0:
67,189,75723,1,2,1:2:0:0:
359,108,75923,2,0,P|445:88|481:92,1,90.7200011074219,2|0,1:2|3:0,0:0:0:0:
171,226,76323,2,0,P|128:210|83:206,1,90.7200011074219,10|0,0:2|3:0,0:0:0:0:
370,333,76723,2,0,P|412:317|457:313,1,90.7200011074219,2|0,1:2|3:0,0:0:0:0:
211,305,77123,5,6,1:2:0:0:
337,258,77323,1,0,3:0:0:0:
216,205,77523,1,0,3:0:0:0:
342,158,77723,1,0,3:0:0:0:
194,88,77923,2,0,P|135:63|98:58,1,90.7200011074219,8|0,0:0|0:0,0:0:0:0:
369,37,78323,5,2,1:2:0:0:
149,156,78523,2,0,P|96:144|41:251,1,181.440002214844,0|0,1:0|0:0,0:0:0:0:
260,218,79123,2,0,P|319:193|356:188,1,90.7200011074219,0|0,3:0|0:0,0:0:0:0:
216,299,79523,1,8,0:0:0:0:
291,116,79723,5,2,0:2:0:0:
395,254,79923,1,2,3:2:0:0:
311,81,80123,1,2,3:2:0:0:
211,326,80323,5,2,1:2:0:0:
423,216,80523,1,2,3:2:0:0:
173,160,80723,1,2,0:2:0:0:
391,136,80923,1,2,3:2:0:0:
78,304,81123,5,10,0:2:0:0:
219,28,81323,1,2,3:2:0:0:
334,319,81523,2,0,P|413:326|451:211,1,181.440002214844,2|0,1:2|3:0,0:0:0:0:
277,157,82123,5,2,3:2:0:0:
475,76,82323,1,2,1:2:0:0:
306,59,82523,1,2,3:2:0:0:
426,162,82723,1,10,0:2:0:0:
301,191,82923,1,2,3:2:0:0:
423,256,83123,1,2,0:2:0:0:
342,317,83323,1,2,3:2:0:0:
479,99,83523,6,0,B|370:101|422:174|292:179,1,181.440002214844,2|0,1:2|3:0,0:0:0:0:
200,115,84123,1,0,3:0:0:0:
306,287,84323,2,0,P|235:276|209:287,1,90.7200011074219,8|0,0:0|0:0,0:0:0:0:
325,83,84723,5,2,1:2:0:0:
113,304,84923,2,0,P|118:233|80:120,1,181.440002214844,0|0,1:0|0:0,0:0:0:0:
221,4,85523,2,0,P|199:73|201:113,1,90.7200011074219,0|0,3:0|0:0,0:0:0:0:
309,251,85923,1,8,0:0:0:0:
424,60,86123,5,2,0:2:0:0:
277,228,86323,1,2,0:2:0:0:
253,20,86523,1,2,0:2:0:0:
397,238,86723,6,0,P|384:309|387:343,1,90.7200011074219,0|0,1:0|0:0,0:0:0:0:
271,147,87123,1,0,3:0:0:0:
199,298,87323,1,0,3:0:0:0:
145,65,87523,2,0,P|158:136|155:170,1,90.7200011074219,8|0,0:0|0:0,0:0:0:0:
320,53,87923,5,0,1:0:0:0:
235,234,88123,2,0,P|222:305|225:339,1,90.7200011074219,0|2,1:0|0:2,0:0:0:0:
35,104,88523,1,2,1:2:0:0:
120,285,88723,2,0,P|133:356|130:390,1,90.7200011074219,2|0,1:2|3:0,0:0:0:0:
237,128,89123,2,0,P|283:95|333:89,1,90.7200011074219,10|0,0:2|3:0,0:0:0:0:
473,239,89523,2,0,P|427:206|377:200,1,90.7200011074219,2|0,1:2|3:0,0:0:0:0:
271,263,89923,5,2,0:0:0:0:
