osu file format v14

[General]
AudioFilename: audio.mp3
AudioLeadIn: 0
PreviewTime: 62623
Countdown: 0
SampleSet: Soft
StackLeniency: 0.7
Mode: 0
LetterboxInBreaks: 0
WidescreenStoryboard: 1

[Editor]
Bookmarks: 52655
DistanceSpacing: 1
BeatDivisor: 4
GridSize: 16
TimelineZoom: 0.8

[Metadata]
Title:MAYDAY (feat. Laura Brehm)
TitleUnicode:MAYDAY (feat. Laura Brehm)
Artist:TheFatRat
ArtistUnicode:TheFatRat
Creator:Sotarks
Version:Akitoshi's Normal
Source:
Tags:akitoshi corinn -laura- shunao shogunmoon armin a_r_m_i_n Dance Edm Female Vocal
BeatmapID:1682104
BeatmapSetID:798261

[Difficulty]
HPDrainRate:4
CircleSize:3.2
OverallDifficulty:4
ApproachRate:5
SliderMultiplier:1.05
SliderTickRate:1

[Events]
//Background and Video events
0,0,"BG.jpg",0,0
//Break Periods
2,45323,50323
//Storyboard Layer 0 (Background)
//Storyboard Layer 1 (Fail)
//Storyboard Layer 2 (Pass)
//Storyboard Layer 3 (Foreground)
//Storyboard Sound Samples

[TimingPoints]
13123,400,4,2,22,42,1,0
13123,-100,4,2,22,42,0,0
19123,-100,4,2,22,42,0,0
19423,-100,4,2,22,5,0,0
19523,-100,4,2,22,42,0,0
23923,-100,4,2,22,42,0,0
25923,-100,4,2,22,52,0,0
32223,-100,4,2,22,5,0,0
32323,-100,4,2,22,52,0,0
38758,-100,4,2,22,32,0,0
39558,-100,4,2,22,5,0,0
39958,-100,4,2,22,32,0,0
41158,-100,4,2,22,5,0,0
41958,-100,4,2,22,32,0,0
45158,-100,4,2,22,32,0,0
48158,-100,4,2,22,32,0,0
51523,-100,4,2,22,52,0,0
61123,-100,4,2,22,52,0,0
61523,-100,4,2,22,52,0,0
61923,-100,4,2,22,52,0,0
62323,-100,4,2,22,52,0,0
62743,400,4,2,22,32,1,0
62743,-100,4,2,22,32,0,0
64323,400,4,2,22,82,1,1
64323,-95.2380952380952,4,2,22,82,0,1
89923,-100,4,2,22,42,0,0

[Colours]
Combo1 : 142,164,179
Combo2 : 191,166,166
Combo3 : 223,153,151

[HitObjects]
250,51,13123,5,0,1:2:0:0:
336,110,13523,2,0,P|352:162|335:221,1,105,2|10,0:2|0:2,0:0:0:0:
264,281,14323,2,0,P|212:297|153:280,1,105,2|2,1:2|0:0,0:0:0:0:
78,224,15123,2,0,P|62:172|79:113,1,105,2|10,0:0|0:0,0:0:0:0:
144,46,15923,1,2,0:0:0:0:
250,51,16323,6,0,B|370:42|338:122|467:102,1,210,2|8,1:2|0:0,0:0:0:0:
505,18,17523,2,0,P|448:103|479:214,1,210,0|0,1:0|1:0,0:0:0:0:
505,301,18723,1,8,0:0:0:0:
425,369,19123,1,12,0:0:0:0:
320,361,19523,1,0,1:2:0:0:
256,277,19923,6,0,L|137:288,1,105,2|10,0:2|0:2,0:0:0:0:
77,212,20723,2,0,L|66:93,1,105,2|2,1:2|0:0,0:0:0:0:
141,33,21523,2,0,L|260:22,1,105,2|10,0:0|0:0,0:0:0:0:
342,63,22323,1,2,0:0:0:0:
302,160,22723,6,0,B|210:211|210:211|101:173,1,210,2|10,1:2|0:0,0:0:0:0:
14,146,23923,1,2,1:2:0:0:
14,146,24123,2,0,L|19:303,1,157.5,0|2,1:0|1:2,0:0:0:0:
102,368,25123,1,10,0:2:0:0:
206,359,25523,1,2,1:2:0:0:
284,289,25923,6,0,P|290:222|276:179,1,105,2|2,1:2|3:2,0:0:0:0:
220,99,26723,1,10,0:0:0:0:
309,44,27123,1,2,1:2:0:0:
309,44,27323,2,0,P|388:40|462:81,1,157.5,2|0,1:2|3:0,0:0:0:0:
491,174,28323,2,0,P|488:231|484:278,1,105,8|0,0:0|3:0,0:0:0:0:
410,353,29123,6,0,P|349:358|302:345,1,105,2|2,1:2|0:2,0:0:0:0:
218,290,29923,1,10,0:2:0:0:
174,194,30323,2,0,B|73:171|73:171|9:195|7:257,1,210,2|0,1:2|1:0,0:0:0:0:
23,351,31523,2,0,L|136:341,1,105,10|12,0:0|0:0,0:0:0:0:
218,290,32323,5,0,1:0:0:0:
284,208,32723,2,0,P|293:147|279:98,1,105,2|10,0:0|0:2,0:0:0:0:
204,32,33523,2,0,P|153:23|102:34,1,105,2|2,1:2|0:0,0:0:0:0:
26,107,34323,1,2,3:2:0:0:
103,178,34723,2,0,P|164:187|213:173,1,105,10|2,0:0|0:0,0:0:0:0:
293,118,35523,6,0,B|405:69|505:149,1,210,2|10,1:2|0:0,0:0:0:0:
510,247,36723,1,2,1:2:0:0:
510,247,36923,2,0,L|328:255,1,157.5,0|2,1:0|1:2,0:0:0:0:
247,256,37923,1,10,0:0:0:0:
168,186,38323,1,2,0:0:0:0:
168,79,38723,6,0,P|239:43|374:75,1,210,2|0,0:0|0:0,0:0:0:0:
434,143,39923,2,0,B|448:298|448:298|370:349|281:280,1,315,2|0,0:0|0:0,0:0:0:0:
178,119,41923,6,0,L|20:138,2,157.5,2|2|2,0:0|0:0|0:0,0:0:0:0:
256,192,43323,12,2,45123,0:0:0:0:
276,254,51523,6,0,L|106:245,1,157.5,10|8,0:2|0:0,0:0:0:0:
66,240,52323,1,0,1:0:0:0:
6,153,52723,1,10,0:2:0:0:
73,72,53123,2,0,L|69:18,2,52.5,0|8|0,1:0|0:0|1:0,0:0:0:0:
170,111,53923,2,0,P|218:109|285:105,1,105,8|8,0:0|0:0,0:0:0:0:
331,106,54523,1,10,0:2:0:0:
331,106,54723,6,0,P|348:160|338:208,1,105,10|2,0:2|1:2,0:0:0:0:
300,242,55323,2,0,P|246:225|198:235,1,105,10|2,0:2|0:2,0:0:0:0:
150,253,55923,1,10,0:2:0:0:
64,314,56323,2,0,L|67:366,2,52.5,0|8|0,1:0|0:0|1:0,0:0:0:0:
9,223,57123,2,0,L|16:109,1,105,8|8,0:0|0:0,0:0:0:0:
28,71,57723,1,8,0:0:0:0:
28,71,57923,6,0,P|76:61|139:77,1,105,10|8,0:2|0:0,0:0:0:0:
220,126,58723,2,0,P|268:136|331:120,1,105,8|10,0:0|0:2,0:0:0:0:
415,75,59523,1,8,0:0:0:0:
494,143,59923,1,8,0:0:0:0:
494,248,60323,1,8,0:0:0:0:
415,317,60723,1,8,0:0:0:0:
314,286,61123,6,0,P|261:300|191:292,1,105,10|8,0:2|0:0,0:0:0:0:
114,256,61923,2,0,L|110:199,1,52.5,8|0,0:0|1:0,0:0:0:0:
76,163,62323,2,0,L|80:106,1,52.5,8|0,0:0|1:0,0:0:0:0:
111,66,62743,1,2,0:0:0:0:
111,66,64323,6,0,L|235:61,1,110.249996635437,6|0,1:2|3:0,0:0:0:0:
331,57,65123,1,8,0:0:0:0:
418,133,65523,1,2,1:2:0:0:
418,133,65723,2,0,P|426:202|359:273,1,165.374994953156,0|0,1:0|3:0,0:0:0:0:
256,287,66723,1,8,0:0:0:0:
154,243,67123,1,2,3:2:0:0:
135,134,67523,6,0,P|68:122|8:143,1,110.249996635437,2|2,1:2|3:2,0:0:0:0:
3,240,68323,2,0,L|6:306,1,55.1249983177186,10|2,0:2|3:2,0:0:0:0:
5,350,68723,2,0,P|72:362|132:341,1,110.249996635437,2|0,1:2|3:0,0:0:0:0:
204,291,69523,1,2,1:2:0:0:
268,201,69923,1,10,0:2:0:0:
374,172,70323,1,2,3:2:0:0:
479,199,70723,6,0,P|504:248|503:303,1,110.249996635437,2|0,1:2|3:0,0:0:0:0:
414,369,71523,1,8,0:0:0:0:
313,338,71923,1,2,1:2:0:0:
313,338,72123,2,0,B|229:324|237:375|143:358,1,165.374994953156,0|0,1:0|3:0,0:0:0:0:
50,315,73123,1,8,0:0:0:0:
11,211,73523,1,2,0:2:0:0:
54,109,73923,6,0,P|100:97|168:112,1,110.249996635437,0|0,1:0|3:0,0:0:0:0:
246,178,74723,1,8,0:0:0:0:
292,283,75123,1,0,1:0:0:0:
292,283,75323,2,0,L|422:272,1,110.249996635437,0|2,1:0|1:2,0:0:0:0:
456,266,75923,1,2,1:2:0:0:
507,168,76323,1,10,0:2:0:0:
457,69,76723,1,2,1:2:0:0:
356,23,77123,6,0,P|299:19|232:42,1,110.249996635437,6|0,1:2|3:0,0:0:0:0:
160,99,77923,1,8,0:0:0:0:
203,205,78323,1,2,1:2:0:0:
203,205,78523,2,0,B|294:205|268:258|360:258,1,165.374994953156,0|0,1:0|3:0,0:0:0:0:
465,247,79523,1,8,0:0:0:0:
511,146,79923,1,2,3:2:0:0:
452,52,80323,6,0,L|337:49,1,110.249996635437,2|2,1:2|0:2,0:0:0:0:
234,22,81123,2,0,L|176:23,1,55.1249983177186,10|2,0:2|3:2,0:0:0:0:
123,27,81523,2,0,P|107:82|127:144,1,110.249996635437,2|0,1:2|3:0,0:0:0:0:
189,217,82323,1,2,1:2:0:0:
293,181,82723,1,10,0:2:0:0:
389,234,83123,1,2,0:2:0:0:
398,343,83523,6,0,P|345:363|276:351,1,110.249996635437,2|0,1:2|3:0,0:0:0:0:
190,316,84323,1,8,0:0:0:0:
131,228,84723,1,2,1:2:0:0:
131,228,84923,2,0,P|137:149|143:61,1,165.374994953156,0|0,1:0|3:0,0:0:0:0:
246,25,85923,1,8,0:0:0:0:
345,71,86323,1,2,0:2:0:0:
365,179,86723,6,0,P|314:199|245:191,1,110.249996635437,0|0,1:0|3:0,0:0:0:0:
158,152,87523,1,8,0:0:0:0:
59,202,87923,1,0,1:0:0:0:
59,202,88123,2,0,L|67:323,1,110.249996635437,0|2,1:0|1:2,0:0:0:0:
71,366,88723,1,2,1:2:0:0:
181,368,89123,1,10,0:2:0:0:
271,304,89523,1,2,1:2:0:0:
279,194,89923,5,2,0:0:0:0:
