osu file format v14

[General]
AudioFilename: audio.mp3
AudioLeadIn: 0
PreviewTime: 62623
Countdown: 0
SampleSet: Soft
StackLeniency: 0.7
Mode: 0
LetterboxInBreaks: 0
WidescreenStoryboard: 1

[Editor]
DistanceSpacing: 0.9
BeatDivisor: 4
GridSize: 4
TimelineZoom: 1

[Metadata]
Title:MAYDAY (feat. Laura Brehm)
TitleUnicode:MAYDAY (feat. Laura Brehm)
Artist:TheFatRat
ArtistUnicode:TheFatRat
Creator:Sotarks
Version:A r M i N's Insane
Source:
Tags:akitoshi corinn -laura- shunao shogunmoon armin a_r_m_i_n Dance Edm Female Vocal
BeatmapID:1677118
BeatmapSetID:798261

[Difficulty]
HPDrainRate:5.5
CircleSize:3.7
OverallDifficulty:8.7
ApproachRate:8.3
SliderMultiplier:1.60000000596046
SliderTickRate:1

[Events]
//Background and Video events
0,0,"BG.jpg",0,0
//Break Periods
//Storyboard Layer 0 (Background)
//Storyboard Layer 1 (Fail)
//Storyboard Layer 2 (Pass)
//Storyboard Layer 3 (Foreground)
//Storyboard Sound Samples

[TimingPoints]
13123,400,4,2,22,42,1,0
13123,-133.333333333333,4,2,22,42,0,0
25923,-100,4,2,22,52,0,0
38723,-200,4,2,22,32,0,0
45123,-285.714285714286,4,2,22,32,0,0
48123,-500,4,2,22,32,0,0
51523,-111.111111111111,4,2,22,52,0,0
61123,-125,4,2,22,52,0,0
61523,-111.111111111111,4,2,22,52,0,0
61923,-100,4,2,22,52,0,0
62323,-86.9565217391304,4,2,22,52,0,0
62743,400,4,2,22,32,1,0
62743,-125,4,2,22,32,0,0
64323,400,4,2,22,82,1,1
64323,-86.9565217391304,4,2,22,82,0,1
89923,-86.9565217391304,4,2,22,42,0,0

[Colours]
Combo1 : 142,164,179
Combo2 : 191,166,166
Combo3 : 223,153,151

[HitObjects]
86,119,13123,6,0,L|144:108,1,60.0000025123357,0|0,1:2|0:0,0:0:0:0:
226,210,13523,1,2,0:2:0:0:
278,131,13723,1,2,0:2:0:0:
132,203,13923,2,0,P|137:244|149:265,1,60.0000025123357,10|0,0:2|0:0,0:0:0:0:
267,296,14323,1,2,1:2:0:0:
226,210,14523,1,2,1:2:0:0:
186,346,14723,2,0,L|128:357,1,60.0000025123357,2|0,0:0|0:0,0:0:0:0:
53,255,15123,1,2,0:0:0:0:
132,203,15323,1,2,0:0:0:0:
14,143,15523,2,0,P|43:141|71:129,1,60.0000025123357,10|0,0:0|0:0,0:0:0:0:
177,61,15923,2,0,P|147:59|120:48,1,60.0000025123357,2|0,0:0|0:0,0:0:0:0:
218,148,16323,6,0,B|313:133|291:210|387:196,1,180.000007537007,2|0,1:2|0:0,0:0:0:0:
500,52,17123,2,0,P|476:107|473:167,1,120.000005024671,8|0,0:0|1:0,0:0:0:0:
288,25,18323,1,0,1:0:0:0:
288,25,18723,2,0,L|300:85,1,60.0000025123357,8|0,0:0|0:0,0:0:0:0:
214,126,19123,2,0,L|202:186,1,60.0000025123357,12|0,0:0|0:0,0:0:0:0:
296,316,19523,6,0,P|325:314|353:302,1,60.0000025123357,0|0,1:2|0:0,0:0:0:0:
376,158,19923,1,2,0:2:0:0:
304,221,20123,1,2,0:2:0:0:
470,166,20323,2,0,P|468:136|456:108,1,60.0000025123357,10|0,0:2|0:0,0:0:0:0:
318,83,20723,1,2,1:2:0:0:
376,158,20923,1,2,1:2:0:0:
464,13,21123,2,0,L|404:25,1,60.0000025123357,2|0,0:0|0:0,0:0:0:0:
260,8,21523,1,2,0:0:0:0:
318,83,21723,1,2,0:0:0:0:
163,110,21923,2,0,P|165:80|177:53,1,60.0000025123357,10|0,0:0|0:0,0:0:0:0:
250,150,22323,2,0,P|261:177|263:207,1,60.0000025123357,2|0,0:0|0:0,0:0:0:0:
162,353,22723,6,0,P|203:319|269:323,1,120.000005024671,2|0,1:2|0:0,0:0:0:0:
342,382,23323,1,2,0:0:0:0:
304,207,23523,1,10,0:0:0:0:
266,322,23723,1,2,0:0:0:0:
399,219,23923,2,0,L|387:160,1,60.0000025123357,2|0,1:2|1:0,0:0:0:0:
304,207,24323,2,0,L|292:148,1,60.0000025123357,2|0,0:0|1:0,0:0:0:0:
209,195,24723,2,0,L|197:136,1,60.0000025123357,2|0,1:2|0:0,0:0:0:0:
116,318,25123,1,10,0:2:0:0:
246,275,25323,1,2,0:2:0:0:
118,222,25523,1,2,1:2:0:0:
252,177,25723,1,2,0:2:0:0:
100,50,25923,5,2,1:2:0:0:
188,121,26123,1,2,3:2:0:0:
346,4,26323,2,0,P|355:57|363:93,1,80.000000298023,2|0,3:2|0:0,0:0:0:0:
474,276,26723,1,10,0:0:0:0:
486,133,26923,1,2,0:0:0:0:
380,289,27123,1,2,1:2:0:0:
292,148,27323,6,0,P|211:147|160:204,1,160.000000596046,2|0,1:2|0:0,0:0:0:0:
235,312,27923,2,0,P|241:273|250:234,1,80.000000298023,0|0,3:0|3:0,0:0:0:0:
106,119,28323,1,8,0:0:0:0:
243,79,28523,1,0,0:0:0:0:
160,201,28723,1,0,3:0:0:0:
100,24,28923,5,2,3:2:0:0:
251,174,29123,2,0,L|329:160,1,80.000000298023,2|2,1:2|0:2,0:0:0:0:
191,0,29523,1,2,0:2:0:0:
160,201,29723,1,2,3:2:0:0:
333,30,29923,1,10,0:2:0:0:
391,232,30123,1,2,3:2:0:0:
183,108,30323,2,0,B|100:92|112:153|29:137,1,160.000000596046,2|0,1:2|3:0,0:0:0:0:
51,46,30923,5,0,3:0:0:0:
160,201,31123,2,0,P|161:240|147:277,1,80.000000298023,0|0,1:0|3:0,0:0:0:0:
256,91,31523,2,0,B|354:65|354:65|407:90,1,160.000000596046,10|12,0:0|0:0,0:0:0:0:
512,142,32123,1,0,3:0:0:0:
354,247,32323,6,0,P|347:207|339:168,1,80.000000298023,0|0,1:0|0:0,0:0:0:0:
446,271,32723,1,2,0:0:0:0:
314,334,32923,1,2,0:0:0:0:
433,156,33123,2,0,L|511:142,1,80.000000298023,10|0,0:2|3:0,0:0:0:0:
366,30,33523,1,2,1:2:0:0:
339,168,33723,1,2,1:2:0:0:
227,15,33923,6,0,P|187:18|149:29,1,80.000000298023,2|0,0:0|3:0,0:0:0:0:
72,180,34323,1,2,3:2:0:0:
42,71,34523,1,2,3:2:0:0:
159,143,34723,2,0,B|169:181|169:181|157:223,1,80.000000298023,10|0,0:0|3:0,0:0:0:0:
81,352,35123,2,0,B|70:313|70:313|80:275,1,80.000000298023,2|0,0:0|3:0,0:0:0:0:
240,371,35523,6,0,P|300:384|376:326,1,160.000000596046,2|0,1:2|3:0,0:0:0:0:
376,233,36123,1,2,0:0:0:0:
463,364,36323,1,10,0:0:0:0:
289,289,36523,1,2,3:2:0:0:
456,181,36723,2,0,P|470:218|468:257,1,80.000000298023,2|0,1:2|1:0,0:0:0:0:
294,152,37123,6,0,L|372:138,1,80.000000298023,2|0,3:2|1:0,0:0:0:0:
289,289,37523,2,0,L|211:275,1,80.000000298023,2|0,1:2|3:0,0:0:0:0:
49,154,37923,1,10,0:0:0:0:
90,309,38123,1,2,3:2:0:0:
173,186,38323,1,2,0:0:0:0:
210,274,38523,1,0,0:0:0:0:
130,96,38723,6,0,B|134:60|148:36|148:36|203:79|278:63,1,200.000000745057,2|0,0:0|0:0,0:0:0:0:
388,18,39923,2,0,B|372:78|372:78|404:142|404:142|388:206,1,200.000000745057,2|0,0:0|0:0,0:0:0:0:
365,292,41123,2,0,P|343:289|326:283,1,40.0000001490115,0|0,0:0|0:0,0:0:0:0:
262,223,41523,2,0,P|240:226|223:232,1,40.0000001490115,0|2,0:0|0:0,0:0:0:0:
115,329,41923,6,0,P|104:289|78:244,1,80.000000298023,2|2,0:0|0:0,0:0:0:0:
152,197,42523,2,0,P|162:158|180:123,1,80.000000298023,2|2,0:0|0:0,0:0:0:0:
284,184,43123,2,0,B|380:140|380:228|476:184,1,200.000000745057,2|0,0:0|0:0,0:0:0:0:
512,104,44323,2,0,L|502:61,1,40.0000001490115
424,26,44723,2,0,L|414:64,1,40.0000001490115,0|2,0:0|0:0,0:0:0:0:
315,129,45123,6,0,P|284:120|253:119,1,55.9999984996318,2|0,0:0|0:0,0:0:0:0:
190,66,45723,2,0,P|159:75|128:76,1,55.9999984996318,2|0,0:0|0:0,0:0:0:0:
64,26,46323,2,0,P|27:35|62:107,1,139.999996249079,2|0,0:0|0:0,0:0:0:0:
135,76,47523,2,0,L|144:114,1,27.9999992498159,0|0,0:0|0:0,0:0:0:0:
220,143,47923,2,0,L|210:181,1,27.9999992498159,0|2,0:0|0:0,0:0:0:0:
257,287,48323,6,0,P|279:277|304:270,2,48.0000001788138,2|2|2,0:0|0:0|0:0,0:0:0:0:
256,192,49723,12,0,51323,0:0:0:0:
32,253,51523,6,0,B|76:241|76:241|124:265|124:265|168:253,1,143.99999614191,10|0,0:2|1:0,0:0:0:0:
328,185,52123,1,8,0:0:0:0:
148,97,52323,2,0,L|136:173,1,71.9999980709551,0|0,1:0|0:0,0:0:0:0:
286,99,52723,2,0,P|358:95|411:139,1,143.99999614191,10|0,0:2|1:0,0:0:0:0:
454,317,53323,5,8,0:0:0:0:
316,256,53523,2,0,L|327:184,1,71.9999980709551,0|0,1:0|0:0,0:0:0:0:
235,319,53923,1,8,0:0:0:0:
181,210,54123,1,0,0:0:0:0:
118,298,54323,1,8,0:0:0:0:
66,126,54523,2,0,L|62:102,2,23.999999356985,10|8|8,0:2|0:0|0:0,0:0:0:0:
67,136,54723,6,0,L|138:124,1,71.9999980709551,10|0,0:2|0:0,0:0:0:0:
328,185,55123,1,2,1:2:0:0:
239,28,55323,2,0,P|227:62|229:98,1,71.9999980709551,10|0,0:2|1:0,0:0:0:0:
308,278,55723,1,2,0:2:0:0:
392,87,55923,2,0,L|321:76,1,71.9999980709551,10|0,0:2|0:0,0:0:0:0:
138,124,56323,5,0,1:0:0:0:
308,278,56523,1,8,0:0:0:0:
155,316,56723,2,0,P|153:280|165:246,1,71.9999980709551,0|0,1:0|0:0,0:0:0:0:
400,256,57123,2,0,P|401:291|389:325,1,71.9999980709551,8|0,0:0|0:0,0:0:0:0:
221,169,57523,1,8,0:0:0:0:
392,121,57723,2,0,L|395:97,2,23.999999356985,10|8|8,0:2|0:0|0:0,0:0:0:0:
390,131,57923,5,10,0:2:0:0:
308,278,58123,1,0,1:0:0:0:
296,116,58323,5,8,0:0:0:0:
282,283,58523,1,0,1:0:0:0:
202,101,58723,5,8,0:0:0:0:
256,288,58923,1,0,1:0:0:0:
108,86,59123,5,10,0:2:0:0:
230,293,59323,1,0,1:0:0:0:
259,48,59523,5,8,0:0:0:0:
204,298,59723,1,0,1:0:0:0:
340,98,59923,5,8,0:0:0:0:
419,350,60123,1,0,1:0:0:0:
198,121,60323,5,8,0:0:0:0:
117,375,60523,1,0,1:0:0:0:
279,170,60723,5,8,0:0:0:0:
79,226,60923,2,0,L|74:241,2,23.999999356985,10|8|8,0:2|0:0|0:0,0:0:0:0:
79,226,61123,6,0,L|43:231,1,32.0000001192092,10|0,0:2|1:0,0:0:0:0:
112,135,61323,2,0,L|80:130,1,32.0000001192092,0|0,1:0|1:0,0:0:0:0:
206,203,61523,6,0,L|172:209,1,35.9999990354776,8|0,0:0|1:0,0:0:0:0:
241,99,61723,2,0,L|206:93,1,35.9999990354776,0|0,1:0|1:0,0:0:0:0:
334,169,61923,6,0,L|295:176,1,40.0000001490115,8|0,0:0|1:0,0:0:0:0:
373,52,62123,2,0,L|335:46,1,40.0000001490115,0|0,1:0|1:0,0:0:0:0:
466,141,62323,6,0,L|409:151,1,46.0000010487436,8|0,0:0|1:0,0:0:0:0:
505,24,62523,2,0,L|451:15,1,46.0000010487436,0|0,1:0|1:0,0:0:0:0:
512,219,62743,5,2,0:0:0:0:
148,155,64323,5,6,1:2:0:0:
195,255,64523,1,0,3:0:0:0:
257,164,64723,1,0,3:0:0:0:
304,264,64923,1,0,3:0:0:0:
366,173,65123,1,8,0:0:0:0:
413,273,65323,1,0,0:0:0:0:
318,91,65523,5,2,1:2:0:0:
304,264,65723,1,0,1:0:0:0:
209,82,65923,1,0,0:0:0:0:
195,255,66123,1,0,0:0:0:0:
366,173,66323,2,0,B|410:161|410:161|454:173,1,92.0000020974872,0|0,3:0|0:0,0:0:0:0:
209,82,66723,1,8,0:0:0:0:
304,264,66923,5,2,0:2:0:0:
389,72,67123,1,2,3:2:0:0:
162,165,67323,1,2,3:2:0:0:
396,290,67523,5,2,1:2:0:0:
298,48,67723,1,2,3:2:0:0:
211,247,67923,1,2,3:2:0:0:
140,72,68123,1,2,3:2:0:0:
68,293,68323,5,10,0:2:0:0:
162,165,68523,1,2,3:2:0:0:
254,332,68723,2,0,B|309:301|309:301|425:332,1,184.000004194974,2|0,1:2|3:0,0:0:0:0:
312,157,69323,5,2,0:2:0:0:
254,332,69523,1,2,1:2:0:0:
162,165,69723,1,2,3:2:0:0:
369,234,69923,5,10,0:2:0:0:
162,309,70123,1,2,3:2:0:0:
312,157,70323,1,2,3:2:0:0:
142,87,70523,1,2,3:2:0:0:
293,251,70723,6,0,B|387:237|371:304|466:290,1,184.000004194974,2|0,1:2|3:0,0:0:0:0:
401,173,71323,1,0,3:0:0:0:
319,345,71523,1,8,0:0:0:0:
466,290,71723,1,0,0:0:0:0:
312,157,71923,5,2,1:2:0:0:
480,80,72123,2,0,P|445:31|328:26,1,184.000004194974,0|0,1:0|0:0,0:0:0:0:
219,144,72723,2,0,P|204:75|192:36,1,92.0000020974872,0|0,3:0|0:0,0:0:0:0:
141,259,73123,1,8,0:0:0:0:
312,157,73323,5,2,0:2:0:0:
94,112,73523,1,2,0:2:0:0:
254,232,73723,1,2,0:2:0:0:
61,310,73923,6,0,P|46:271|55:219,1,92.0000020974872,0|0,1:0|0:0,0:0:0:0:
219,144,74323,1,0,3:0:0:0:
141,259,74523,1,0,3:0:0:0:
169,63,74723,2,0,P|208:48|260:57,1,92.0000020974872,8|0,0:0|0:0,0:0:0:0:
400,206,75123,1,0,1:0:0:0:
362,8,75323,6,0,P|350:52|342:98,1,92.0000020974872,0|2,1:0|0:2,0:0:0:0:
451,287,75723,1,2,1:2:0:0:
263,151,75923,2,0,P|275:195|283:240,1,92.0000020974872,2|0,1:2|3:0,0:0:0:0:
440,95,76323,1,10,0:2:0:0:
256,55,76523,1,0,3:0:0:0:
400,206,76723,2,0,P|439:191|491:200,1,92.0000020974872,2|0,1:2|3:0,0:0:0:0:
317,128,77123,5,6,1:2:0:0:
270,228,77323,1,0,3:0:0:0:
208,137,77523,1,0,3:0:0:0:
161,237,77723,1,0,3:0:0:0:
99,146,77923,1,8,0:0:0:0:
52,246,78123,1,0,0:0:0:0:
147,64,78323,5,2,1:2:0:0:
161,237,78523,1,0,1:0:0:0:
256,55,78723,1,0,0:0:0:0:
270,228,78923,1,0,0:0:0:0:
99,146,79123,2,0,L|9:164,1,92.0000020974872,0|0,3:0|0:0,0:0:0:0:
223,310,79523,1,8,0:0:0:0:
177,90,79723,5,2,0:2:0:0:
49,274,79923,1,2,3:2:0:0:
270,228,80123,1,2,3:2:0:0:
91,51,80323,5,2,1:2:0:0:
181,320,80523,1,2,3:2:0:0:
262,133,80723,1,2,0:2:0:0:
341,292,80923,1,2,3:2:0:0:
256,38,81123,5,10,0:2:0:0:
181,320,81323,1,2,3:2:0:0:
395,105,81523,2,0,P|411:188|436:286,1,184.000004194974,2|0,1:2|3:0,0:0:0:0:
262,133,82123,5,2,3:2:0:0:
181,320,82323,1,2,1:2:0:0:
101,187,82523,1,2,3:2:0:0:
276,320,82723,5,10,0:2:0:0:
93,354,82923,1,2,3:2:0:0:
229,238,83123,1,2,0:2:0:0:
101,187,83323,1,2,3:2:0:0:
276,320,83523,6,0,B|387:293|387:293|414:316|423:353,1,184.000004194974,2|0,1:2|3:0,0:0:0:0:
229,238,84123,1,0,3:0:0:0:
388,151,84323,1,8,0:0:0:0:
276,320,84523,1,0,0:0:0:0:
192,112,84723,5,2,1:2:0:0:
87,270,84923,2,0,B|60:313|60:313|37:182,1,184.000004194974,0|0,1:0|0:0,0:0:0:0:
184,24,85523,2,0,P|199:67|192:112,1,92.0000020974872,0|0,3:0|0:0,0:0:0:0:
36,181,85923,1,8,0:0:0:0:
105,76,86123,5,2,0:2:0:0:
215,237,86323,1,2,0:2:0:0:
192,112,86523,1,2,0:2:0:0:
164,317,86723,6,0,P|206:332|251:324,1,92.0000020974872,0|0,1:0|0:0,0:0:0:0:
343,191,87123,1,0,3:0:0:0:
215,237,87323,1,0,3:0:0:0:
412,309,87523,2,0,P|420:263|432:219,1,92.0000020974872,8|0,0:0|0:0,0:0:0:0:
251,324,87923,1,0,1:0:0:0:
322,101,88123,6,0,P|334:145|342:190,1,92.0000020974872,0|2,1:0|0:2,0:0:0:0:
182,101,88523,1,2,1:2:0:0:
391,36,88723,2,0,P|414:75|415:120,1,92.0000020974872,2|0,1:2|3:0,0:0:0:0:
303,308,89123,1,10,0:2:0:0:
342,190,89323,1,0,3:0:0:0:
402,277,89523,1,2,1:2:0:0:
448,203,89723,1,0,3:0:0:0:
374,361,89923,5,2,0:0:0:0:
