osu file format v14

[General]
AudioFilename: audio.mp3
AudioLeadIn: 0
PreviewTime: 65689
Countdown: 0
SampleSet: Normal
StackLeniency: 0.3
Mode: 0
LetterboxInBreaks: 0
WidescreenStoryboard: 1

[Editor]
Bookmarks: 22930
DistanceSpacing: 1.2
BeatDivisor: 4
GridSize: 16
TimelineZoom: 1.7

[Metadata]
Title:MAYDAY (Rob Gasser Remix)
TitleUnicode:MAYDAY (Rob Gasser Remix)
Artist:TheFatRat
ArtistUnicode:TheFatRat
Creator:leon737
Version:papple's Hard
Source:
Tags:Electro dance vocal female Edm pappl e 104 epes2001 773 wsk
BeatmapID:1856063
BeatmapSetID:884301

[Difficulty]
HPDrainRate:5
CircleSize:3.6
OverallDifficulty:6.2
ApproachRate:7
SliderMultiplier:1.7
SliderTickRate:1

[Events]
//Background and Video events
0,0,"Mayday.png",0,0
//Break Periods
2,89337,96513
//Storyboard Layer 0 (Background)
//Storyboard Layer 1 (Fail)
//Storyboard Layer 2 (Pass)
//Storyboard Layer 3 (Foreground)
//Storyboard Sound Samples

[TimingPoints]
862,344.827586206897,4,2,0,25,1,0
22930,-125,4,2,0,25,0,0
25689,-434.782608695652,4,2,0,25,0,0
28448,-125,4,2,0,25,0,0
31551,-250,4,2,0,25,0,0
33965,-100,4,1,0,70,0,0
40430,-100,4,1,0,50,0,0
40517,-100,4,1,0,70,0,0
41810,-100,4,1,0,50,0,0
41896,-100,4,1,0,70,0,0
44999,-200,4,2,0,55,0,0
47758,-200,4,2,0,55,0,0
56034,-125,4,3,0,70,0,0
65689,-125,4,3,0,50,0,0
67068,-111.111111111111,4,1,0,90,0,1
72586,-90.9090909090908,4,1,0,90,0,1
78103,-111.111111111111,4,1,0,90,0,1
82930,-90.9090909090908,4,1,0,90,0,1
88448,-90.9090909090908,4,1,0,60,0,1
89137,-125,4,1,0,50,0,0
89310,-100,4,2,0,25,0,0
100172,-100,4,1,0,70,0,0
111206,-200,4,2,0,55,0,0
122241,-125,4,3,0,70,0,0
132586,-90.9090909090909,4,1,0,90,0,0
133275,-90.9090909090909,4,1,0,90,0,1
142930,-111.111111111111,4,1,0,70,0,1
143965,-90.9090909090909,4,1,0,90,0,1
155344,-111.111111111111,4,1,0,90,0,1
177413,-500,4,2,0,20,0,0

[Colours]
Combo1 : 146,121,204
Combo2 : 85,114,220
Combo3 : 243,123,173

[HitObjects]
64,175,22930,5,0,0:0:0:0:
64,175,23275,6,0,L|131:166,1,68
213,156,23620,1,0,0:0:0:0:
98,272,23965,6,0,L|165:263,1,68
247,253,24310,1,0,0:0:0:0:
132,369,24654,6,0,L|199:360,1,68
281,349,24999,2,0,P|334:308|348:243,1,136
349,244,25689,6,0,P|350:137|423:215,1,273.699990812073
424,216,28448,5,0,0:0:0:0:
321,89,28793,6,0,P|288:81|254:79,1,68
178,109,29137,1,0,0:0:0:0:
178,109,29482,6,0,P|170:141|168:175,1,68
198,252,29826,1,0,0:0:0:0:
198,252,30172,6,0,P|230:259|264:261,1,68
341,232,30517,2,0,P|408:235|474:251,1,136
347,353,31206,6,0,L|280:343,1,68
198,340,31551,6,0,P|110:251|195:164,1,272
193,164,33275,1,0,0:0:0:0:
193,164,33793,5,0,0:0:0:0:
277,222,33965,2,0,P|318:228|361:229,1,85
460,202,34310,2,0,L|445:371,1,170
350,334,34827,1,0,0:0:0:0:
350,334,34999,2,0,P|308:327|265:326,1,85
165,348,35344,5,0,0:0:0:0:
165,348,35689,2,0,L|150:178,1,170
99,89,36206,1,0,0:0:0:0:
99,89,36379,2,0,P|138:74|170:46,1,85
244,116,36724,6,0,L|251:200,1,85
343,244,37068,2,0,L|350:159,1,85
329,59,37413,1,0,0:0:0:0:
244,116,37586,1,0,0:0:0:0:
170,46,37758,6,0,P|142:123|181:196,1,170
292,368,38448,2,0,P|319:290|280:217,1,170
181,196,38965,1,0,0:0:0:0:
181,196,39137,2,0,P|139:204|97:206,1,85
20,138,39482,5,0,0:0:0:0:
153,294,39827,1,0,0:0:0:0:
252,270,39999,1,0,0:0:0:0:
322,345,40172,2,0,P|384:353|439:325,1,127.5
465,280,40517,1,0,0:0:0:0:
367,253,40689,1,0,0:0:0:0:
440,180,40862,6,0,P|456:100|408:33,1,170
306,31,41379,1,0,0:0:0:0:
217,79,41551,2,0,P|210:142|216:205,1,127.5
241,251,41896,2,0,L|219:333,1,85
120,265,42241,5,0,0:0:0:0:
120,265,42586,2,0,L|76:100,1,170
136,17,43103,1,0,0:0:0:0:
217,79,43275,2,0,P|258:88|300:87,1,85
393,43,43620,6,0,L|407:126,1,85
286,170,43965,2,0,L|300:86,1,85
373,223,44310,2,0,L|365:264,3,42.5
317,283,44655,2,0,L|324:324,3,42.5
238,306,44999,6,0,P|138:284|219:223,2,255
186,69,47586,1,0,0:0:0:0:
186,69,47758,6,0,P|225:83|267:80,1,85
334,34,48275,2,0,L|418:26,1,85
407,107,48793,2,0,B|397:191|397:191|312:199,1,170
159,251,49827,1,0,0:0:0:0:
159,251,50172,1,0,0:0:0:0:
48,132,50517,6,0,P|81:107|121:93,1,85
202,97,51034,2,0,L|286:89,1,85
355,45,51551,2,0,B|401:117|401:117|389:200,1,170
360,360,52586,1,0,0:0:0:0:
360,360,52930,1,0,0:0:0:0:
201,331,53275,6,0,P|158:331|116:339,1,85
40,313,53793,2,0,L|28:228,1,85
53,151,54310,2,0,B|85:133|123:138|123:138|119:112|119:112|157:117|187:97,1,170
244,248,55344,1,0,0:0:0:0:
244,248,55689,1,0,0:0:0:0:
347,124,56034,6,0,L|482:112,1,136
367,246,56724,2,0,L|232:234,1,136
71,158,57413,2,0,L|206:146,1,136
206,323,58103,2,0,L|71:311,1,136
25,234,58620,1,0,0:0:0:0:
71,158,58793,6,0,B|108:100|108:100|170:74,1,136
319,170,59482,2,0,B|356:228|356:228|418:253,1,136
241,239,60172,2,0,B|178:264|178:264|141:322,1,136
165,141,60862,2,0,L|169:73,1,68
251,40,61206,2,0,L|255:107,1,68
319,169,61551,6,0,P|351:159|385:157,1,68
459,206,61896,2,0,P|451:239|436:269,1,68
357,309,62241,2,0,P|332:286|313:257,1,68
239,208,62586,2,0,P|214:230|195:259,1,68
122,210,62930,6,0,L|108:143,1,68
196,132,63275,2,0,L|233:75,1,68
303,129,63620,2,0,L|369:115,1,68
381,203,63965,2,0,L|437:240,1,68
256,192,64310,12,0,65689,0:0:0:0:
57,138,67068,6,0,B|138:160|205:120|205:120|274:81|354:97,1,305.999990661621
498,209,68103,2,0,B|430:219|359:196|359:196|273:169|186:189|177:319|243:358|314:357,1,458.999985992432
376,319,69310,2,0,P|413:314|451:316,2,76.4999976654053
297,272,69827,6,0,P|220:277|145:267,1,152.999995330811
64,221,70344,2,0,B|84:101|84:101|108:128,1,152.999995330811
173,184,70862,2,0,B|237:200|304:184|304:184|412:209|405:342|303:358,1,382.499988327027
261,363,71810,1,0,0:0:0:0:
261,363,71896,6,0,P|222:364|184:362,1,76.4999976654053
93,345,72241,2,0,P|54:342|16:344,1,76.4999976654053
59,230,72586,5,0,0:0:0:0:
59,230,72930,6,0,L|69:137,1,93.5000028533936
166,80,73275,2,0,L|176:172,1,93.5000028533936
254,28,73620,1,0,0:0:0:0:
254,28,73793,1,0,0:0:0:0:
332,106,73965,6,0,P|377:122|423:127,1,93.5000028533936
354,216,74310,2,0,P|338:260|333:306,1,93.5000028533936
244,237,74655,2,0,P|199:221|153:216,1,93.5000028533936
222,127,74999,1,0,0:0:0:0:
222,127,75172,1,0,0:0:0:0:
244,237,75344,6,0,L|231:329,1,93.5000028533936
231,329,75689,6,0,P|321:306|413:317,2,187.000005706787
136,268,76551,1,0,0:0:0:0:
136,268,76724,6,0,L|104:83,1,187.000005706787
322,29,77413,2,0,P|315:75|314:121,1,93.5000028533936
234,201,77758,2,0,P|240:247|241:293,1,93.5000028533936
339,238,78103,6,0,P|457:200|423:320,1,305.999990661621
241,294,79137,2,0,B|166:323|92:257|105:170|165:133|211:134|211:134|275:141|323:98|320:29,1,458.999985992432
228,44,80344,2,0,P|189:42|152:32,2,76.4999976654053
320,37,80862,6,0,P|396:40|470:59,1,152.999995330811
507,143,81379,2,0,B|487:263|487:263|463:236,1,152.999995330811
417,161,81896,2,0,B|294:118|211:217|211:217|235:291,1,305.999990661621
136,263,82758,1,0,0:0:0:0:
136,263,82844,1,0,0:0:0:0:
136,263,82930,6,0,P|67:266|19:314,1,140.25000428009
7,370,83275,1,0,0:0:0:0:
41,194,83448,1,0,0:0:0:0:
136,263,83620,5,0,0:0:0:0:
71,48,83965,5,0,0:0:0:0:
161,113,84137,1,0,0:0:0:0:
268,69,84310,2,0,P|361:58|454:67,1,187.000005706787
509,165,84827,1,0,0:0:0:0:
509,165,84999,6,0,B|490:293|490:293|439:325,1,187.000005706787
385,224,85517,1,0,0:0:0:0:
385,224,85689,2,0,P|296:202|218:249,1,187.000005706787
127,316,86206,1,0,0:0:0:0:
127,316,86379,6,0,L|34:302,1,93.5000028533936
118,198,86724,5,0,0:0:0:0:
118,198,86896,1,0,0:0:0:0:
218,248,87068,2,0,P|237:289|239:336,1,93.5000028533936
328,268,87413,2,0,P|354:231|393:205,1,93.5000028533936
291,162,87758,6,0,L|201:135,3,93.5000028533936
162,30,88448,2,0,L|72:56,3,93.5000028533936
33,162,89137,5,0,0:0:0:0:
256,192,97413,12,0,99137,0:0:0:0:
422,122,99999,5,0,0:0:0:0:
323,95,100172,2,0,P|280:93|239:103,1,85
167,176,100517,2,0,P|186:213|215:244,1,85
316,271,100862,2,0,P|338:235|350:194,1,85
323,95,101206,6,0,P|240:95|189:31,1,170
32,163,101896,2,0,P|114:162|165:226,1,170
140,325,102413,1,0,0:0:0:0:
238,298,102586,1,0,0:0:0:0:
238,298,102758,6,0,L|407:319,1,170
497,366,103275,1,0,0:0:0:0:
492,162,103620,1,0,0:0:0:0:
405,216,103793,1,0,0:0:0:0:
316,167,103965,6,0,P|231:168|149:190,1,170
19,33,104655,2,0,P|103:31|185:9,1,170
259,80,105172,1,0,0:0:0:0:
259,80,105344,2,0,L|267:164,1,85
279,266,105689,5,0,0:0:0:0:
92,186,106034,1,0,0:0:0:0:
173,124,106206,1,0,0:0:0:0:
267,164,106379,2,0,P|309:163|350:154,1,85
432,92,106724,1,0,0:0:0:0:
445,193,106896,1,0,0:0:0:0:
363,253,107068,6,0,P|347:292|341:334,1,85
263,268,107413,2,0,P|223:252|181:246,1,85
143,340,107758,2,0,P|103:355|61:361,1,85
23,268,108103,1,0,0:0:0:0:
50,65,108448,5,0,0:0:0:0:
50,65,108793,2,0,L|219:79,1,170
306,132,109310,1,0,0:0:0:0:
306,132,109482,2,0,P|346:117|387:111,1,85
441,199,109827,2,0,P|433:240|417:280,1,85
298,234,110171,2,0,P|306:276|322:316,1,85
221,339,110517,2,0,L|178:334,3,42.5
155,288,110862,2,0,L|120:262,3,42.5
123,210,111206,6,0,P|131:107|206:177,2,255
334,330,113793,1,0,0:0:0:0:
334,330,113965,6,0,L|417:314,1,85
467,250,114482,2,0,P|467:207|449:169,1,85
380,127,114999,2,0,B|300:156|300:156|215:142,1,170
57,111,116034,1,0,0:0:0:0:
57,111,116379,1,0,0:0:0:0:
110,264,116724,6,0,L|193:278,1,85
263,320,117241,2,0,P|298:297|340:295,1,85
413,330,117758,2,0,B|435:293|434:249|434:249|399:222|357:215,1,170
208,152,118793,1,0,0:0:0:0:
208,152,119137,1,0,0:0:0:0:
77,247,119482,6,0,L|88:158,1,85
107,84,119999,2,0,P|136:53|174:35,1,85
255,38,120517,2,0,B|296:55|317:93|317:93|363:104|401:86,1,170
483,224,121551,1,0,0:0:0:0:
483,224,121896,1,0,0:0:0:0:
322,226,122241,6,0,P|262:257|228:315,1,136
265,156,122930,2,0,P|267:88|234:30,1,136
354,141,123620,2,0,P|410:176|478:177,1,136
322,226,124310,2,0,P|265:190|197:189,1,136
129,234,124827,1,0,0:0:0:0:
65,184,124999,6,0,L|49:48,1,136
213,54,125689,2,0,L|197:190,1,136
333,279,126379,2,0,L|317:143,1,136
480,137,127068,2,0,L|472:204,1,68
415,263,127413,2,0,L|423:331,1,68
346,358,127758,6,0,P|312:358|282:342,1,68
206,311,128103,2,0,P|223:282|252:264,1,68
317,213,128448,2,0,P|333:242|334:276,1,68
409,309,128793,6,0,P|438:293|472:292,1,68
505,218,129137,2,0,L|438:204,1,68
429,123,129482,2,0,L|364:144,1,68
315,78,129827,2,0,L|270:129,1,68
194,96,130172,2,0,L|180:162,1,68
256,192,130517,12,0,131896,0:0:0:0:
372,48,132586,5,0,0:0:0:0:
437,138,132758,1,0,0:0:0:0:
371,229,132930,1,0,0:0:0:0:
265,194,133103,1,0,0:0:0:0:
265,82,133275,6,0,B|205:67|205:67|146:88|146:88|85:74,2,187.000005706787
397,264,134310,1,0,0:0:0:0:
397,264,134482,1,0,0:0:0:0:
291,299,134655,6,0,B|245:313|245:313|111:277,2,187.000005706787
98,176,135689,1,0,0:0:0:0:
98,176,135862,1,0,0:0:0:0:
206,203,136034,6,0,L|295:175,1,93.5000028533936
385,107,136379,6,0,P|409:194|489:236,2,187.000005706787
495,124,137241,1,0,0:0:0:0:
489,236,137413,6,0,L|484:329,1,93.5000028533936
378,367,137758,2,0,L|373:273,1,93.5000028533936
267,236,138103,2,0,L|262:329,1,93.5000028533936
156,367,138448,6,0,P|111:304|188:299,1,187.000005706787
188,299,139137,6,0,L|192:205,1,93.5000028533936
99,141,139482,2,0,L|94:47,1,93.5000028533936
199,90,139827,1,0,0:0:0:0:
199,90,139999,1,0,0:0:0:0:
287,20,140172,6,0,P|333:14|379:20,1,93.5000028533936
483,62,140517,2,0,P|464:104|436:142,1,93.5000028533936
348,210,140862,2,0,P|320:172|301:129,1,93.5000028533936
236,220,141206,1,0,0:0:0:0:
236,220,141379,1,0,0:0:0:0:
130,185,141551,6,0,L|36:180,1,93.5000028533936
130,73,141896,6,0,L|316:63,2,187.000005706787
17,70,142758,1,0,0:0:0:0:
36,180,142930,6,0,B|48:253|36:333|36:333|112:348|189:344,1,305.999990661621
413,336,143965,5,0,0:0:0:0:
314,283,144137,1,0,0:0:0:0:
409,223,144310,6,0,P|442:136|427:45,1,187.000005706787
316,62,144827,1,0,0:0:0:0:
316,62,144999,2,0,B|237:66|166:55|166:55|188:85,1,187.000005706787
254,175,145517,1,0,0:0:0:0:
254,175,145689,6,0,P|243:265|169:318,1,187.000005706787
146,208,146206,1,0,0:0:0:0:
146,208,146379,2,0,B|145:159|107:126|107:126|61:146|48:193,1,187.000005706787
28,304,146896,1,0,0:0:0:0:
28,304,147068,6,0,L|121:313,1,93.5000028533936
229,284,147413,5,0,0:0:0:0:
326,338,147585,1,0,0:0:0:0:
434,308,147758,2,0,B|470:220|470:220|455:129,1,187.000005706787
432,19,148275,1,0,0:0:0:0:
432,19,148448,5,0,0:0:0:0:
299,200,148793,1,0,0:0:0:0:
118,67,149137,1,0,0:0:0:0:
93,290,149482,6,0,P|161:253|161:331,1,187.000005706787
161,331,149999,1,0,0:0:0:0:
161,331,150172,2,0,L|253:342,1,93.5000028533936
366,355,150517,5,0,0:0:0:0:
366,355,150689,1,0,0:0:0:0:
366,355,150862,2,0,L|355:263,1,93.5000028533936
340,151,151206,5,0,0:0:0:0:
340,151,151379,1,0,0:0:0:0:
340,151,151552,2,0,L|248:140,1,93.5000028533936
135,127,151897,5,0,0:0:0:0:
135,127,152069,1,0,0:0:0:0:
135,127,152242,2,0,L|146:219,1,93.5000028533936
161,331,152586,5,0,0:0:0:0:
161,331,152758,1,0,0:0:0:0:
161,331,152930,2,0,P|204:311|250:311,1,93.5000028533936
355,350,153275,2,0,P|401:350|443:330,1,93.5000028533936
501,234,153620,6,0,L|476:49,1,187.000005706787
475,48,154482,5,0,0:0:0:0:
475,48,154568,1,0,0:0:0:0:
475,48,154655,2,0,L|382:60,1,93.5000028533936
271,45,154999,2,0,L|178:57,1,93.5000028533936
67,42,155344,6,0,B|59:91|87:143|138:164|138:164|177:182|177:233|146:260|108:262|77:231,1,305.999990661621
270,275,156379,2,0,B|297:231|295:166|270:128|270:128|330:177|413:157|413:157|360:129|345:75|375:20,1,458.999985992432
451,73,157586,2,0,P|481:95|501:127,2,76.4999976654053
371,26,158103,6,0,P|333:32|295:33,1,76.4999976654053
207,61,158448,2,0,P|169:54|131:53,1,76.4999976654053
43,80,158793,2,0,P|36:117|34:155,1,76.4999976654053
65,242,159137,2,0,P|138:234|184:290,1,152.999995330811
251,355,159655,1,0,0:0:0:0:
251,355,159827,2,0,L|327:347,1,76.4999976654053
377,269,160172,2,0,L|300:261,1,76.4999976654053
251,183,160517,2,0,L|327:175,1,76.4999976654053
417,159,160862,6,0,B|403:28|403:28|326:75|234:48,1,305.999990661621
63,113,161896,2,0,B|145:100|205:153|205:153|168:302|168:302|228:356|312:348,1,458.999985992432
399,329,163103,2,0,P|437:326|475:327,2,76.4999976654053
308,348,163620,5,0,0:0:0:0:
372,176,163965,1,0,0:0:0:0:
221,281,164310,5,0,0:0:0:0:
190,100,164655,1,0,0:0:0:0:
112,266,164999,5,0,0:0:0:0:
112,266,165517,5,0,0:0:0:0:
112,266,165603,1,0,0:0:0:0:
112,266,165689,2,0,L|187:252,1,76.4999976654053
278,269,166034,2,0,L|353:255,1,76.4999976654053
444,272,166379,6,0,B|457:222|415:166|365:163|365:163|343:109|285:90|235:113,1,305.999990661621
86,217,167413,2,0,B|63:189|63:149|97:114|145:114|181:149|181:178|169:208|169:208|154:242|154:358|269:358|307:349,1,458.999985992432
392,317,168620,2,0,L|465:337,2,76.4999976654053
321,258,169137,6,0,P|313:220|320:183,1,76.4999976654053
395,129,169482,2,0,P|402:91|395:54,1,76.4999976654053
311,91,169827,1,0,0:0:0:0:
237,36,169999,1,0,0:0:0:0:
152,72,170172,2,0,B|113:77|77:61|77:61|70:98|36:122,1,152.999995330811
120,158,170689,1,0,0:0:0:0:
120,158,170862,2,0,P|128:195|130:233,1,76.4999976654053
169,316,171206,2,0,P|197:290|229:269,1,76.4999976654053
282,195,171551,2,0,P|245:183|211:166,1,76.4999976654053
279,103,171896,6,0,B|348:104|401:160|383:244|330:275|330:275|301:293|291:326,1,305.999990661621
202,162,172930,2,0,B|171:120|178:58|222:26|222:26|180:57|118:50|86:6|86:6|117:48|110:110|66:144,1,458.999985992432
126,214,174137,2,0,L|117:290,2,76.4999976654053
256,192,174655,12,0,177413,0:0:0:0:
