osu file format v14

[General]
AudioFilename: audio.mp3
AudioLeadIn: 0
PreviewTime: 51957
Countdown: 1
SampleSet: None
StackLeniency: 0.7
Mode: 0
LetterboxInBreaks: 0
WidescreenStoryboard: 1

[Editor]
DistanceSpacing: 1
BeatDivisor: 2
GridSize: 4
TimelineZoom: 1

[Metadata]
Title:Fly Away feat. Anjulie
TitleUnicode:Fly Away feat. Anjulie
Artist:TheFatRat
ArtistUnicode:TheFatRat
Creator:Vepr_Ace
Version:Normal
Source:
Tags:TheFatRat
BeatmapID:1310523
BeatmapSetID:621524

[Difficulty]
HPDrainRate:4
CircleSize:4
OverallDifficulty:4
ApproachRate:4
SliderMultiplier:1
SliderTickRate:1

[Events]
//Background and Video events
Video,0,"TheFatRat - Fly Away feat. Anjulie.mp4"
0,0,"6846e94b1b5943a58d384f8d5b8f33db.png",0,0
//Break Periods
2,78306,93002
2,172360,186650
//Storyboard Layer 0 (Background)
//Storyboard Layer 1 (Fail)
//Storyboard Layer 2 (Pass)
//Storyboard Layer 3 (Foreground)
//Storyboard Sound Samples

[TimingPoints]
-137.173667464079,405.405405405405,4,3,0,100,1,0
49727,-100,4,3,0,100,0,0
52160,-100,4,3,0,100,0,1
57024,-200,4,3,0,100,0,1
58038,-100,4,3,0,100,0,1
63511,-200,4,3,0,100,0,1
64727,-100,4,3,0,100,0,1
69997,-200,4,3,0,100,0,1
71619,-100,4,3,0,100,0,1
76484,-200,4,3,0,100,0,1
77700,-100,4,1,0,100,0,0
133241,-100,4,3,0,100,0,1
138106,-200,4,3,0,100,0,1
139727,-100,4,3,0,100,0,1
144592,-200,4,3,0,100,0,1
146011,-100,4,3,0,100,0,1
151079,-200,4,3,0,100,0,1
152700,-100,4,3,0,100,0,1
157565,-200,4,3,0,100,0,1
158984,-100,4,3,0,100,0,1
164052,-200,4,3,0,100,0,1
165065,-100,4,3,0,100,0,1
170538,-200,4,3,0,100,0,1
171552,-200,4,3,0,100,0,0

[Colours]
Combo1 : 81,139,236
Combo2 : 11,163,244
Combo3 : 20,203,235
Combo4 : 226,245,254
Combo5 : 232,226,254
Combo6 : 138,147,255

[HitObjects]
172,244,13241,5,0,1:1:0:0:
268,220,13646,1,0,1:1:0:0:
340,148,14052,1,0,1:1:0:0:
376,240,14457,2,0,B|284:272|284:272|188:232,1,200,0|0,1:1|1:1,1:1:0:0:
92,204,15673,5,0,1:1:0:0:
164,132,16079,1,0,1:1:0:0:
260,160,16484,1,0,1:1:0:0:
244,260,16889,1,0,1:1:0:0:
328,208,17295,1,0,1:1:0:0:
292,300,17700,6,0,P|392:276|416:172,1,200,0|0,1:1|1:1,1:1:0:0:
340,136,18916,1,0,1:1:0:0:
240,140,19322,1,0,1:1:0:0:
292,224,19727,1,0,1:1:0:0:
384,184,20133,1,0,1:1:0:0:
312,112,20538,1,0,1:1:0:0:
284,208,20943,6,0,B|380:192|380:192|412:80,1,200,0|0,1:1|1:1,1:1:0:0:
316,132,22160,1,0,1:1:0:0:
276,224,22565,1,0,1:1:0:0:
204,296,22970,1,0,1:1:0:0:
108,268,23376,1,0,1:1:0:0:
80,172,23781,1,0,1:1:0:0:
180,192,24187,6,0,P|248:116|332:156,1,200,0|0,1:1|1:1,1:1:0:0:
392,224,25403,1,0,1:1:0:0:
336,308,25808,1,0,1:1:0:0:
376,216,26214,1,0,1:1:0:0:
320,132,26619,1,0,1:1:0:0:
256,208,27024,1,0,1:1:0:0:
176,268,27430,6,0,P|232:316|324:236,1,200,0|0,1:1|1:1,1:1:0:0:
376,168,28646,1,0,1:1:0:0:
280,192,29052,1,0,1:1:0:0:
276,92,29457,2,0,B|252:52|252:52|192:64,1,100,0|0,1:1|1:1,1:1:0:0:
244,152,30268,1,0,1:1:0:0:
188,232,30673,6,0,B|272:244|272:244|356:144,1,200,0|0,1:1|1:1,1:1:0:0:
412,232,31889,1,0,1:1:0:0:
352,312,32295,1,0,1:1:0:0:
252,328,32700,1,0,1:1:0:0:
156,300,33106,1,0,1:1:0:0:
104,216,33511,1,0,1:1:0:0:
204,232,33916,6,0,B|276:240|300:196|208:92,1,200,0|0,1:1|1:1,1:1:0:0:
112,108,35133,1,0,1:1:0:0:
124,208,35538,1,0,1:1:0:0:
192,284,35943,1,0,1:1:0:0:
288,256,36349,1,0,1:1:0:0:
276,156,36754,1,0,1:1:0:0:
176,148,37160,6,0,B|180:244|180:244|296:284,1,200,0|0,1:1|1:1,1:1:0:0:
336,196,38376,1,0,1:1:0:0:
272,272,38781,1,0,1:1:0:0:
356,328,39187,6,0,L|440:268,1,100,0|0,3:3|3:3,3:3:0:0:
364,204,39997,2,2,L|252:160,1,100,2|2,3:0|3:0,3:0:0:0:
172,164,40808,6,0,L|232:276,1,100,0|0,3:3|3:3,3:3:0:0:
320,252,41619,2,2,L|276:124,1,100,2|2,3:0|3:0,3:0:0:0:
232,76,42430,2,0,L|128:160,1,100,0|0,3:0|3:0,3:0:0:0:
80,204,43241,2,2,L|188:304,1,100,2|2,3:0|3:0,3:0:0:0:
252,248,44052,2,0,L|360:208,1,100,0|0,3:0|3:0,3:0:0:0:
312,120,44862,2,2,L|200:184,1,100,2|2,3:0|3:0,3:0:0:0:
184,260,45673,2,0,L|328:224,1,100,0|0,3:3|3:3,3:3:0:0:
380,216,46484,2,2,L|368:96,1,100,2|2,3:0|3:0,3:0:0:0:
300,44,47295,6,0,L|168:72,1,100,0|0,3:3|3:3,3:3:0:0:
284,120,48106,2,0,P|400:240|232:256,1,400,0|0,3:3|3:3,3:3:0:0:
120,92,52160,1,0,3:3:0:0:
88,188,52565,2,0,P|172:240|300:212,1,200,0|0,3:3|3:3,3:3:0:0:
192,164,53781,1,0,3:3:0:0:
188,64,54187,2,0,P|296:104|344:204,1,200,0|0,3:3|3:3,3:3:0:0:
272,248,55403,1,0,3:3:0:0:
348,316,55808,2,0,P|228:324|148:236,1,200,0|0,3:3|3:3,3:3:0:0:
128,252,57024,6,0,B|128:188|66:177|70:137,1,125,0|0,3:3|3:3,3:3:0:0:
188,48,58646,1,0,3:3:0:0:
280,84,59052,2,0,P|324:168|256:260,1,200,0|0,3:3|3:3,3:3:0:0:
228,164,60268,1,0,3:3:0:0:
192,240,60673,6,0,P|128:140|176:52,1,200,0|0,3:3|3:3,3:3:0:0:
252,96,61889,1,0,3:3:0:0:
164,140,62295,6,0,L|368:252,1,200,0|0,3:3|3:3,3:3:0:0:
339,236,63511,2,0,B|315:244|315:244|291:268|291:268|251:260|243:220|211:204,1,150,0|0,3:3|3:3,3:3:0:0:
160,136,65133,1,0,3:3:0:0:
68,172,65538,2,0,P|156:220|288:188,1,200,0|0,3:3|3:3,3:3:0:0:
348,184,66754,5,0,3:3:0:0:
256,144,67160,2,0,P|176:148|64:256,1,200,0|0,3:3|3:3,3:3:0:0:
160,284,68376,5,0,3:3:0:0:
244,336,68781,2,0,P|216:224|244:124,1,200,0|0,3:3|3:3,3:3:0:0:
280,120,69997,6,0,B|384:128|308:196|364:212|452:232,1,200,0|0,3:3|3:3,3:3:0:0:
416,128,72024,2,0,P|320:72|212:84,1,200,0|0,3:3|3:3,3:3:0:0:
136,96,73241,1,0,3:3:0:0:
80,180,73646,2,0,P|180:176|292:136,1,200,0|0,3:3|3:3,3:3:0:0:
364,188,74862,5,0,3:3:0:0:
304,268,75268,2,0,P|212:220|204:92,1,200,0|0,3:3|3:3,3:3:0:0:
232,108,76484,6,0,B|316:164|280:208|324:244,1,150,0|0,3:3|3:3,3:3:0:0:
212,228,78106,1,0,3:3:0:0:
212,228,94322,5,0,1:1:0:0:
128,176,94727,1,0,1:1:0:0:
168,84,95133,1,0,1:1:0:0:
208,176,95538,6,0,B|272:160|272:160|296:196|384:244,1,200,0|0,1:1|1:1,1:1:0:0:
377,240,97160,1,0,1:1:0:0:
296,300,97565,6,0,P|264:256|204:256,1,100,0|0,1:1|1:1,1:1:0:0:
144,316,98376,1,0,1:1:0:0:
124,216,98781,2,0,B|184:160|184:160|224:188|308:148,1,200,0|0,1:1|1:1,1:1:0:0:
184,320,100403,1,0,1:1:0:0:
228,224,100808,2,0,L|352:188,1,100,0|0,1:1|1:1,1:1:0:0:
352,100,101619,1,0,1:1:0:0:
252,120,102024,6,0,B|192:64|192:64|112:60|112:60|96:112|96:156,1,250,0|0,1:1|1:1,1:1:0:0:
240,196,103646,1,0,1:1:0:0:
324,252,104052,2,0,P|288:296|208:292,1,100,0|0,1:1|1:1,1:1:0:0:
160,256,104862,1,0,1:1:0:0:
76,200,105268,6,0,B|120:156|120:156|172:176|196:152,1,100,0|0,1:1|1:1,1:1:0:0:
252,136,106079,1,0,1:1:0:0:
368,296,106889,1,0,1:1:0:0:
268,296,107295,1,0,1:1:0:0:
200,224,107700,1,0,1:1:0:0:
248,136,108106,1,0,1:1:0:0:
156,172,108511,6,0,B|216:204|216:204|240:184|388:204,1,200,0|0,1:1|1:1,1:1:0:0:
476,48,110133,1,0,1:1:0:0:
384,88,110538,1,0,1:1:0:0:
352,184,110943,1,0,1:1:0:0:
296,268,111349,1,0,1:1:0:0:
188,296,111754,6,0,B|228:352|316:336|316:336|280:252,1,200,0|0,1:1|1:1,1:1:0:0:
156,136,113376,1,0,1:1:0:0:
252,164,113781,1,0,1:1:0:0:
244,264,114187,1,0,1:1:0:0:
152,308,114592,1,0,1:1:0:0:
192,216,114997,6,0,B|188:156|188:156|120:172|60:84,1,200,0|0,1:1|1:1,1:1:0:0:
272,88,116619,1,0,1:1:0:0:
328,172,117024,1,0,1:1:0:0:
256,240,117430,1,0,1:1:0:0:
316,320,117835,1,0,1:1:0:0:
224,276,118241,6,0,B|264:244|264:244|308:272|336:136,1,200,0|0,1:1|1:1,1:1:0:0:
88,304,120268,2,0,P|124:256|116:176,1,100,0|0,3:3|3:3,3:3:0:0:
72,112,121079,6,2,P|116:72|196:52,1,100,2|2,3:3|3:3,3:3:0:0:
152,156,121889,6,0,P|196:212|260:232,1,100,0|0,3:3|3:3,3:3:0:0:
244,128,122700,2,2,P|272:84|352:56,1,100,2|2,3:3|3:3,3:3:0:0:
364,148,123511,2,0,P|372:208|328:248,1,100,0|0,3:3|3:3,3:3:0:0:
272,172,124322,6,2,P|236:212|176:216,1,100,2|2,3:3|3:3,3:3:0:0:
92,216,125133,6,0,P|96:272|164:320,1,100,0|0,3:3|3:3,3:3:0:0:
168,216,125943,6,2,P|236:196|292:232,1,100,2|2,3:3|3:3,3:3:0:0:
304,112,126754,2,0,P|352:152|352:216,1,100,0|0,3:3|3:3,3:3:0:0:
344,284,127565,2,2,P|300:312|224:300,1,100,2|2,3:3|3:3,3:3:0:0:
280,216,128376,6,0,P|228:180|156:192,1,100,0|0,3:3|3:3,3:3:0:0:
112,236,129187,2,2,B|124:228|124:228|204:288,1,100,2|2,3:3|3:3,3:3:0:0:
256,192,129997,12,0,132835,3:3:0:0:
256,192,133241,5,0,3:3:0:0:
268,292,133646,2,0,P|300:248|372:228,1,100,0|0,3:3|3:3,3:3:0:0:
376,140,134457,1,0,3:3:0:0:
276,120,134862,6,0,P|232:152|148:152,1,100,0|0,3:3|3:3,3:3:0:0:
88,144,135673,1,0,3:3:0:0:
64,240,136079,2,0,P|120:264|188:236,1,100,0|0,3:3|3:3,3:3:0:0:
196,164,136889,1,0,3:3:0:0:
296,164,137295,6,0,P|296:212|224:272,1,100,0|0,3:3|3:3,3:3:0:0:
280,304,138106,2,0,B|312:264|348:312|348:312|392:304|389:203,1,200,0|0,3:3|3:3,3:3:0:0:
328,136,140133,2,0,P|268:108|220:124,1,100,0|0,3:3|3:3,3:3:0:0:
160,180,140943,1,0,3:3:0:0:
232,252,141349,6,0,P|184:288|120:272,1,100,0|0,3:3|3:3,3:3:0:0:
92,204,142160,1,0,3:3:0:0:
32,124,142565,2,0,P|92:80|156:88,1,100,0|0,3:3|3:3,3:3:0:0:
156,168,143376,1,0,3:3:0:0:
96,248,143781,2,0,P|152:272|216:244,1,100,0|0,3:3|3:3,3:3:0:0:
220,304,144592,2,0,B|324:296|296:268|296:268|272:236|336:212,1,175,0|0,3:3|3:3,3:3:0:0:
440,116,146619,6,0,P|384:104|300:128,1,100,0|0,3:3|3:3,3:3:0:0:
404,188,147430,1,0,3:3:0:0:
484,248,147835,6,0,P|440:276|348:264,1,100,0|0,3:3|3:3,3:3:0:0:
292,268,148646,1,0,3:3:0:0:
208,216,149052,2,0,P|272:168|336:164,1,100,0|0,3:3|3:3,3:3:0:0:
364,228,149862,1,0,3:3:0:0:
404,136,150268,2,0,P|364:96|284:84,1,100,0|0,3:3|3:3,3:3:0:0:
276,100,151079,2,0,B|332:204|216:196|236:276,1,175,0|0,3:3|3:3,3:3:0:0:
84,260,153106,6,0,P|104:168|136:132,1,100,0|0,3:3|3:3,3:3:0:0:
192,116,153916,1,0,3:3:0:0:
268,180,154322,6,0,P|204:200|184:244,1,100,0|0,3:3|3:3,3:3:0:0:
228,316,155133,1,0,3:3:0:0:
128,316,155538,6,0,P|96:256|112:212,1,100,0|0,3:3|3:3,3:3:0:0:
168,152,156349,1,0,3:3:0:0:
180,252,156754,2,0,L|296:312,1,100,0|0,3:3|3:3,3:3:0:0:
320,292,157565,2,0,B|348:236|272:152|276:136,1,150,0|0,3:3|3:3,3:3:0:0:
372,108,159187,1,0,3:3:0:0:
280,72,159592,1,0,3:3:0:0:
352,140,159997,6,0,P|320:180|248:188,1,100,0|0,3:3|3:3,3:3:0:0:
184,148,160808,1,0,3:3:0:0:
88,116,161214,2,0,P|92:108|196:96,2,100,0|0|0,3:3|3:3|3:3,3:3:0:0:
88,216,162430,1,0,3:3:0:0:
168,272,162835,1,0,3:3:0:0:
176,172,163241,2,0,P|232:200|260:272,1,100,0|0,3:3|3:3,3:3:0:0:
296,208,164052,2,0,B|336:180|336:180|320:232|364:256,1,125,0|0,3:3|3:3,3:3:0:0:
216,312,165673,2,0,L|140:216,1,100,0|0,3:3|3:3,3:3:0:0:
80,168,166484,1,0,3:3:0:0:
128,80,166889,1,0,3:3:0:0:
180,164,167295,1,0,3:3:0:0:
88,120,167700,1,0,3:3:0:0:
16,188,168106,2,0,P|60:216|148:204,1,100,0|0,3:3|3:3,3:3:0:0:
148,128,168916,1,0,3:3:0:0:
152,28,169322,2,0,P|204:56|244:120,1,100,0|0,3:3|3:3,3:3:0:0:
304,152,170133,1,0,3:3:0:0:
324,200,170538,2,0,B|348:228|348:228|260:256|280:288,1,125,0|0,3:3|3:3,3:3:0:0:
200,284,172160,1,0,3:3:0:0:
256,192,187970,12,0,191214,3:3:0:0:
