osu file format v14

[General]
AudioFilename: audio.mp3
AudioLeadIn: 0
PreviewTime: 51957
Countdown: 1
SampleSet: Normal
StackLeniency: 0.7
Mode: 0
LetterboxInBreaks: 0
WidescreenStoryboard: 1

[Editor]
DistanceSpacing: 2.5
BeatDivisor: 2
GridSize: 4
TimelineZoom: 1

[Metadata]
Title:Fly Away feat. Anjulie
TitleUnicode:Fly Away feat. Anjulie
Artist:TheFatRat
ArtistUnicode:TheFatRat
Creator:Vepr_Ace
Version:Insane
Source:
Tags:TheFatRat
BeatmapID:1310594
BeatmapSetID:621524

[Difficulty]
HPDrainRate:6
CircleSize:4
OverallDifficulty:8
ApproachRate:9
SliderMultiplier:1.5
SliderTickRate:1

[Events]
//Background and Video events
Video,0,"TheFatRat - Fly Away feat. Anjulie.mp4"
0,0,"6846e94b1b5943a58d384f8d5b8f33db.png",0,0
//Break Periods
2,78306,93572
2,172360,186410
//Storyboard Layer 0 (Background)
//Storyboard Layer 1 (Fail)
//Storyboard Layer 2 (Pass)
//Storyboard Layer 3 (Foreground)
//Storyboard Sound Samples

[TimingPoints]
-137.173667464079,405.405405405405,4,3,0,100,1,0
49727,-83.3333333333333,4,3,0,100,0,0
52160,-76.9230769230769,4,3,0,100,0,1
57024,-200,4,3,0,100,0,1
58038,-76.9230769230769,4,3,0,100,0,1
63511,-200,4,3,0,100,0,1
64727,-76.9230769230769,4,3,0,100,0,1
69997,-200,4,3,0,100,0,1
71619,-76.9230769230769,4,3,0,100,0,1
76484,-200,4,3,0,100,0,1
77700,-100,4,1,0,100,0,0
133241,-71.4285714285714,4,3,0,100,0,1
138106,-200,4,3,0,100,0,1
139727,-71.4285714285714,4,3,0,100,0,1
144592,-200,4,3,0,100,0,1
146011,-71.4285714285714,4,3,0,100,0,1
151079,-200,4,3,0,100,0,1
152700,-71.4285714285714,4,3,0,100,0,1
157565,-200,4,3,0,100,0,1
158984,-71.4285714285714,4,3,0,100,0,1
164052,-200,4,3,0,100,0,1
165065,-71.4285714285714,4,3,0,100,0,1
170538,-200,4,3,0,100,0,1
171552,-200,4,3,0,100,0,0

[Colours]
Combo1 : 81,139,236
Combo2 : 11,163,244
Combo3 : 20,203,235
Combo4 : 226,245,254
Combo5 : 232,226,254
Combo6 : 138,147,255

[HitObjects]
116,76,13241,5,0,2:2:0:0:
184,252,13443,1,0,2:2:0:0:
344,152,13646,1,0,2:2:0:0:
176,68,13849,1,0,2:2:0:0:
244,244,14052,1,0,2:2:0:0:
68,136,14457,6,0,P|176:80|188:88,1,150,0|0,2:2|2:2,2:2:0:0:
456,152,15268,1,0,2:2:0:0:
112,296,15673,1,0,2:2:0:0:
392,48,16079,1,0,2:2:0:0:
352,236,16484,5,0,2:2:0:0:
232,92,16687,1,0,2:2:0:0:
68,236,16889,1,0,2:2:0:0:
240,312,17092,1,0,2:2:0:0:
188,132,17295,1,0,2:2:0:0:
468,200,17700,6,0,P|424:256|352:220,1,150,0|0,2:2|2:2,2:2:0:0:
36,72,18714,1,0,2:2:0:0:
408,124,19119,1,0,2:2:0:0:
104,200,19524,1,0,2:2:0:0:
104,200,19626,1,0,2:2:0:0:
104,200,19727,1,0,2:2:0:0:
288,160,19930,1,0,2:2:0:0:
164,20,20133,6,0,P|244:28|288:100,1,150,0|0,2:2|2:2,2:2:0:0:
0,200,20943,2,0,P|88:252|144:232,1,150,0|0,2:2|2:2,2:2:0:0:
500,300,21754,1,0,2:2:0:0:
228,64,22362,1,0,2:2:0:0:
348,352,22768,1,0,2:2:0:0:
360,164,22970,6,0,P|291:202|276:328,1,150,0|0,2:2|2:2,2:2:0:0:
148,116,23579,1,0,2:2:0:0:
264,264,23781,1,0,2:2:0:0:
408,192,24187,2,0,P|408:128|324:120,1,150,0|0,2:2|2:2,2:2:0:0:
335,111,24997,5,0,2:2:0:0:
148,80,25200,1,0,2:2:0:0:
468,280,25606,1,0,2:2:0:0:
468,280,25707,1,0,2:2:0:0:
468,280,25808,1,0,2:2:0:0:
304,184,26011,1,0,2:2:0:0:
120,140,26214,6,0,L|220:72,1,75,0|0,1:1|1:1,1:1:0:0:
368,60,26619,2,0,L|296:116,1,75,0|0,1:1|1:1,1:1:0:0:
272,292,27024,1,0,1:1:0:0:
368,60,27430,1,0,1:1:0:0:
140,356,27835,6,0,P|116:260|160:172,1,150,0|0,1:1|1:1,1:1:0:0:
129,213,28646,1,0,1:1:0:0:
328,68,29052,1,0,1:1:0:0:
328,68,29457,6,0,L|328:156,1,75,0|0,1:1|1:1,1:1:0:0:
204,284,29862,2,0,L|204:136,1,75,0|0,1:1|1:1,1:1:0:0:
340,80,30268,2,0,L|208:32,1,75,0|0,1:1|1:1,1:1:0:0:
192,228,30673,1,0,1:1:0:0:
368,320,31079,1,0,1:1:0:0:
84,76,31484,1,0,1:1:0:0:
152,252,31687,1,0,1:1:0:0:
260,40,32092,1,0,1:1:0:0:
224,296,32497,5,0,1:1:0:0:
224,296,32599,1,0,1:1:0:0:
224,296,32700,1,0,1:1:0:0:
280,116,32903,1,0,1:1:0:0:
108,188,33106,2,0,L|180:88,1,75,0|0,1:1|1:1,1:1:0:0:
220,300,33511,1,0,1:1:0:0:
220,300,33916,1,0,1:1:0:0:
224,52,34322,2,0,B|328:28|392:68,1,150,0|0,1:1|1:1,1:1:0:0:
24,240,35335,5,0,1:1:0:0:
396,180,35741,1,0,1:1:0:0:
228,100,35943,2,0,L|340:84,1,75,0|0,1:1|1:1,1:1:0:0:
176,228,36349,2,0,L|224:152,1,75,0|0,1:1|1:1,1:1:0:0:
236,352,36754,2,0,L|212:236,1,75,0|0,1:1|1:1,1:1:0:0:
220,278,37160,1,0,1:1:0:0:
380,60,37565,1,0,1:1:0:0:
64,264,37970,1,0,1:1:0:0:
160,104,38173,5,0,1:1:0:0:
424,108,38579,1,0,1:1:0:0:
388,196,38680,1,0,1:1:0:0:
308,240,38781,1,0,1:1:0:0:
196,88,38984,5,0,3:3:0:0:
308,240,39187,1,0,3:3:0:0:
408,80,39389,1,0,3:3:0:0:
224,108,39592,1,0,3:3:0:0:
340,256,39795,1,0,3:3:0:0:
308,72,39997,1,0,3:3:0:0:
176,204,40200,5,0,3:3:0:0:
56,60,40403,1,0,3:3:0:0:
176,204,40606,1,0,3:3:0:0:
352,136,40808,1,0,3:3:0:0:
224,272,41011,1,0,3:3:0:0:
352,136,41214,1,0,3:3:0:0:
168,104,41416,1,0,3:3:0:0:
168,104,41619,6,0,P|260:104|296:160,1,150,0|0,3:3|3:3,3:3:0:0:
112,200,42227,1,0,3:3:0:0:
291,144,42430,1,0,3:3:0:0:
112,84,42633,1,0,3:3:0:0:
224,232,42835,1,0,3:3:0:0:
324,72,43038,1,0,3:3:0:0:
224,232,43241,1,0,3:3:0:0:
368,112,43443,5,0,3:3:0:0:
184,64,43646,1,0,3:3:0:0:
276,228,43849,1,0,3:3:0:0:
188,60,44052,1,0,3:3:0:0:
136,240,44254,1,0,3:3:0:0:
288,128,44457,1,0,3:3:0:0:
420,260,44660,1,0,3:3:0:0:
232,272,44862,6,0,P|316:284|332:224,1,150,0|0,3:3|3:3,3:3:0:0:
334,235,45470,1,0,3:3:0:0:
212,92,45673,1,0,3:3:0:0:
128,260,45876,1,0,3:3:0:0:
212,92,46079,1,0,3:3:0:0:
432,244,46484,1,0,3:3:0:0:
336,84,46687,1,0,3:3:0:0:
216,228,46889,1,0,3:3:0:0:
216,228,47295,5,0,3:3:0:0:
96,84,47497,1,0,3:3:0:0:
272,148,47700,1,0,3:3:0:0:
136,276,47903,1,0,3:3:0:0:
324,272,48106,1,0,3:3:0:0:
324,272,48511,1,0,3:3:0:0:
324,272,48916,1,0,3:3:0:0:
256,192,49322,12,0,51146,0:0:0:0:
88,236,52160,5,0,3:3:0:0:
88,236,52565,2,0,P|156:196|304:232,1,194.999991073609,0|0,3:3|3:3,3:3:0:0:
268,206,53376,5,0,3:3:0:0:
492,108,53579,1,0,3:3:0:0:
252,88,53781,1,0,3:3:0:0:
380,296,53984,1,0,3:3:0:0:
135,296,54187,6,0,P|100:240|172:160,1,97.4999955368044,0|0,3:3|3:3,3:3:0:0:
136,296,54592,2,0,L|212:208,1,97.4999955368044,0|0,3:3|3:3,3:3:0:0:
400,84,54997,2,0,L|312:124,1,97.4999955368044,0|0,3:3|3:3,3:3:0:0:
68,100,55403,1,0,3:3:0:0:
300,172,55606,1,0,3:3:0:0:
120,220,55808,6,0,P|168:248|236:232,1,97.4999955368044,0|0,3:3|3:3,3:3:0:0:
204,244,56214,2,0,P|264:236|288:176,1,97.4999955368044,0|0,3:3|3:3,3:3:0:0:
284,209,56619,2,0,L|204:124,1,97.4999955368044,0|0,3:3|3:3,3:3:0:0:
212,232,57024,2,0,B|164:244|136:172|136:172|32:156,1,187.5,0|0,3:3|3:3,3:3:0:0:
56,159,58241,5,0,3:3:0:0:
276,268,58443,1,0,3:3:0:0:
396,56,58646,1,0,3:3:0:0:
188,184,58849,1,0,3:3:0:0:
188,188,59052,6,0,P|184:116|244:52,1,97.4999955368044,0|0,3:3|3:3,3:3:0:0:
193,94,59457,2,0,P|249:106|285:170,1,97.4999955368044,0|0,3:3|3:3,3:3:0:0:
64,256,59862,2,0,P|112:260|212:188,1,97.4999955368044,0|0,3:3|3:3,3:3:0:0:
158,245,60268,1,0,3:3:0:0:
288,40,60470,1,0,3:3:0:0:
158,245,60673,2,0,P|202:277|266:261,1,97.4999955368044,0|0,3:3|3:3,3:3:0:0:
112,68,61079,2,0,P|172:100|216:188,1,97.4999955368044,0|0,3:3|3:3,3:3:0:0:
328,324,61484,2,0,P|260:292|232:232,1,97.4999955368044,0|0,3:3|3:3,3:3:0:0:
247,275,61889,5,0,3:3:0:0:
348,52,62092,1,0,3:3:0:0:
348,48,62295,2,0,L|216:44,1,97.4999955368044,0|0,3:3|3:3,3:3:0:0:
340,272,62700,2,0,P|279:207|284:120,1,97.4999955368044,0|0,3:3|3:3,3:3:0:0:
56,92,63106,2,0,P|120:92|164:164,1,97.4999955368044,0|0,3:3|3:3,3:3:0:0:
132,204,63511,2,0,B|184:252|248:196|248:196|232:152|232:152|304:144,1,225,0|0,3:3|3:3,3:3:0:0:
279,146,64930,5,0,3:3:0:0:
60,256,65133,1,0,3:3:0:0:
228,80,65335,1,0,3:3:0:0:
128,304,65538,2,0,P|180:312|248:284,1,97.4999955368044,0|0,3:3|3:3,3:3:0:0:
44,132,65943,2,0,P|92:120|163:160,1,97.4999955368044,0|0,3:3|3:3,3:3:0:0:
332,280,66349,2,0,P|376:252|376:184,1,97.4999955368044,0|0,3:3|3:3,3:3:0:0:
385,210,66754,5,0,3:3:0:0:
156,300,66957,1,0,3:3:0:0:
304,108,67160,2,0,P|285:168|188:208,1,97.4999955368044,0|0,3:3|3:3,3:3:0:0:
44,304,67565,2,0,P|100:328|164:284,1,97.4999955368044,0|0,3:3|3:3,3:3:0:0:
188,80,67970,2,0,P|248:100|268:200,1,97.4999955368044,0|0,3:3|3:3,3:3:0:0:
436,304,68376,5,0,3:3:0:0:
192,280,68579,1,0,3:3:0:0:
360,104,68781,2,0,P|292:96|188:144,1,97.4999955368044,0|0,3:3|3:3,3:3:0:0:
64,244,69187,2,0,P|132:212|204:236,1,97.4999955368044,0|0,3:3|3:3,3:3:0:0:
152,216,69592,2,0,P|188:248|271:226,1,97.4999955368044,0|0,3:3|3:3,3:3:0:0:
212,160,69997,2,0,B|256:160|256:160|308:184|308:184|356:224|400:168|400:168|316:88,1,300,0|0,3:3|3:3,3:3:0:0:
334,105,71822,5,0,3:3:0:0:
92,112,72024,2,0,P|140:88|216:124,1,97.4999955368044,0|0,3:3|3:3,3:3:0:0:
344,280,72430,2,0,P|300:244|288:180,1,97.4999955368044,0|0,3:3|3:3,3:3:0:0:
384,184,72835,2,0,P|368:124|296:92,1,97.4999955368044,0|0,3:3|3:3,3:3:0:0:
124,212,73241,5,0,3:3:0:0:
340,100,73443,1,0,3:3:0:0:
296,340,73646,2,0,P|248:288|256:236,1,97.4999955368044,0|0,3:3|3:3,3:3:0:0:
56,112,74052,2,0,P|120:108|188:164,1,97.4999955368044,0|0,3:3|3:3,3:3:0:0:
392,108,74457,2,0,P|320:96|304:164,1,97.4999955368044,0|0,3:3|3:3,3:3:0:0:
308,107,74862,5,0,3:3:0:0:
176,312,75065,1,0,3:3:0:0:
128,72,75268,2,0,P|176:116|228:92,1,97.4999955368044,0|0,3:3|3:3,3:3:0:0:
424,212,75673,2,0,P|364:220|320:180,1,97.4999955368044,0|0,3:3|3:3,3:3:0:0:
100,276,76079,2,0,P|144:304|188:280,1,97.4999955368044,0|0,3:3|3:3,3:3:0:0:
232,208,76484,2,0,B|148:176|92:208|92:208|60:264|60:264|12:268,1,225,0|0,3:3|3:3,3:3:0:0:
44,265,77903,1,0,3:3:0:0:
224,208,78106,1,0,3:3:0:0:
152,124,94322,5,0,2:2:0:0:
276,264,94524,1,0,2:2:0:0:
348,92,94727,1,0,2:2:0:0:
192,196,94930,1,0,2:2:0:0:
376,224,95133,1,0,2:2:0:0:
8,160,95538,6,0,P|84:244|156:260,1,150,0|0,2:2|2:2,2:2:0:0:
115,255,96349,1,0,2:2:0:0:
392,96,97160,1,0,2:2:0:0:
68,280,97565,1,0,2:2:0:0:
172,124,97768,1,0,2:2:0:0:
168,312,97970,1,0,2:2:0:0:
56,160,98173,1,0,2:2:0:0:
240,188,98376,1,0,2:2:0:0:
240,188,98781,6,0,P|348:220|348:240,1,150,0|0,2:2|2:2,2:2:0:0:
348,229,99592,1,0,2:2:0:0:
96,92,100403,1,0,2:2:0:0:
412,292,100808,1,0,2:2:0:0:
300,144,101011,1,0,2:2:0:0:
172,284,101214,1,0,2:2:0:0:
352,236,101416,1,0,2:2:0:0:
232,92,101619,1,0,2:2:0:0:
232,96,102024,6,0,P|320:48|360:124,1,150,0|0,2:2|2:2,2:2:0:0:
8,224,102835,1,0,2:2:0:0:
416,88,103646,1,0,2:2:0:0:
44,148,104052,1,0,2:2:0:0:
224,108,104254,1,0,2:2:0:0:
108,256,104457,1,0,2:2:0:0:
276,172,104660,1,0,2:2:0:0:
92,128,104862,1,0,2:2:0:0:
440,276,105268,6,0,P|436:184|352:148,1,150,0|0,2:2|2:2,2:2:0:0:
394,152,106079,1,0,2:2:0:0:
236,304,106889,1,0,2:2:0:0:
352,72,107295,1,0,2:2:0:0:
168,108,107497,1,0,2:2:0:0:
328,208,107700,1,0,2:2:0:0:
248,36,107903,1,0,2:2:0:0:
184,212,108106,1,0,2:2:0:0:
328,248,108511,6,0,P|232:244|176:200,1,150,0|0,2:2|2:2,2:2:0:0:
328,248,109322,1,0,2:2:0:0:
372,100,110133,1,0,2:2:0:0:
64,312,110538,1,0,2:2:0:0:
152,144,110741,1,0,2:2:0:0:
280,280,110943,1,0,2:2:0:0:
372,116,111146,1,0,2:2:0:0:
184,108,111349,1,0,2:2:0:0:
184,112,111754,6,0,P|257:172|348:156,1,150,0|0,2:2|2:2,2:2:0:0:
308,172,112565,1,0,2:2:0:0:
308,172,113376,1,0,2:2:0:0:
408,272,113781,1,0,2:2:0:0:
356,92,113984,1,0,2:2:0:0:
248,244,114187,1,0,2:2:0:0:
64,276,114389,1,0,2:2:0:0:
180,128,114592,1,0,2:2:0:0:
180,128,114997,6,0,P|244:80|344:132,1,150,0|0,2:2|2:2,2:2:0:0:
308,91,115808,1,0,2:2:0:0:
308,91,116619,1,0,2:2:0:0:
388,284,117024,1,0,2:2:0:0:
284,128,117227,1,0,2:2:0:0:
188,288,117430,1,0,2:2:0:0:
360,216,117633,1,0,2:2:0:0:
188,144,117835,1,0,2:2:0:0:
360,216,118241,6,0,P|380:116|328:84,1,150,0|0,2:2|2:2,2:2:0:0:
352,91,119052,1,0,2:2:0:0:
352,91,119862,1,0,2:2:0:0:
180,324,120268,1,0,3:3:0:0:
340,224,120470,1,0,3:3:0:0:
164,156,120673,1,0,3:3:0:0:
288,296,120876,1,0,3:3:0:0:
288,108,121079,1,0,3:3:0:0:
288,108,121484,6,0,P|336:108|364:76,2,75,0|0|0,3:3|3:3|3:3,3:3:0:0:
132,216,122092,1,0,3:3:0:0:
288,108,122295,1,0,3:3:0:0:
104,248,122700,1,0,3:3:0:0:
296,216,122903,1,0,3:3:0:0:
164,84,123106,1,0,3:3:0:0:
64,292,123511,6,0,B|104:317|180:296|192:296,1,75,0|0,3:3|3:3,3:3:0:0:
112,116,123916,2,0,P|160:92|212:140,1,75,0|0,3:3|3:3,3:3:0:0:
236,276,124322,1,0,3:3:0:0:
236,276,124727,1,0,3:3:0:0:
392,168,124930,1,0,3:3:0:0:
204,160,125133,1,0,3:3:0:0:
340,288,125335,1,0,3:3:0:0:
288,108,125538,1,0,3:3:0:0:
288,108,125741,6,0,P|340:76|392:96,1,75,0|0,3:3|3:3,3:3:0:0:
351,76,126349,1,0,3:3:0:0:
20,248,126754,1,0,3:3:0:0:
148,108,126957,1,0,3:3:0:0:
112,292,127160,1,0,3:3:0:0:
404,56,127565,1,0,3:3:0:0:
216,56,127768,1,0,3:3:0:0:
384,136,127970,1,0,3:3:0:0:
48,304,128376,5,0,3:3:0:0:
52,116,128579,1,0,3:3:0:0:
228,56,128781,1,0,3:3:0:0:
216,244,128984,1,0,3:3:0:0:
340,104,129187,1,0,3:3:0:0:
340,104,129592,1,0,3:3:0:0:
340,104,129997,1,0,3:3:0:0:
256,192,130403,12,0,132430,3:3:0:0:
384,288,133241,5,0,0:0:0:0:
44,60,133646,2,0,P|108:44|164:92,1,104.999996795654
392,140,134052,2,0,P|420:192|356:248,1,104.999996795654
140,244,134457,2,0,P|148:192|192:136,1,104.999996795654
176,148,134862,5,0,0:0:0:0:
416,252,135065,1,0,0:0:0:0:
276,28,135268,2,0,P|274:92|224:120,1,104.999996795654
28,268,135673,2,0,P|76:300|144:268,1,104.999996795654
384,272,136079,2,0,P|380:204|312:132,1,104.999996795654
120,76,136484,5,0,0:0:0:0:
252,304,136687,1,0,0:0:0:0:
348,60,136889,2,0,P|404:32|472:60,2,104.999996795654
348,60,137700,1,0,0:0:0:0:
224,200,138106,2,0,B|284:180|284:180|248:104|368:132|368:132|404:64|376:16,1,300
384,37,139930,5,0,0:0:0:0:
252,264,140133,2,0,P|345:276|400:352,1,104.999996795654
200,64,140538,2,0,P|268:80|296:152,1,104.999996795654
36,180,140943,2,0,P|88:208|192:164,1,104.999996795654
132,206,141349,5,0,0:0:0:0:
392,176,141552,1,0,0:0:0:0:
132,212,141754,2,0,P|124:132|176:88,1,104.999996795654
376,224,142160,2,0,P|328:180|348:112,1,104.999996795654
64,160,142565,2,0,P|140:132|192:192,1,104.999996795654
157,139,142970,5,0,0:0:0:0:
384,272,143173,1,0,0:0:0:0:
124,240,143376,2,0,P|164:284|244:248,1,104.999996795654
336,56,143781,2,0,P|312:116|204:92,1,104.999996795654
20,188,144187,2,0,P|24:100|88:76,1,104.999996795654
68,180,144592,2,0,B|104:212|188:212|188:212|136:76,1,262.5
139,85,146214,5,0,0:0:0:0:
312,280,146416,1,0,0:0:0:0:
232,28,146619,2,0,P|276:44|288:120,1,104.999996795654
112,284,147024,2,0,P|160:324|244:296,1,104.999996795654
320,88,147430,2,0,P|376:48|444:96,1,104.999996795654
407,53,147835,5,0,0:0:0:0:
268,276,148038,1,0,0:0:0:0:
60,112,148241,2,0,P|124:152|200:108,1,104.999996795654
348,320,148646,2,0,P|416:292|432:216,1,104.999996795654
212,116,149052,2,0,P|272:76|388:100,1,104.999996795654
303,70,149457,5,0,0:0:0:0:
68,188,149660,1,0,0:0:0:0:
328,160,149862,2,0,P|388:160|428:96,1,104.999996795654
192,268,150268,2,0,P|160:196|164:160,1,104.999996795654
208,80,150673,2,0,P|260:104|292:192,1,104.999996795654
268,236,151079,2,0,B|300:252|296:172|296:172|364:236|364:236|412:164|444:252|408:140,1,300
412,152,152903,5,0,0:0:0:0:
156,92,153106,2,0,P|220:44|308:108,1,104.999996795654
424,236,153511,2,0,P|412:304|340:356,1,104.999996795654
156,212,153916,2,0,P|68:168|72:124,1,104.999996795654
69,174,154322,5,0,0:0:0:0:
324,120,154524,1,0,0:0:0:0:
164,328,154727,2,0,P|216:276|292:340,1,104.999996795654
396,60,155133,2,0,P|404:128|340:200,1,104.999996795654
132,208,155538,2,0,P|108:132|36:112,1,104.999996795654
90,119,155943,5,0,0:0:0:0:
312,264,156146,1,0,0:0:0:0:
116,88,156349,2,0,P|188:68|268:128,1,104.999996795654
424,236,156754,2,0,P|332:244|280:172,1,104.999996795654
128,60,157160,2,0,P|164:128|268:112,1,104.999996795654
128,64,157565,2,0,B|168:36|232:112|232:112|288:52|364:84|360:124,1,262.5
108,204,159187,6,0,P|156:240|224:216,1,104.999996795654
198,235,159592,1,0,0:0:0:0:
440,136,159795,1,0,0:0:0:0:
180,168,159997,1,0,0:0:0:0:
428,252,160200,1,0,0:0:0:0:
236,72,160403,6,0,P|296:56|364:84,1,104.999996795654
120,212,160808,2,0,P|172:212|236:112,1,104.999996795654
215,188,161214,2,0,P|275:196|303:260,1,104.999996795654
472,28,161619,2,0,P|411:57|376:148,1,104.999996795654
388,85,162024,5,0,0:0:0:0:
132,148,162227,1,0,0:0:0:0:
388,85,162430,2,0,P|352:121|312:193,1,104.999996795654
76,84,162835,2,0,P|88:128|148:160,1,104.999996795654
400,180,163241,2,0,P|364:240|308:240,1,104.999996795654
72,256,163646,2,0,P|164:244|212:296,1,104.999996795654
260,212,164052,2,0,B|212:212|212:212|172:244|172:244|236:324,1,187.5
227,312,165673,5,0,0:0:0:0:
412,124,165876,1,0,0:0:0:0:
160,200,166079,1,0,0:0:0:0:
404,300,166281,1,0,0:0:0:0:
236,96,166484,1,0,0:0:0:0:
364,192,166889,5,0,0:0:0:0:
104,168,167092,1,0,0:0:0:0:
324,312,167295,1,0,0:0:0:0:
296,52,167497,1,0,0:0:0:0:
168,280,167700,1,0,0:0:0:0:
344,84,167903,1,0,0:0:0:0:
80,100,168106,1,0,0:0:0:0:
80,104,168511,6,0,P|120:160|308:136,1,209.999993591309
252,179,169119,1,0,0:0:0:0:
500,272,169322,1,0,0:0:0:0:
240,304,169524,1,0,0:0:0:0:
80,96,169727,1,0,0:0:0:0:
388,76,170133,1,0,0:0:0:0:
200,96,170538,2,0,B|156:152|164:196|164:196|240:280,1,187.5
216,253,171754,1,0,0:0:0:0:
288,196,171957,1,0,0:0:0:0:
264,104,172160,1,0,0:0:0:0:
256,192,187160,12,0,192430,0:0:0:0:
