osu file format v14

[General]
AudioFilename: audio.mp3
AudioLeadIn: 0
PreviewTime: 51957
Countdown: 1
SampleSet: None
StackLeniency: 0.7
Mode: 0
LetterboxInBreaks: 0
WidescreenStoryboard: 1

[Editor]
DistanceSpacing: 1
BeatDivisor: 2
GridSize: 4
TimelineZoom: 1

[Metadata]
Title:Fly Away feat. Anjulie
TitleUnicode:Fly Away feat. Anjulie
Artist:TheFatRat
ArtistUnicode:TheFatRat
Creator:Vepr_Ace
Version:Easy
Source:
Tags:TheFatRat
BeatmapID:1310531
BeatmapSetID:621524

[Difficulty]
HPDrainRate:3
CircleSize:3
OverallDifficulty:3
ApproachRate:3
SliderMultiplier:0.6
SliderTickRate:1

[Events]
//Background and Video events
Video,0,"TheFatRat - Fly Away feat. Anjulie.mp4"
0,0,"6846e94b1b5943a58d384f8d5b8f33db.png",0,0
//Break Periods
2,78306,92882
2,172360,186530
//Storyboard Layer 0 (Background)
//Storyboard Layer 1 (Fail)
//Storyboard Layer 2 (Pass)
//Storyboard Layer 3 (Foreground)
//Storyboard Sound Samples

[TimingPoints]
-137.173667464079,405.405405405405,4,3,0,100,1,0
49727,-100,4,3,0,100,0,0
52160,-100,4,3,0,100,0,1
57024,-200,4,3,0,100,0,1
58038,-100,4,3,0,100,0,1
63511,-200,4,3,0,100,0,1
64727,-100,4,3,0,100,0,1
69997,-200,4,3,0,100,0,1
71619,-100,4,3,0,100,0,1
76484,-200,4,3,0,100,0,1
77700,-100,4,1,0,100,0,0
133241,-100,4,3,0,100,0,1
138106,-200,4,3,0,100,0,1
139727,-100,4,3,0,100,0,1
144592,-200,4,3,0,100,0,1
146011,-100,4,3,0,100,0,1
151079,-200,4,3,0,100,0,1
152700,-100,4,3,0,100,0,1
157565,-200,4,3,0,100,0,1
158984,-100,4,3,0,100,0,1
164052,-200,4,3,0,100,0,1
165065,-100,4,3,0,100,0,1
170538,-200,4,3,0,100,0,1
171552,-200,4,3,0,100,0,0

[Colours]
Combo1 : 81,139,236
Combo2 : 11,163,244
Combo3 : 20,203,235
Combo4 : 226,245,254
Combo5 : 232,226,254
Combo6 : 138,147,255

[HitObjects]
188,144,13241,5,0,1:1:0:0:
308,160,14052,1,0,1:1:0:0:
376,260,14862,2,0,B|284:292|284:292|184:248,1,180,0|0,1:1|1:1,1:1:0:0:
108,196,16889,1,0,1:1:0:0:
176,296,17700,6,0,P|276:272|300:148,1,240,0|0,1:1|1:1,1:1:0:0:
240,140,19727,1,0,0:0:0:0:
180,244,20538,1,0,0:0:0:0:
224,284,20943,6,0,B|320:268|320:268|360:124,1,240,0|0,1:1|1:1,1:1:0:0:
360,72,22970,1,0,1:1:0:0:
244,96,23781,1,0,1:1:0:0:
216,148,24187,6,0,P|284:72|392:132,1,240,0|0,1:1|1:1,1:1:0:0:
388,188,26214,1,0,1:1:0:0:
352,236,26619,1,0,1:1:0:0:
300,264,27024,1,0,1:1:0:0:
244,288,27430,6,0,P|300:336|400:236,1,240,0|0,1:1|1:1,1:1:0:0:
380,188,29457,2,0,B|352:168|352:168|320:160,1,60,0|0,1:1|1:1,1:1:0:0:
268,144,30268,1,0,1:1:0:0:
228,188,30673,6,0,B|352:200|352:200|416:84,1,240,0|0,1:1|1:1,1:1:0:0:
348,92,32700,1,0,1:1:0:0:
288,108,33106,1,0,1:1:0:0:
232,132,33511,1,0,1:1:0:0:
176,152,33916,6,0,B|248:160|272:116|328:296,1,240,0|0,1:1|1:1,1:1:0:0:
272,296,35943,1,0,1:1:0:0:
216,272,36349,1,0,1:1:0:0:
172,232,36754,1,0,1:1:0:0:
120,204,37160,6,0,B|124:300|124:300|268:268,1,240,0|0,1:1|1:1,1:1:0:0:
212,300,39187,6,0,L|108:228,1,120,0|0,3:3|3:3,3:3:0:0:
324,152,40403,6,0,L|212:220,1,120,0|0,3:3|3:3,3:3:0:0:
196,268,41619,2,2,L|152:140,1,120,2|2,3:3|3:3,3:3:0:0:
208,120,42835,2,2,L|316:220,1,120,2|2,3:3|3:3,3:3:0:0:
288,260,44052,2,0,L|420:192,1,120,0|0,3:3|3:3,3:3:0:0:
412,148,45268,2,0,L|300:80,1,120,0|0,3:3|3:3,3:3:0:0:
248,96,46484,2,2,L|180:200,1,120,2|2,3:3|3:3,3:3:0:0:
208,144,47700,2,0,P|324:264|144:280,1,420,0|0,3:3|3:3,3:3:0:0:
120,92,52160,1,0,3:3:0:0:
92,144,52565,2,0,P|176:196|260:180,1,180,0|0,3:3|3:3,3:3:0:0:
244,124,54187,2,0,P|352:164|388:244,1,180,0|0,3:3|3:3,3:3:0:0:
384,276,55808,2,0,P|264:284|252:280,1,120,0|0,3:3|3:3,3:3:0:0:
240,272,57024,2,0,L|252:192,1,75
176,148,58646,1,0,3:3:0:0:
220,108,59052,2,0,P|264:192|208:272,1,180,0|0,3:3|3:3,3:3:0:0:
172,280,60673,6,0,P|108:180|132:112,1,180,0|0,3:3|3:3,3:3:0:0:
180,120,62295,6,0,L|296:196,1,120,0|0,3:3|3:3,3:3:0:0:
304,200,63511,2,0,L|384:148,1,90
332,116,65133,1,0,3:3:0:0:
276,132,65538,2,0,P|364:180|368:264,1,180,0|0,3:3|3:3,3:3:0:0:
316,236,67160,2,0,P|240:292|152:300,1,180,0|0,3:3|3:3,3:3:0:0:
96,292,68781,2,0,P|68:180|68:152,1,120,0|0,3:3|3:3,3:3:0:0:
96,168,69997,2,0,L|168:64,1,120
220,92,72024,2,0,P|200:196|260:256,1,180,0|0,3:3|3:3,3:3:0:0:
212,300,73646,2,0,P|312:296|404:264,1,180,0|0,3:3|3:3,3:3:0:0:
340,232,75268,2,0,P|248:184|236:148,1,120,0|0,3:3|3:3,3:3:0:0:
216,164,76484,2,0,L|136:212,1,90
188,244,78106,1,0,3:3:0:0:
188,244,94322,5,0,1:1:0:0:
140,208,94727,1,0,1:1:0:0:
136,148,95133,1,0,1:1:0:0:
156,92,95538,6,0,B|220:76|220:76|244:112|320:156,1,180,0|0,1:1|1:1,1:1:0:0:
356,184,97160,1,0,1:1:0:0:
320,232,97565,6,0,P|264:240|208:196,1,120,0|0,1:1|1:1,1:1:0:0:
160,184,98781,2,0,B|220:128|220:128|260:156|332:124,1,180,0|0,1:1|1:1,1:1:0:0:
348,180,100403,1,0,1:1:0:0:
364,236,100808,2,0,L|296:280,1,60,0|0,1:1|1:1,1:1:0:0:
252,268,101619,1,0,1:1:0:0:
280,216,102024,6,0,B|220:160|220:160|140:156|124:208|124:240,1,210,0|0,1:1|1:1,1:1:0:0:
216,232,104052,2,0,P|272:304|312:308,1,120,0|0,1:1|1:1,1:1:0:0:
300,248,105268,6,0,B|343:241|343:241|368:204,1,60,0|0,1:1|1:1,1:1:0:0:
332,172,106079,1,0,1:1:0:0:
220,132,106889,1,0,1:1:0:0:
260,176,107295,1,0,1:1:0:0:
236,232,107700,1,0,1:1:0:0:
184,260,108106,1,0,1:1:0:0:
124,272,108511,6,0,B|184:304|184:304|208:284|320:300,1,180,0|0,1:1|1:1,1:1:0:0:
340,260,110133,1,0,1:1:0:0:
360,204,110538,1,0,1:1:0:0:
332,152,110943,1,0,1:1:0:0:
280,120,111349,1,0,1:1:0:0:
240,164,111754,6,0,B|296:232|368:204|368:204|384:260,1,180,0|0,1:1|1:1,1:1:0:0:
332,276,113376,1,0,1:1:0:0:
272,284,113781,1,0,1:1:0:0:
212,280,114187,1,0,1:1:0:0:
160,252,114592,1,0,1:1:0:0:
212,220,114997,6,0,B|208:160|208:160|140:176|92:108,1,180,0|0,1:1|1:1,1:1:0:0:
156,92,116619,1,0,1:1:0:0:
216,104,117024,1,0,1:1:0:0:
248,156,117430,1,0,1:1:0:0:
260,216,117835,1,0,1:1:0:0:
252,276,118241,6,0,B|292:244|292:244|272:188|364:148,1,180,0|0,1:1|1:1,1:1:0:0:
368,268,120268,2,0,P|404:220|408:196,1,60,0|0,3:3|3:3,3:3:0:0:
344,212,121079,6,0,P|364:188|356:136,1,60,0|0,3:3|3:3,3:3:0:0:
308,132,121889,6,0,P|304:156|272:184,1,60,0|0,3:3|3:3,3:3:0:0:
244,132,122700,2,0,P|252:116|284:72,1,60,0|0,3:3|3:3,3:3:0:0:
308,132,123511,2,0,P|320:176|300:208,1,60,0|0,3:3|3:3,3:3:0:0:
256,172,124322,6,0,P|240:196|196:208,1,60,0|0,3:3|3:3,3:3:0:0:
152,200,125133,6,0,P|148:224|184:272,1,60,0|0,3:3|3:3,3:3:0:0:
220,260,125943,6,0,P|236:248|300:248,1,60,0|0,3:3|3:3,3:3:0:0:
292,184,126754,2,0,P|324:200|348:236,1,60,0|0,3:3|3:3,3:3:0:0:
392,248,127565,2,0,P|380:268|332:284,1,60,0|0,3:3|3:3,3:3:0:0:
340,224,128376,6,0,P|324:208|284:192,1,60,0|0,3:3|3:3,3:3:0:0:
236,216,129187,2,0,B|248:236|248:236|304:248,1,60,0|0,3:3|3:3,3:3:0:0:
256,192,129997,12,0,132835,3:3:0:0:
256,192,133241,5,0,3:3:0:0:
256,252,133646,2,0,P|288:208|372:192,1,120,0|0,3:3|3:3,3:3:0:0:
372,244,134862,6,0,P|328:276|248:276,1,120,0|0,3:3|3:3,3:3:0:0:
212,252,136079,2,0,P|236:196|284:132,1,120,0|0,3:3|3:3,3:3:0:0:
324,172,137295,6,0,P|324:220|300:248,1,60,0|0,3:3|3:3,3:3:0:0:
288,232,138106,2,0,L|188:164,1,120
236,128,140133,2,0,P|176:100|116:124,1,120,0|0,3:3|3:3,3:3:0:0:
168,160,141349,6,0,P|120:196|48:176,1,120,0|0,3:3|3:3,3:3:0:0:
56,248,142565,2,0,P|124:232|192:264,1,120,0|0,3:3|3:3,3:3:0:0:
140,300,143781,2,0,P|196:324|216:320,1,60,0|0,3:3|3:3,3:3:0:0:
208,300,144592,2,0,L|308:244,1,105
352,176,146619,6,0,P|296:164|212:192,1,120,0|0,3:3|3:3,3:3:0:0:
284,216,147835,6,0,P|240:244|160:232,1,120,0|0,3:3|3:3,3:3:0:0:
122,208,149052,2,0,P|186:160|250:160,1,120,0|0,3:3|3:3,3:3:0:0:
280,132,150268,2,0,P|240:92|212:80,1,60,0|0,3:3|3:3,3:3:0:0:
208,104,151079,2,0,L|92:160,1,120
56,196,153106,6,0,P|76:104|108:68,1,120,0|0,3:3|3:3,3:3:0:0:
140,120,154322,6,0,P|164:176|228:228,1,120,0|0,3:3|3:3,3:3:0:0:
264,224,155538,6,0,P|232:164|256:104,1,120,0|0,3:3|3:3,3:3:0:0:
304,120,156754,2,0,L|376:156,1,60,0|0,3:3|3:3,3:3:0:0:
344,172,157565,2,0,L|272:236,1,90
216,240,159187,1,0,3:3:0:0:
212,300,159592,6,0,P|168:312|108:264,1,120,0|0,3:3|3:3,3:3:0:0:
124,212,160808,1,0,3:3:0:0:
152,160,161214,2,0,P|176:136|216:136,2,60,0|0|0,3:3|3:3|3:3,3:3:0:0:
140,220,162430,1,0,3:3:0:0:
168,272,162835,1,0,3:3:0:0:
224,252,163241,2,0,P|280:280|280:288,1,60,0|0,3:3|3:3,3:3:0:0:
304,256,164052,2,0,L|308:172,1,75
396,164,165673,2,0,L|348:96,1,60,0|0,3:3|3:3,3:3:0:0:
304,104,166484,1,0,3:3:0:0:
252,132,166889,1,0,3:3:0:0:
216,180,167295,1,0,3:3:0:0:
156,188,167700,1,0,3:3:0:0:
104,216,168106,2,0,P|148:244|172:240,1,60,0|0,3:3|3:3,3:3:0:0:
204,212,168916,1,0,3:3:0:0:
244,168,169322,2,0,P|296:196|308:204,1,60,0|0,3:3|3:3,3:3:0:0:
348,168,170133,1,0,3:3:0:0:
356,196,170538,2,0,L|316:260,1,75
272,260,172160,1,0,3:3:0:0:
256,192,187970,12,0,191214,3:3:0:0:
