osu file format v14

[General]
AudioFilename: audio.mp3
AudioLeadIn: 0
PreviewTime: -1
Countdown: 1
SampleSet: Soft
StackLeniency: 0.8
Mode: 0
LetterboxInBreaks: 0
SkinPreference:- YUGEN SD -
WidescreenStoryboard: 0

[Editor]
DistanceSpacing: 1
BeatDivisor: 3
GridSize: 4
TimelineZoom: 1

[Metadata]
Title:Prelude (VIP Edit)
TitleUnicode:Prelude (VIP Edit)
Artist:TheFatRat & JJD
ArtistUnicode:TheFatRat & JJD
Creator:Marg123
Version:Hard
Source:
Tags:Geometry Dash,RobTop
BeatmapID:1517578
BeatmapSetID:718493

[Difficulty]
HPDrainRate:7
CircleSize:5
OverallDifficulty:6
ApproachRate:7
SliderMultiplier:2.30000000596046
SliderTickRate:2

[Events]
//Background and Video events
0,0,"game_bg_16_001-hd.png",0,0
Video,-1630,"How to play- MEGALOVANIA (Undertale) - SUPER PADS - RPG Kit.mp4"
//Break Periods
2,105182,109910
2,132814,137353
//Storyboard Layer 0 (Background)
//Storyboard Layer 1 (Fail)
//Storyboard Layer 2 (Pass)
//Storyboard Layer 3 (Foreground)
//Storyboard Sound Samples

[TimingPoints]
2952.87218045113,150.375939849624,4,2,0,58,1,0

[HitObjects]
256,192,2990,12,0,5622,0:0:0:0:
136,104,7414,5,0,0:2:0:0:
320,116,8466,1,8,0:2:0:0:
128,120,9519,1,0,0:2:0:0:
276,124,10622,1,8,0:2:0:0:
124,116,11624,1,8,0:2:0:0:
320,104,12727,1,8,0:2:0:0:
212,112,12977,1,8,0:2:0:0:
372,112,13278,1,8,0:2:0:0:
188,152,13679,1,8,0:2:0:0:
352,140,14331,1,8,0:2:0:0:
256,136,14581,1,0,0:2:0:0:
328,136,14832,1,0,0:2:0:0:
244,136,15383,1,8,0:2:0:0:
88,116,15935,1,8,0:2:0:0:
316,128,16436,1,8,0:2:0:0:
208,136,16987,1,8,0:2:0:0:
352,176,17489,1,8,0:2:0:0:
200,152,18040,1,8,0:2:0:0:
260,144,18591,1,8,0:2:0:0:
320,124,19143,1,8,0:2:0:0:
176,136,19644,1,8,0:2:0:0:
308,128,20145,1,8,0:2:0:0:
220,140,20697,1,8,0:2:0:0:
332,144,21248,1,8,0:2:0:0:
232,148,21699,1,8,0:2:0:0:
348,152,22301,1,8,0:2:0:0:
232,140,22802,1,8,0:2:0:0:
348,128,23353,1,8,0:2:0:0:
216,136,23855,1,8,0:2:0:0:
336,140,24356,1,8,0:2:0:0:
216,140,24907,1,8,0:2:0:0:
320,124,25409,1,8,0:2:0:0:
320,124,25659,1,8,0:2:0:0:
224,124,26010,1,8,0:2:0:0:
340,120,26411,1,8,0:2:0:0:
180,128,27063,1,8,0:2:0:0:
320,124,27614,1,8,0:2:0:0:
156,132,28165,1,8,0:2:0:0:
168,108,28667,5,8,0:0:0:0:
376,136,29682,1,8,0:0:0:0:
376,136,29982,1,8,0:0:0:0:
376,136,30246,1,8,0:0:0:0:
132,100,30697,1,8,0:0:0:0:
360,144,31261,1,8,0:0:0:0:
184,136,31524,1,8,0:0:0:0:
204,84,31825,1,8,0:0:0:0:
284,112,32952,1,8,0:0:0:0:
224,112,34005,1,8,0:0:0:0:
224,112,34231,1,8,0:0:0:0:
268,112,34907,1,8,0:0:0:0:
128,88,36035,1,10,0:0:0:0:
364,100,37125,1,10,0:0:0:0:
64,104,38216,1,14,0:0:0:0:
132,108,38479,1,14,0:0:0:0:
248,88,38779,1,14,0:0:0:0:
364,92,39155,1,14,0:0:0:0:
364,96,40321,1,4,0:0:0:0:
208,96,41336,1,4,0:0:0:0:
144,56,42426,1,0,0:0:0:0:
164,48,43454,1,0,0:2:0:0:
164,48,43479,1,0,0:0:0:0:
232,72,44531,1,8,0:0:0:0:
236,72,44556,1,0,0:2:0:0:
204,120,45559,1,0,0:2:0:0:
204,112,45622,1,10,0:0:0:0:
104,88,46712,1,0,0:2:0:0:
188,112,47714,1,0,0:2:0:0:
188,112,47727,1,0,0:0:0:0:
236,120,48817,1,0,0:2:0:0:
248,124,49870,1,0,0:2:0:0:
244,136,50960,1,0,0:0:0:0:
244,136,50972,1,0,0:2:0:0:
256,152,52025,1,0,0:2:0:0:
256,192,52689,12,8,53103,0:0:0:0:
256,192,53629,12,0,54155,0:0:0:0:
256,192,54682,12,0,56298,0:0:0:0:
160,72,57338,5,0,0:2:0:0:
160,72,57351,5,0,0:0:0:0:
328,80,57764,1,0,0:0:0:0:
328,80,58028,1,0,0:0:0:0:
144,108,58328,1,0,0:0:0:0:
344,108,58817,1,0,0:0:0:0:
164,104,59419,1,0,0:0:0:0:
164,104,59682,1,0,0:0:0:0:
288,96,60020,5,0,0:0:0:0:
164,80,60396,1,0,0:0:0:0:
364,92,60897,1,0,0:2:0:0:
384,84,60997,5,0,0:0:0:0:
200,84,61261,1,0,0:0:0:0:
432,72,61561,1,0,0:0:0:0:
156,84,62125,5,0,0:0:0:0:
152,88,62150,1,0,0:2:0:0:
404,80,62614,1,0,0:0:0:0:
188,120,63053,1,0,0:2:0:0:
200,120,63065,1,0,0:0:0:0:
416,104,63629,1,0,0:0:0:0:
176,108,63892,1,0,0:0:0:0:
220,80,64118,1,0,0:0:0:0:
232,88,64155,1,0,0:2:0:0:
328,216,64419,1,0,0:0:0:0:
96,96,64757,5,0,0:0:0:0:
356,96,65246,1,0,0:0:0:0:
156,104,65509,1,0,0:0:0:0:
168,108,65659,1,0,0:2:0:0:
360,216,65772,1,0,0:0:0:0:
184,136,66261,5,0,0:0:0:0:
364,80,66561,1,0,0:0:0:0:
96,136,66825,1,0,0:0:0:0:
280,224,67276,1,0,0:0:0:0:
208,120,67539,1,0,0:0:0:0:
392,124,67915,1,0,0:0:0:0:
264,288,68178,1,0,0:0:0:0:
176,188,68441,1,0,0:0:0:0:
344,128,68667,1,0,0:0:0:0:
184,132,69005,5,0,0:0:0:0:
360,132,69381,1,0,0:0:0:0:
144,76,69644,1,0,0:0:0:0:
208,232,69870,1,0,0:0:0:0:
400,188,70095,1,0,0:0:0:0:
84,200,70509,1,0,0:0:0:0:
84,200,70734,1,0,0:0:0:0:
364,96,71110,1,0,0:0:0:0:
120,172,71561,1,2,0:0:0:0:
296,132,71862,1,2,0:0:0:0:
72,88,72163,1,2,0:0:0:0:
348,76,72426,1,2,0:0:0:0:
168,196,72689,1,2,0:0:0:0:
292,76,72990,1,0,0:0:0:0:
344,156,73253,1,0,0:0:0:0:
40,104,73779,1,0,0:0:0:0:
228,88,74080,1,0,0:0:0:0:
28,52,74343,5,0,0:0:0:0:
352,56,74794,1,0,0:0:0:0:
148,112,75095,1,0,0:0:0:0:
288,88,75358,1,0,0:0:0:0:
156,200,75810,1,0,0:0:0:0:
216,208,76073,1,0,0:0:0:0:
328,136,76449,1,0,0:0:0:0:
144,60,76674,1,0,0:0:0:0:
304,192,76937,1,0,0:0:0:0:
112,140,77200,1,0,0:0:0:0:
408,76,77501,1,0,0:0:0:0:
376,80,77990,5,0,0:0:0:0:
160,88,78291,1,0,0:0:0:0:
328,208,78591,1,0,0:0:0:0:
156,112,79005,1,0,0:0:0:0:
288,96,79343,1,0,0:0:0:0:
408,80,79607,1,0,0:0:0:0:
128,112,79982,1,0,0:0:0:0:
312,128,80321,1,0,0:0:0:0:
136,100,80659,1,0,0:0:0:0:
240,248,80922,1,0,0:0:0:0:
328,96,81223,1,0,0:0:0:0:
256,108,81411,1,0,0:0:0:0:
256,140,81712,1,0,0:0:0:0:
124,100,82238,1,0,0:0:0:0:
320,128,82576,5,0,0:0:0:0:
80,88,82840,1,0,0:0:0:0:
432,104,83291,1,0,0:0:0:0:
144,104,83591,1,0,0:0:0:0:
236,204,83930,1,0,0:0:0:0:
96,168,84381,1,0,0:0:0:0:
124,152,84607,1,0,0:0:0:0:
336,88,84870,1,0,0:0:0:0:
120,164,85208,1,0,0:0:0:0:
236,164,85509,5,0,0:0:0:0:
136,100,88103,1,0,0:0:0:0:
256,192,89155,12,0,91298,0:0:0:0:
256,192,91787,12,0,92388,0:0:0:0:
256,192,92840,12,0,93403,0:0:0:0:
256,192,93967,12,0,95584,0:0:0:0:
256,192,96035,12,0,96599,0:0:0:0:
256,192,97088,12,0,97727,0:0:0:0:
256,192,98253,12,0,98817,0:0:0:0:
192,88,99757,5,0,0:0:0:0:
272,96,100321,1,0,0:0:0:0:
144,112,104531,2,0,L|240:148,9,76.6666668653488
60,96,110810,6,0,L|264:136,2,153.333333730698
80,88,112013,2,0,L|360:136,1,230.000000596047
56,68,112990,2,0,L|352:108,1,230.000000596047
48,52,114005,2,0,L|352:104,2,306.666667461395
56,48,115208,2,0,L|308:92,2,230.000000596047
292,104,116825,6,0,L|108:48,2,153.333333730698
128,48,118328,6,0,L|364:96,2,230.000000596047
44,56,119456,2,0,L|288:104,2,230.000000596047
68,64,120471,2,0,P|212:96|420:104,2,306.666667461395
164,144,123140,1,0,0:0:0:0:
376,132,123667,1,0,0:0:0:0:
376,132,123817,1,0,0:0:0:0:
364,132,124118,1,0,0:0:0:0:
180,108,124494,1,0,0:0:0:0:
392,140,124794,1,0,0:0:0:0:
184,104,125058,1,0,0:0:0:0:
392,80,125283,1,0,0:0:0:0:
164,124,125772,1,0,0:0:0:0:
332,124,126073,1,0,0:0:0:0:
204,64,126336,1,0,0:0:0:0:
272,148,127990,1,0,0:0:0:0:
272,148,128103,1,0,0:0:0:0:
268,148,128403,1,0,0:0:0:0:
268,144,129005,1,0,0:0:0:0:
268,144,129231,1,0,0:0:0:0:
264,140,129343,1,0,0:0:0:0:
264,140,129607,1,0,0:0:0:0:
260,140,130133,1,0,0:0:0:0:
220,140,130358,1,0,0:0:0:0:
392,140,130622,1,0,0:0:0:0:
140,128,131110,1,0,0:0:0:0:
140,128,131298,1,0,0:0:0:0:
416,112,131637,1,0,0:0:0:0:
144,128,131900,1,0,0:0:0:0:
232,116,132163,1,0,0:0:0:0:
248,132,132313,1,0,0:0:0:0:
144,128,132614,1,0,0:0:0:0:
352,132,138253,5,0,0:0:0:0:
244,136,139080,1,0,0:0:0:0:
236,124,139155,1,0,0:0:0:0:
244,116,140095,1,0,0:0:0:0:
248,128,140170,1,0,0:0:0:0:
384,116,140358,1,0,0:0:0:0:
360,136,140396,1,0,0:0:0:0:
124,56,140622,1,0,0:0:0:0:
316,120,140847,1,0,0:0:0:0:
72,36,141148,1,0,0:0:0:0:
144,76,142276,1,0,0:0:0:0:
152,80,143253,1,0,0:0:0:0:
156,76,143366,1,0,0:0:0:0:
252,100,144381,1,0,0:0:0:0:
256,92,144456,1,0,0:0:0:0:
256,144,145434,1,0,0:0:0:0:
256,144,145471,1,0,0:0:0:0:
312,140,146524,1,0,0:0:0:0:
312,144,146561,1,0,0:0:0:0:
336,188,147614,1,0,0:0:0:0:
336,192,147652,1,0,0:0:0:0:
328,104,148667,1,0,0:0:0:0:
148,96,149682,1,0,0:0:0:0:
152,76,150734,1,0,0:0:0:0:
144,76,150772,1,8,0:0:0:0:
232,132,151825,1,0,0:0:0:0:
252,132,152877,1,0,0:0:0:0:
256,136,152952,1,8,0:0:0:0:
260,108,153967,1,0,0:0:0:0:
260,108,154005,1,8,0:0:0:0:
216,96,154982,1,0,0:0:0:0:
224,96,155020,1,8,0:0:0:0:
224,144,156110,1,0,0:0:0:0:
232,148,156148,1,8,0:0:0:0:
228,144,156599,1,0,0:0:0:0:
232,152,156637,1,8,0:0:0:0:
240,148,157088,1,0,0:0:0:0:
252,152,157163,1,8,0:0:0:0:
240,148,157313,1,0,0:0:0:0:
252,152,157426,1,8,0:0:0:0:
236,148,157576,1,0,0:0:0:0:
240,152,157689,1,0,0:0:0:0:
232,152,157952,1,0,0:0:0:0:
176,136,158178,1,0,0:0:0:0:
404,152,158554,1,0,0:0:0:0:
316,148,158967,1,0,0:0:0:0:
216,144,159231,1,0,0:0:0:0:
464,160,159719,1,0,0:0:0:0:
196,108,160321,1,0,0:0:0:0:
232,152,160546,1,0,0:0:0:0:
256,176,160697,1,0,0:0:0:0:
168,104,160997,1,0,0:0:0:0:
288,124,161148,1,0,0:0:0:0:
200,116,161411,5,0,0:0:0:0:
328,116,161637,1,0,0:0:0:0:
196,72,161900,1,0,0:0:0:0:
136,88,162088,1,0,0:0:0:0:
252,180,162351,1,0,0:0:0:0:
264,120,162764,1,0,0:0:0:0:
168,124,162990,1,0,0:0:0:0:
336,156,163291,1,0,0:0:0:0:
152,72,163554,1,0,0:0:0:0:
304,120,163967,5,0,0:0:0:0:
288,168,164268,1,0,0:0:0:0:
132,128,164569,1,0,0:0:0:0:
380,144,165020,1,0,0:0:0:0:
240,140,165283,1,0,0:0:0:0:
256,144,165321,1,0,0:0:0:0:
192,96,165622,1,0,0:0:0:0:
132,88,168479,1,0,0:0:0:0:
132,88,168629,1,0,0:0:0:0:
288,128,168817,1,0,0:0:0:0:
68,144,169306,1,0,0:0:0:0:
220,152,169381,1,0,0:0:0:0:
232,172,169569,1,0,0:0:0:0:
260,120,169870,1,0,0:0:0:0:
172,200,170208,5,0,0:0:0:0:
116,160,170434,1,0,0:0:0:0:
152,160,170584,1,0,0:0:0:0:
376,160,170885,1,0,0:0:0:0:
148,108,171373,1,0,0:0:0:0:
160,124,171411,1,0,0:0:0:0:
256,132,171637,1,0,0:0:0:0:
256,136,171787,1,0,0:0:0:0:
132,76,172050,1,0,0:0:0:0:
336,136,172464,1,0,0:0:0:0:
336,136,172689,1,0,0:0:0:0:
324,128,172840,1,0,0:0:0:0:
184,100,173103,1,0,0:0:0:0:
376,144,173554,1,0,0:0:0:0:
376,144,173817,1,0,0:0:0:0:
376,144,173930,1,0,0:0:0:0:
268,124,174193,1,0,0:0:0:0:
380,160,174456,1,0,0:0:0:0:
220,132,174719,1,0,0:0:0:0:
220,132,174832,1,0,0:0:0:0:
420,152,175170,1,0,0:0:0:0:
220,160,175659,1,0,0:0:0:0:
220,160,175922,1,0,0:0:0:0:
220,160,176073,1,0,0:0:0:0:
312,160,176298,1,0,0:0:0:0:
200,160,176787,1,0,0:0:0:0:
200,160,176975,1,0,0:0:0:0:
292,164,177313,5,0,0:0:0:0:
200,160,177652,1,0,0:0:0:0:
200,160,177990,1,0,0:0:0:0:
224,160,178140,1,0,0:0:0:0:
296,164,178441,1,0,0:0:0:0:
296,164,178667,1,0,0:0:0:0:
296,164,178892,1,0,0:0:0:0:
296,164,179005,1,0,0:0:0:0:
168,156,179306,1,0,0:0:0:0:
312,152,179870,1,0,0:0:0:0:
312,152,180133,1,0,0:0:0:0:
312,152,180283,1,0,0:0:0:0:
200,148,180546,1,0,0:0:0:0:
272,156,180960,5,0,0:0:0:0:
272,156,181223,1,0,0:0:0:0:
172,148,181561,1,0,0:0:0:0:
260,152,181937,1,0,0:0:0:0:
260,152,182200,1,0,0:0:0:0:
260,152,182351,1,0,0:0:0:0:
200,160,182652,1,0,0:0:0:0:
308,160,182915,1,0,0:0:0:0:
232,148,183216,1,0,0:0:0:0:
232,148,183366,1,0,0:0:0:0:
224,124,183629,1,0,0:0:0:0:
224,124,184043,5,0,0:0:0:0:
224,124,184306,1,0,0:0:0:0:
376,136,184719,1,0,0:0:0:0:
240,140,185246,1,0,0:0:0:0:
240,140,185509,1,0,0:0:0:0:
328,148,185810,1,0,0:0:0:0:
216,144,186261,1,0,0:0:0:0:
216,144,186524,1,0,0:0:0:0:
300,152,186900,1,0,0:0:0:0:
168,144,187163,1,0,0:0:0:0:
260,152,187426,1,0,0:0:0:0:
268,152,187614,1,0,0:0:0:0:
256,116,187915,1,0,0:0:0:0:
252,112,188404,5,0,0:0:0:0:
252,112,188629,1,0,0:0:0:0:
252,112,188742,1,0,0:0:0:0:
368,124,189005,1,0,0:0:0:0:
184,124,189456,1,0,0:0:0:0:
184,124,189682,1,0,0:0:0:0:
184,124,189832,1,0,0:0:0:0:
328,108,190095,1,0,0:0:0:0:
140,136,190471,1,0,0:0:0:0:
140,136,190734,1,0,0:0:0:0:
140,136,190885,1,0,0:0:0:0:
328,228,191148,1,0,0:0:0:0:
288,148,191411,1,0,0:0:0:0:
152,80,191674,1,0,0:0:0:0:
132,176,191975,1,0,0:0:0:0:
264,240,192200,1,0,0:0:0:0:
292,168,192464,1,0,0:0:0:0:
152,112,192764,1,0,0:0:0:0:
148,124,193028,1,0,0:0:0:0:
176,204,193216,1,0,0:0:0:0:
276,112,193667,1,2,0:0:0:0:
164,124,193967,1,2,0:0:0:0:
248,240,194268,1,2,0:0:0:0:
360,168,194757,1,2,0:0:0:0:
244,140,195058,1,2,0:0:0:0:
236,136,195208,1,0,0:0:0:0:
308,148,195396,1,0,0:0:0:0:
272,160,195697,1,0,0:0:0:0:
236,148,195960,1,0,0:0:0:0:
264,148,196148,1,0,0:0:0:0:
264,148,196298,1,0,0:0:0:0:
260,140,196599,1,8,0:0:0:0:
292,128,196900,1,8,0:0:0:0:
164,128,197200,1,0,0:0:0:0:
292,164,197501,1,0,0:0:0:0:
248,156,198028,1,8,0:0:0:0:
312,120,199080,1,0,0:0:0:0:
104,168,199907,1,8,0:0:0:0:
104,168,200133,1,8,0:0:0:0:
104,168,200283,1,8,0:0:0:0:
184,172,200584,1,8,0:0:0:0:
196,172,201223,1,0,0:0:0:0:
204,176,201449,1,0,0:0:0:0:
280,160,201749,1,0,0:0:0:0:
256,152,202276,1,8,0:0:0:0:
256,152,202539,1,8,0:0:0:0:
124,132,202802,1,8,0:0:0:0:
280,144,203253,1,0,0:0:0:0:
280,144,203855,1,8,0:0:0:0:
104,140,204343,1,8,0:0:0:0:
104,140,204607,1,0,0:0:0:0:
304,144,204870,1,0,0:0:0:0:
304,144,205396,1,8,0:0:0:0:
304,144,205697,1,8,0:0:0:0:
192,144,205997,1,8,0:0:0:0:
288,148,206712,1,0,0:0:0:0:
288,148,206862,1,0,0:0:0:0:
172,148,207088,1,0,0:0:0:0:
292,148,207727,1,8,0:0:0:0:
292,148,207877,1,8,0:0:0:0:
180,144,208178,1,8,0:0:0:0:
300,160,208366,1,8,0:0:0:0:
308,160,208629,1,8,0:0:0:0:
272,160,208817,1,0,0:0:0:0:
232,160,209118,1,0,0:0:0:0:
240,164,209794,1,0,0:0:0:0:
240,164,210283,1,4,0:0:0:0:
