osu file format v14

[General]
AudioFilename: audio.mp3
AudioLeadIn: 0
PreviewTime: -1
Countdown: 1
SampleSet: Soft
StackLeniency: 0.7
Mode: 3
LetterboxInBreaks: 0
SpecialStyle: 0
WidescreenStoryboard: 0

[Editor]
DistanceSpacing: 0.8
BeatDivisor: 1
GridSize: 32
TimelineZoom: 1

[Metadata]
Title:Ascend
TitleUnicode:Ascend
Artist:TheDooo
ArtistUnicode:TheDooo
Creator:Hidden Mod FTW
Version:Dooo It
Source:TheDooo
Tags:guitar solo
BeatmapID:1478007
BeatmapSetID:697781

[Difficulty]
HPDrainRate:6
CircleSize:5
OverallDifficulty:6
ApproachRate:5
SliderMultiplier:1.5
SliderTickRate:2

[Events]
//Background and Video events
0,0,"7151111476630655075.png",0,0
//Break Periods
//Storyboard Layer 0 (Background)
//Storyboard Layer 1 (Fail)
//Storyboard Layer 2 (Pass)
//Storyboard Layer 3 (Foreground)
//Storyboard Sound Samples

[TimingPoints]
-1127.24299005257,375,4,2,0,5,1,0

[HitObjects]
256,192,492,5,0,0:0:0:0:
358,192,651,1,0,0:0:0:0:
256,192,820,128,0,1468:0:0:0:0:
153,192,1625,1,0,0:0:0:0:
51,192,1784,1,0,0:0:0:0:
256,192,1953,1,0,0:0:0:0:
358,192,2112,1,0,0:0:0:0:
256,192,2243,128,0,3293:0:0:0:0:
358,192,3404,1,0,0:0:0:0:
460,192,3563,1,0,0:0:0:0:
256,192,3732,128,0,4379:0:0:0:0:
153,192,4537,1,0,0:0:0:0:
51,192,4706,1,0,0:0:0:0:
358,192,4865,1,0,0:0:0:0:
460,192,5024,1,0,0:0:0:0:
256,192,5174,128,0,6374:0:0:0:0:
358,192,6485,1,0,0:0:0:0:
460,192,6644,1,0,0:0:0:0:
358,192,6803,128,0,7451:0:0:0:0:
153,192,7618,1,0,0:0:0:0:
51,192,7777,1,0,0:0:0:0:
153,192,7936,1,0,0:0:0:0:
256,192,8104,1,0,0:0:0:0:
51,192,8245,128,0,9295:0:0:0:0:
256,192,9397,1,0,0:0:0:0:
460,192,9556,1,0,0:0:0:0:
153,192,9724,128,0,10533:0:0:0:0:
51,192,10530,1,0,0:0:0:0:
153,192,10689,1,0,0:0:0:0:
51,192,10857,1,0,0:0:0:0:
153,192,10951,1,0,0:0:0:0:
256,192,11026,1,0,0:0:0:0:
153,192,11101,1,0,0:0:0:0:
256,192,11176,1,0,0:0:0:0:
358,192,11251,1,0,0:0:0:0:
256,192,11325,1,0,0:0:0:0:
358,192,11400,1,0,0:0:0:0:
460,192,11475,1,0,0:0:0:0:
256,192,11550,1,0,0:0:0:0:
51,192,11625,1,0,0:0:0:0:
153,192,11700,1,0,0:0:0:0:
256,192,11775,1,0,0:0:0:0:
153,192,11850,1,0,0:0:0:0:
256,192,11925,1,0,0:0:0:0:
358,192,12000,1,0,0:0:0:0:
256,192,12075,1,0,0:0:0:0:
153,192,12149,128,0,12374:0:0:0:0:
256,192,12224,1,0,0:0:0:0:
51,192,12524,1,0,0:0:0:0:
153,192,12674,1,0,0:0:0:0:
358,192,12824,128,0,13424:0:0:0:0:
358,192,13573,1,0,0:0:0:0:
256,192,13722,1,0,0:0:0:0:
51,192,13872,1,0,0:0:0:0:
256,192,14022,1,0,0:0:0:0:
153,192,14172,128,0,15297:0:0:0:0:
358,192,14172,128,0,15297:0:0:0:0:
256,192,15445,1,0,0:0:0:0:
153,192,15595,1,0,0:0:0:0:
358,192,15745,128,0,16495:0:0:0:0:
256,192,16569,1,0,0:0:0:0:
358,192,16719,1,0,0:0:0:0:
153,192,16869,1,0,0:0:0:0:
256,192,17018,1,0,0:0:0:0:
358,192,17168,128,0,18218:0:0:0:0:
153,192,17168,128,0,18218:0:0:0:0:
51,192,18451,1,0,0:0:0:0:
153,192,18601,1,0,0:0:0:0:
358,192,18751,128,0,19501:0:0:0:0:
256,192,19575,1,0,0:0:0:0:
460,192,19724,1,0,0:0:0:0:
256,192,19874,1,0,0:0:0:0:
153,192,20024,1,0,0:0:0:0:
460,192,20174,128,0,21449:0:0:0:0:
358,192,21522,1,0,0:0:0:0:
256,192,21597,1,0,0:0:0:0:
153,192,21672,1,0,0:0:0:0:
256,192,21747,1,0,0:0:0:0:
358,192,21822,1,0,0:0:0:0:
256,192,21897,1,0,0:0:0:0:
153,192,21972,1,0,0:0:0:0:
256,192,22046,1,0,0:0:0:0:
358,192,22121,1,0,0:0:0:0:
460,192,22196,1,0,0:0:0:0:
358,192,22271,1,0,0:0:0:0:
256,192,22346,1,0,0:0:0:0:
153,192,22421,1,0,0:0:0:0:
51,192,22496,1,0,0:0:0:0:
153,192,22571,1,0,0:0:0:0:
256,192,22646,1,0,0:0:0:0:
358,192,22721,1,0,0:0:0:0:
256,192,22795,1,0,0:0:0:0:
153,192,22870,1,0,0:0:0:0:
256,192,22945,1,0,0:0:0:0:
153,192,23020,1,0,0:0:0:0:
51,192,25576,1,0,0:0:0:0:
51,192,25726,1,0,0:0:0:0:
153,192,25951,1,0,0:0:0:0:
256,192,26101,1,0,0:0:0:0:
358,192,26251,128,0,26926:0:0:0:0:
460,192,26251,128,0,26926:0:0:0:0:
256,192,27075,1,0,0:0:0:0:
153,192,27224,1,0,0:0:0:0:
460,192,27374,1,0,0:0:0:0:
256,192,27524,1,0,0:0:0:0:
153,192,27674,128,0,28724:0:0:0:0:
256,192,27674,128,0,28724:0:0:0:0:
460,192,28872,1,0,0:0:0:0:
51,192,28872,1,0,0:0:0:0:
51,192,29022,1,0,0:0:0:0:
460,192,29022,1,0,0:0:0:0:
51,192,29247,128,0,29847:0:0:0:0:
460,192,29247,128,0,29847:0:0:0:0:
153,192,29996,1,0,0:0:0:0:
358,192,29996,1,0,0:0:0:0:
460,192,30221,1,0,0:0:0:0:
51,192,30221,1,0,0:0:0:0:
153,192,30370,1,0,0:0:0:0:
358,192,30370,1,0,0:0:0:0:
256,192,30595,1,0,0:0:0:0:
256,192,30745,128,0,31795:0:0:0:0:
256,192,31943,1,0,0:0:0:0:
460,192,32093,1,0,0:0:0:0:
153,192,32318,128,0,32993:0:0:0:0:
51,192,32318,128,0,32993:0:0:0:0:
256,192,33151,1,0,0:0:0:0:
358,192,33301,1,0,0:0:0:0:
256,192,33451,1,0,0:0:0:0:
153,192,33676,128,0,34801:0:0:0:0:
256,192,33676,128,0,34801:0:0:0:0:
256,192,34949,1,0,0:0:0:0:
358,192,34949,1,0,0:0:0:0:
153,192,35174,1,0,0:0:0:0:
51,192,35174,1,0,0:0:0:0:
153,192,35398,128,0,35998:0:0:0:0:
256,192,35398,128,0,35998:0:0:0:0:
256,192,36148,128,0,36298:0:0:0:0:
460,192,36148,128,0,36298:0:0:0:0:
358,192,36447,1,0,0:0:0:0:
460,192,36522,1,0,0:0:0:0:
358,192,36597,1,0,0:0:0:0:
460,192,36672,1,0,0:0:0:0:
358,192,36747,1,0,0:0:0:0:
256,192,36822,1,0,0:0:0:0:
153,192,36897,1,0,0:0:0:0:
256,192,36972,1,0,0:0:0:0:
358,192,37046,1,0,0:0:0:0:
256,192,37121,1,0,0:0:0:0:
153,192,37196,1,0,0:0:0:0:
51,192,37271,1,0,0:0:0:0:
153,192,37346,1,0,0:0:0:0:
256,192,37421,1,0,0:0:0:0:
153,192,37496,1,0,0:0:0:0:
51,192,37571,1,0,0:0:0:0:
153,192,37646,1,0,0:0:0:0:
256,192,37721,1,0,0:0:0:0:
358,192,37795,1,0,0:0:0:0:
256,192,37870,128,0,39595:0:0:0:0:
153,192,38020,1,0,0:0:0:0:
460,192,38170,1,0,0:0:0:0:
153,192,38395,128,0,38920:0:0:0:0:
153,192,39069,1,0,0:0:0:0:
460,192,39219,1,0,0:0:0:0:
51,192,39369,1,0,0:0:0:0:
358,192,39518,1,0,0:0:0:0:
460,192,39818,128,0,40643:0:0:0:0:
358,192,39818,128,0,40643:0:0:0:0:
256,192,40801,128,0,41026:0:0:0:0:
460,192,40801,128,0,41026:0:0:0:0:
153,192,41101,128,0,41326:0:0:0:0:
51,192,41101,128,0,41326:0:0:0:0:
358,192,41400,128,0,41625:0:0:0:0:
153,192,41400,128,0,41625:0:0:0:0:
51,192,41700,128,0,41925:0:0:0:0:
460,192,41700,128,0,41925:0:0:0:0:
460,192,42075,128,0,42300:0:0:0:0:
256,192,42075,128,0,42300:0:0:0:0:
256,192,42449,1,0,0:0:0:0:
358,192,42524,1,0,0:0:0:0:
256,192,42599,1,0,0:0:0:0:
256,192,42749,1,0,0:0:0:0:
153,192,42973,1,0,0:0:0:0:
358,192,43123,1,0,0:0:0:0:
256,192,43273,1,0,0:0:0:0:
51,192,43423,128,0,43723:0:0:0:0:
153,192,43573,1,0,0:0:0:0:
153,192,43947,128,0,44322:0:0:0:0:
153,192,44472,1,0,0:0:0:0:
256,192,44546,1,0,0:0:0:0:
358,192,44621,128,0,44996:0:0:0:0:
358,192,45146,1,0,0:0:0:0:
256,192,45221,1,0,0:0:0:0:
153,192,45295,128,0,45820:0:0:0:0:
153,192,46045,128,0,46870:0:0:0:0:
256,192,46269,128,0,46869:0:0:0:0:
153,192,47018,1,0,0:0:0:0:
358,192,47093,1,0,0:0:0:0:
51,192,47168,1,0,0:0:0:0:
153,192,47243,1,0,0:0:0:0:
358,192,47318,1,0,0:0:0:0:
153,192,47393,1,0,0:0:0:0:
256,192,47468,1,0,0:0:0:0:
460,192,47543,1,0,0:0:0:0:
153,192,47618,1,0,0:0:0:0:
358,192,47692,1,0,0:0:0:0:
153,192,47767,128,0,47917:0:0:0:0:
256,192,47767,128,0,47917:0:0:0:0:
358,192,48001,128,0,48151:0:0:0:0:
153,192,48001,128,0,48151:0:0:0:0:
153,192,48301,128,0,48976:0:0:0:0:
256,192,48301,128,0,48976:0:0:0:0:
358,192,49125,128,0,49800:0:0:0:0:
460,192,49125,128,0,49800:0:0:0:0:
358,192,49949,1,0,0:0:0:0:
256,192,50024,1,0,0:0:0:0:
358,192,50099,128,0,50399:0:0:0:0:
256,192,50548,1,0,0:0:0:0:
358,192,50623,1,0,0:0:0:0:
256,192,50698,128,0,50998:0:0:0:0:
51,192,51148,1,0,0:0:0:0:
153,192,51222,1,0,0:0:0:0:
51,192,51297,128,0,51672:0:0:0:0:
153,192,51747,1,0,0:0:0:0:
256,192,51822,1,0,0:0:0:0:
153,192,51897,128,0,52272:0:0:0:0:
256,192,52346,1,0,0:0:0:0:
358,192,52421,128,0,52871:0:0:0:0:
358,192,53020,1,0,0:0:0:0:
256,192,53095,1,0,0:0:0:0:
153,192,53170,128,0,53470:0:0:0:0:
256,192,53545,1,0,0:0:0:0:
358,192,53619,1,0,0:0:0:0:
460,192,53694,128,0,54069:0:0:0:0:
358,192,54144,1,0,0:0:0:0:
256,192,54219,1,0,0:0:0:0:
153,192,54294,128,0,54669:0:0:0:0:
51,192,54743,1,0,0:0:0:0:
153,192,54818,1,0,0:0:0:0:
256,192,54893,128,0,55193:0:0:0:0:
256,192,55342,128,0,55567:0:0:0:0:
256,192,55726,128,0,58201:0:0:0:0:
358,192,56550,128,0,56700:0:0:0:0:
460,192,56625,1,0,0:0:0:0:
51,192,56850,128,0,57000:0:0:0:0:
153,192,56925,1,0,0:0:0:0:
460,192,57149,128,0,57299:0:0:0:0:
358,192,57224,1,0,0:0:0:0:
358,192,57449,128,0,57599:0:0:0:0:
460,192,57524,1,0,0:0:0:0:
153,192,57749,128,0,57899:0:0:0:0:
51,192,57824,1,0,0:0:0:0:
460,192,58048,128,0,58723:0:0:0:0:
358,192,58123,1,0,0:0:0:0:
153,192,58872,128,0,59472:0:0:0:0:
358,192,58872,128,0,59472:0:0:0:0:
256,192,59546,1,0,0:0:0:0:
153,192,59696,128,0,60296:0:0:0:0:
358,192,59696,128,0,60296:0:0:0:0:
51,192,60445,128,0,61045:0:0:0:0:
460,192,60445,128,0,61045:0:0:0:0:
358,192,61119,1,0,0:0:0:0:
153,192,61194,1,0,0:0:0:0:
256,192,61269,128,0,61869:0:0:0:0:
460,192,62018,128,0,62168:0:0:0:0:
153,192,62018,128,0,62168:0:0:0:0:
358,192,62018,128,0,62168:0:0:0:0:
256,192,62093,1,0,0:0:0:0:
51,192,62243,128,0,62393:0:0:0:0:
256,192,62243,128,0,62393:0:0:0:0:
153,192,62243,128,0,62393:0:0:0:0:
358,192,62318,1,0,0:0:0:0:
256,192,62468,128,0,62618:0:0:0:0:
460,192,62468,128,0,62618:0:0:0:0:
51,192,62468,128,0,62618:0:0:0:0:
153,192,62543,1,0,0:0:0:0:
153,192,62692,128,0,62842:0:0:0:0:
358,192,62692,128,0,62842:0:0:0:0:
460,192,62692,128,0,62842:0:0:0:0:
256,192,62767,1,0,0:0:0:0:
51,192,62927,128,0,63077:0:0:0:0:
153,192,62927,128,0,63077:0:0:0:0:
256,192,62927,128,0,63077:0:0:0:0:
460,192,63001,1,0,0:0:0:0:
358,192,63151,128,0,63301:0:0:0:0:
153,192,63151,128,0,63301:0:0:0:0:
51,192,63151,128,0,63301:0:0:0:0:
256,192,63226,1,0,0:0:0:0:
460,192,63376,128,0,63526:0:0:0:0:
256,192,63376,128,0,63526:0:0:0:0:
51,192,63376,128,0,63526:0:0:0:0:
153,192,63451,1,0,0:0:0:0:
358,192,63601,128,0,63751:0:0:0:0:
153,192,63601,128,0,63751:0:0:0:0:
256,192,63601,128,0,63751:0:0:0:0:
460,192,63676,1,0,0:0:0:0:
51,192,63825,128,0,63975:0:0:0:0:
460,192,63825,128,0,63975:0:0:0:0:
256,192,63825,128,0,63975:0:0:0:0:
153,192,63900,1,0,0:0:0:0:
153,192,64050,128,0,64200:0:0:0:0:
358,192,64050,128,0,64200:0:0:0:0:
460,192,64050,128,0,64200:0:0:0:0:
256,192,64125,1,0,0:0:0:0:
51,192,64275,128,0,64875:0:0:0:0:
460,192,64275,128,0,64875:0:0:0:0:
256,192,64275,128,0,64875:0:0:0:0:
153,192,64949,128,0,65099:0:0:0:0:
358,192,64949,128,0,65099:0:0:0:0:
256,192,64949,128,0,65099:0:0:0:0:
51,192,65024,1,0,0:0:0:0:
460,192,65174,128,0,65324:0:0:0:0:
51,192,65174,128,0,65324:0:0:0:0:
153,192,65174,128,0,65324:0:0:0:0:
358,192,65249,1,0,0:0:0:0:
358,192,65398,128,0,65548:0:0:0:0:
256,192,65398,128,0,65548:0:0:0:0:
51,192,65398,128,0,65548:0:0:0:0:
460,192,65473,1,0,0:0:0:0:
153,192,65623,128,0,65773:0:0:0:0:
460,192,65623,128,0,65773:0:0:0:0:
358,192,65623,128,0,65773:0:0:0:0:
256,192,65698,1,0,0:0:0:0:
256,192,65848,128,0,65998:0:0:0:0:
51,192,65848,128,0,65998:0:0:0:0:
358,192,65848,128,0,65998:0:0:0:0:
460,192,65923,1,0,0:0:0:0:
153,192,66073,128,0,66223:0:0:0:0:
358,192,66073,128,0,66223:0:0:0:0:
460,192,66073,128,0,66223:0:0:0:0:
256,192,66148,1,0,0:0:0:0:
51,192,66297,128,0,66447:0:0:0:0:
256,192,66297,128,0,66447:0:0:0:0:
460,192,66297,128,0,66447:0:0:0:0:
358,192,66372,1,0,0:0:0:0:
358,192,66522,128,0,66672:0:0:0:0:
153,192,66522,128,0,66672:0:0:0:0:
256,192,66522,128,0,66672:0:0:0:0:
460,192,66597,1,0,0:0:0:0:
51,192,66747,128,0,66897:0:0:0:0:
460,192,66747,128,0,66897:0:0:0:0:
358,192,66747,128,0,66897:0:0:0:0:
256,192,66822,1,0,0:0:0:0:
153,192,66972,128,0,67122:0:0:0:0:
256,192,66972,128,0,67122:0:0:0:0:
358,192,66972,128,0,67122:0:0:0:0:
460,192,67046,1,0,0:0:0:0:
51,192,67271,128,0,67871:0:0:0:0:
256,192,67271,128,0,67871:0:0:0:0:
460,192,67271,128,0,67871:0:0:0:0:
358,192,68020,128,0,68995:0:0:0:0:
153,192,68020,128,0,68995:0:0:0:0:
51,192,68694,1,0,0:0:0:0:
256,192,68694,1,0,0:0:0:0:
460,192,68694,1,0,0:0:0:0:
256,192,69069,1,0,0:0:0:0:
51,192,69219,1,0,0:0:0:0:
358,192,69369,1,0,0:0:0:0:
460,192,69518,1,0,0:0:0:0:
153,192,69668,1,0,0:0:0:0:
460,192,69818,128,0,70493:0:0:0:0:
153,192,70651,128,0,70726:0:0:0:0:
256,192,70651,128,0,70726:0:0:0:0:
358,192,70801,128,0,70876:0:0:0:0:
460,192,70801,128,0,70876:0:0:0:0:
256,192,71026,1,0,0:0:0:0:
51,192,71176,1,0,0:0:0:0:
358,192,71325,1,0,0:0:0:0:
153,192,71475,1,0,0:0:0:0:
358,192,71625,1,0,0:0:0:0:
460,192,71775,1,0,0:0:0:0:
153,192,71925,1,0,0:0:0:0:
358,192,72075,1,0,0:0:0:0:
153,192,72224,128,0,73799:0:0:0:0:
256,192,72224,128,0,73799:0:0:0:0:
358,192,72224,128,0,73799:0:0:0:0:
51,192,73648,1,0,0:0:0:0:
460,192,73648,1,0,0:0:0:0:
51,192,73797,1,0,0:0:0:0:
460,192,73797,1,0,0:0:0:0:
153,192,73947,1,0,0:0:0:0:
256,192,74022,1,0,0:0:0:0:
358,192,74097,1,0,0:0:0:0:
256,192,74172,1,0,0:0:0:0:
358,192,74247,1,0,0:0:0:0:
256,192,74322,1,0,0:0:0:0:
153,192,74397,1,0,0:0:0:0:
51,192,74472,1,0,0:0:0:0:
153,192,74546,1,0,0:0:0:0:
256,192,74621,1,0,0:0:0:0:
358,192,74696,1,0,0:0:0:0:
256,192,74771,1,0,0:0:0:0:
358,192,74846,1,0,0:0:0:0:
460,192,74921,1,0,0:0:0:0:
358,192,74996,1,0,0:0:0:0:
460,192,75071,1,0,0:0:0:0:
358,192,75146,1,0,0:0:0:0:
256,192,75221,1,0,0:0:0:0:
153,192,75295,1,0,0:0:0:0:
51,192,75370,1,0,0:0:0:0:
153,192,75445,1,0,0:0:0:0:
51,192,75520,1,0,0:0:0:0:
460,192,75595,1,0,0:0:0:0:
51,192,75670,1,0,0:0:0:0:
358,192,75745,1,0,0:0:0:0:
153,192,75820,1,0,0:0:0:0:
256,192,75895,1,0,0:0:0:0:
358,192,75970,1,0,0:0:0:0:
256,192,76045,1,0,0:0:0:0:
358,192,76119,1,0,0:0:0:0:
256,192,76194,1,0,0:0:0:0:
460,192,76269,1,0,0:0:0:0:
51,192,76344,1,0,0:0:0:0:
153,192,76419,1,0,0:0:0:0:
256,192,76494,1,0,0:0:0:0:
358,192,76569,1,0,0:0:0:0:
256,192,76644,1,0,0:0:0:0:
358,192,76719,1,0,0:0:0:0:
153,192,76869,1,0,0:0:0:0:
256,192,76869,1,0,0:0:0:0:
358,192,76869,1,0,0:0:0:0:
358,192,77018,128,0,77393:0:0:0:0:
256,192,77018,128,0,77393:0:0:0:0:
153,192,77018,128,0,77393:0:0:0:0:
358,192,77543,1,0,0:0:0:0:
256,192,77618,1,0,0:0:0:0:
358,192,77692,128,0,78142:0:0:0:0:
460,192,77692,128,0,78142:0:0:0:0:
358,192,78301,1,0,0:0:0:0:
256,192,78376,1,0,0:0:0:0:
153,192,78451,1,0,0:0:0:0:
51,192,78526,1,0,0:0:0:0:
51,192,78825,1,0,0:0:0:0:
51,192,79125,128,0,79650:0:0:0:0:
358,192,79125,128,0,79650:0:0:0:0:
153,192,79799,1,0,0:0:0:0:
256,192,79874,1,0,0:0:0:0:
153,192,79949,1,0,0:0:0:0:
256,192,80024,1,0,0:0:0:0:
358,192,80099,1,0,0:0:0:0:
256,192,80174,1,0,0:0:0:0:
358,192,80249,1,0,0:0:0:0:
256,192,80324,1,0,0:0:0:0:
358,192,80398,1,0,0:0:0:0:
460,192,80473,1,0,0:0:0:0:
358,192,80548,1,0,0:0:0:0:
460,192,80623,1,0,0:0:0:0:
51,192,80698,1,0,0:0:0:0:
153,192,80773,1,0,0:0:0:0:
51,192,80848,1,0,0:0:0:0:
153,192,80923,1,0,0:0:0:0:
256,192,80998,1,0,0:0:0:0:
358,192,81073,1,0,0:0:0:0:
256,192,81148,1,0,0:0:0:0:
358,192,81222,1,0,0:0:0:0:
256,192,81297,1,0,0:0:0:0:
153,192,81372,1,0,0:0:0:0:
256,192,81447,1,0,0:0:0:0:
358,192,81522,1,0,0:0:0:0:
460,192,81597,1,0,0:0:0:0:
256,192,81672,128,0,83322:0:0:0:0:
153,192,81672,128,0,83322:0:0:0:0:
460,192,81672,128,0,82572:0:0:0:0:
358,192,82795,1,0,0:0:0:0:
358,192,82870,1,0,0:0:0:0:
256,192,83470,1,0,0:0:0:0:
358,192,83470,1,0,0:0:0:0:
153,192,83619,1,0,0:0:0:0:
256,192,83619,1,0,0:0:0:0:
358,192,83769,1,0,0:0:0:0:
460,192,83769,1,0,0:0:0:0:
358,192,83919,1,0,0:0:0:0:
460,192,83919,1,0,0:0:0:0:
256,192,84069,1,0,0:0:0:0:
153,192,84069,1,0,0:0:0:0:
256,192,84219,1,0,0:0:0:0:
358,192,84219,1,0,0:0:0:0:
460,192,84369,128,0,85869:0:0:0:0:
153,192,84369,128,0,85869:0:0:0:0:
358,192,85988,128,0,88086:0:0:0:0:
153,192,85988,1,0,0:0:0:0:
256,192,86138,1,0,0:0:0:0:
460,192,86288,1,0,0:0:0:0:
153,192,86438,1,0,0:0:0:0:
460,192,86588,1,0,0:0:0:0:
51,192,86737,128,0,88086:0:0:0:0:
153,192,87112,128,0,88086:0:0:0:0:
460,192,87412,128,0,88086:0:0:0:0:
256,192,88236,128,0,88910:0:0:0:0:
153,192,88985,128,0,89809:0:0:0:0:
358,192,88985,1,0,0:0:0:0:
460,192,89134,1,0,0:0:0:0:
256,192,89284,1,0,0:0:0:0:
51,192,89434,1,0,0:0:0:0:
51,192,89584,128,0,90408:0:0:0:0:
256,192,89734,128,0,90408:0:0:0:0:
153,192,90558,128,0,91157:0:0:0:0:
358,192,90558,128,0,91157:0:0:0:0:
460,192,90558,128,0,91157:0:0:0:0:
256,192,91232,1,0,0:0:0:0:
358,192,91307,1,0,0:0:0:0:
256,192,91382,128,0,91906:0:0:0:0:
153,192,92056,128,0,92206:0:0:0:0:
256,192,92056,128,0,92206:0:0:0:0:
460,192,92056,128,0,92206:0:0:0:0:
358,192,92131,1,0,0:0:0:0:
51,192,92280,128,0,92430:0:0:0:0:
358,192,92280,128,0,92430:0:0:0:0:
256,192,92280,128,0,92430:0:0:0:0:
153,192,92355,1,0,0:0:0:0:
153,192,92505,128,0,92655:0:0:0:0:
460,192,92505,128,0,92655:0:0:0:0:
51,192,92505,128,0,92655:0:0:0:0:
358,192,92580,1,0,0:0:0:0:
256,192,92730,128,0,92880:0:0:0:0:
358,192,92730,128,0,92880:0:0:0:0:
460,192,92730,128,0,92880:0:0:0:0:
153,192,92805,1,0,0:0:0:0:
51,192,92955,128,0,93104:0:0:0:0:
153,192,92955,128,0,93104:0:0:0:0:
460,192,92955,128,0,93104:0:0:0:0:
256,192,93030,1,0,0:0:0:0:
256,192,93179,128,0,94678:0:0:0:0:
358,192,93179,128,0,94678:0:0:0:0:
51,192,93179,128,0,94678:0:0:0:0:
153,192,94603,128,0,94827:0:0:0:0:
256,192,94977,128,0,95501:0:0:0:0:
358,192,94977,128,0,96026:0:0:0:0:
460,192,94977,128,0,96026:0:0:0:0:
153,192,95576,128,0,96026:0:0:0:0:
256,192,96101,1,0,0:0:0:0:
358,192,96176,1,0,0:0:0:0:
460,192,96251,1,0,0:0:0:0:
358,192,96325,1,0,0:0:0:0:
460,192,96400,128,0,97149:0:0:0:0:
153,192,97224,128,0,97749:0:0:0:0:
256,192,97224,128,0,97749:0:0:0:0:
153,192,97898,1,0,0:0:0:0:
358,192,97973,1,0,0:0:0:0:
153,192,98048,1,0,0:0:0:0:
51,192,98123,1,0,0:0:0:0:
358,192,98198,1,0,0:0:0:0:
460,192,98273,1,0,0:0:0:0:
256,192,98348,1,0,0:0:0:0:
153,192,98423,1,0,0:0:0:0:
358,192,98498,1,0,0:0:0:0:
460,192,98573,1,0,0:0:0:0:
51,192,98648,1,0,0:0:0:0:
460,192,98722,1,0,0:0:0:0:
256,192,98797,1,0,0:0:0:0:
358,192,98872,1,0,0:0:0:0:
153,192,98947,1,0,0:0:0:0:
256,192,99022,1,0,0:0:0:0:
51,192,99097,1,0,0:0:0:0:
256,192,99247,1,0,0:0:0:0:
460,192,99322,1,0,0:0:0:0:
153,192,99397,1,0,0:0:0:0:
460,192,99472,1,0,0:0:0:0:
51,192,99546,1,0,0:0:0:0:
256,192,99621,1,0,0:0:0:0:
358,192,99696,1,0,0:0:0:0:
256,192,99771,1,0,0:0:0:0:
51,192,99846,1,0,0:0:0:0:
460,192,99921,1,0,0:0:0:0:
153,192,99996,1,0,0:0:0:0:
358,192,100071,1,0,0:0:0:0:
256,192,100146,1,0,0:0:0:0:
358,192,100221,1,0,0:0:0:0:
460,192,100295,1,0,0:0:0:0:
358,192,100370,1,0,0:0:0:0:
460,192,100445,1,0,0:0:0:0:
256,192,100520,1,0,0:0:0:0:
51,192,100595,1,0,0:0:0:0:
153,192,100670,1,0,0:0:0:0:
51,192,100745,1,0,0:0:0:0:
256,192,100820,1,0,0:0:0:0:
358,192,100895,1,0,0:0:0:0:
256,192,100970,1,0,0:0:0:0:
51,192,101045,1,0,0:0:0:0:
358,192,101119,1,0,0:0:0:0:
460,192,101194,1,0,0:0:0:0:
256,192,101269,1,0,0:0:0:0:
460,192,101344,1,0,0:0:0:0:
256,192,101419,1,0,0:0:0:0:
460,192,101494,1,0,0:0:0:0:
51,192,101569,1,0,0:0:0:0:
256,192,101644,1,0,0:0:0:0:
358,192,101719,1,0,0:0:0:0:
460,192,101794,1,0,0:0:0:0:
256,192,101869,1,0,0:0:0:0:
51,192,101943,1,0,0:0:0:0:
256,192,102018,1,0,0:0:0:0:
358,192,102093,1,0,0:0:0:0:
256,192,102168,1,0,0:0:0:0:
358,192,102243,1,0,0:0:0:0:
460,192,102318,1,0,0:0:0:0:
153,192,102393,1,0,0:0:0:0:
460,192,102468,1,0,0:0:0:0:
256,192,102543,1,0,0:0:0:0:
51,192,102618,1,0,0:0:0:0:
256,192,102692,1,0,0:0:0:0:
460,192,102767,1,0,0:0:0:0:
256,192,102842,1,0,0:0:0:0:
153,192,102917,1,0,0:0:0:0:
256,192,102992,1,0,0:0:0:0:
358,192,103067,1,0,0:0:0:0:
460,192,103142,1,0,0:0:0:0:
358,192,103217,1,0,0:0:0:0:
51,192,103292,1,0,0:0:0:0:
153,192,103367,1,0,0:0:0:0:
256,192,103442,1,0,0:0:0:0:
358,192,103516,1,0,0:0:0:0:
256,192,103591,1,0,0:0:0:0:
460,192,103666,1,0,0:0:0:0:
358,192,103741,1,0,0:0:0:0:
460,192,103816,1,0,0:0:0:0:
153,192,103891,1,0,0:0:0:0:
153,192,104041,128,0,104490:0:0:0:0:
256,192,104041,128,0,104490:0:0:0:0:
358,192,104041,128,0,104490:0:0:0:0:
153,192,104565,128,0,105015:0:0:0:0:
256,192,104565,128,0,105015:0:0:0:0:
358,192,104565,128,0,105015:0:0:0:0:
153,192,105089,128,0,105464:0:0:0:0:
256,192,105089,128,0,105464:0:0:0:0:
358,192,105089,128,0,105464:0:0:0:0:
153,192,105539,128,0,105913:0:0:0:0:
256,192,105539,128,0,105913:0:0:0:0:
358,192,105539,128,0,105913:0:0:0:0:
153,192,105988,1,0,0:0:0:0:
256,192,106063,1,0,0:0:0:0:
358,192,106138,1,0,0:0:0:0:
256,192,106213,128,0,106812:0:0:0:0:
153,192,106887,1,0,0:0:0:0:
51,192,107037,1,0,0:0:0:0:
358,192,107187,1,0,0:0:0:0:
256,192,107337,1,0,0:0:0:0:
51,192,107486,1,0,0:0:0:0:
460,192,107636,1,0,0:0:0:0:
358,192,107786,1,0,0:0:0:0:
460,192,107936,1,0,0:0:0:0:
256,192,108086,1,0,0:0:0:0:
51,192,108236,1,0,0:0:0:0:
358,192,108385,1,0,0:0:0:0:
153,192,108535,1,0,0:0:0:0:
460,192,108685,1,0,0:0:0:0:
256,192,108835,1,0,0:0:0:0:
256,192,108985,1,0,0:0:0:0:
51,192,109134,1,0,0:0:0:0:
51,192,109284,128,0,109883:0:0:0:0:
256,192,109284,128,0,109883:0:0:0:0:
460,192,109284,128,0,109883:0:0:0:0:
51,192,110033,128,0,110183:0:0:0:0:
153,192,110033,128,0,110183:0:0:0:0:
256,192,110033,128,0,110183:0:0:0:0:
358,192,110033,128,0,110183:0:0:0:0:
460,192,110033,128,0,110183:0:0:0:0:
51,192,110258,128,0,110408:0:0:0:0:
153,192,110258,128,0,110408:0:0:0:0:
256,192,110258,128,0,110408:0:0:0:0:
358,192,110258,128,0,110408:0:0:0:0:
460,192,110258,128,0,110408:0:0:0:0:
460,192,110483,128,0,110633:0:0:0:0:
358,192,110483,128,0,110633:0:0:0:0:
256,192,110483,128,0,110633:0:0:0:0:
153,192,110483,128,0,110633:0:0:0:0:
51,192,110483,128,0,110633:0:0:0:0:
51,192,110707,128,0,110857:0:0:0:0:
153,192,110707,128,0,110857:0:0:0:0:
256,192,110707,128,0,110857:0:0:0:0:
358,192,110707,128,0,110857:0:0:0:0:
460,192,110707,128,0,110857:0:0:0:0:
460,192,110932,128,0,111082:0:0:0:0:
358,192,110932,128,0,111082:0:0:0:0:
256,192,110932,128,0,111082:0:0:0:0:
153,192,110932,128,0,111082:0:0:0:0:
51,192,110932,128,0,111082:0:0:0:0:
51,192,111157,128,0,111307:0:0:0:0:
153,192,111157,128,0,111307:0:0:0:0:
256,192,111157,128,0,111307:0:0:0:0:
358,192,111157,128,0,111307:0:0:0:0:
460,192,111157,128,0,111307:0:0:0:0:
51,192,111382,128,0,111531:0:0:0:0:
153,192,111382,128,0,111531:0:0:0:0:
256,192,111382,128,0,111531:0:0:0:0:
358,192,111382,128,0,111531:0:0:0:0:
460,192,111382,128,0,111531:0:0:0:0:
51,192,111606,128,0,111756:0:0:0:0:
153,192,111606,128,0,111756:0:0:0:0:
256,192,111606,128,0,111756:0:0:0:0:
358,192,111606,128,0,111756:0:0:0:0:
460,192,111606,128,0,111756:0:0:0:0:
460,192,111831,128,0,111981:0:0:0:0:
358,192,111831,128,0,111981:0:0:0:0:
256,192,111831,128,0,111981:0:0:0:0:
153,192,111831,128,0,111981:0:0:0:0:
51,192,111831,128,0,111981:0:0:0:0:
51,192,112056,128,0,112206:0:0:0:0:
153,192,112056,128,0,112206:0:0:0:0:
256,192,112056,128,0,112206:0:0:0:0:
358,192,112056,128,0,112206:0:0:0:0:
460,192,112056,128,0,112206:0:0:0:0:
460,192,112280,128,0,112730:0:0:0:0:
256,192,112280,128,0,112730:0:0:0:0:
153,192,112280,128,0,112730:0:0:0:0:
51,192,112280,128,0,112730:0:0:0:0:
358,192,112280,128,0,112730:0:0:0:0:
51,192,112805,128,0,112955:0:0:0:0:
153,192,112805,128,0,112955:0:0:0:0:
256,192,112805,128,0,112955:0:0:0:0:
358,192,112805,128,0,112955:0:0:0:0:
460,192,112805,128,0,112955:0:0:0:0:
460,192,113030,128,0,113179:0:0:0:0:
358,192,113030,128,0,113179:0:0:0:0:
256,192,113030,128,0,113179:0:0:0:0:
153,192,113030,128,0,113179:0:0:0:0:
51,192,113030,128,0,113179:0:0:0:0:
51,192,113254,128,0,113404:0:0:0:0:
153,192,113254,128,0,113404:0:0:0:0:
256,192,113254,128,0,113404:0:0:0:0:
358,192,113254,128,0,113404:0:0:0:0:
460,192,113254,128,0,113404:0:0:0:0:
51,192,113479,128,0,113629:0:0:0:0:
153,192,113479,128,0,113629:0:0:0:0:
256,192,113479,128,0,113629:0:0:0:0:
358,192,113479,128,0,113629:0:0:0:0:
460,192,113479,128,0,113629:0:0:0:0:
51,192,113704,128,0,113854:0:0:0:0:
153,192,113704,128,0,113854:0:0:0:0:
256,192,113704,128,0,113854:0:0:0:0:
358,192,113704,128,0,113854:0:0:0:0:
460,192,113704,128,0,113854:0:0:0:0:
460,192,113928,128,0,114078:0:0:0:0:
358,192,113928,128,0,114078:0:0:0:0:
256,192,113928,128,0,114078:0:0:0:0:
153,192,113928,128,0,114078:0:0:0:0:
51,192,113928,128,0,114078:0:0:0:0:
51,192,114153,128,0,114303:0:0:0:0:
153,192,114153,128,0,114303:0:0:0:0:
256,192,114153,128,0,114303:0:0:0:0:
358,192,114153,128,0,114303:0:0:0:0:
460,192,114153,128,0,114303:0:0:0:0:
51,192,114378,128,0,114528:0:0:0:0:
153,192,114378,128,0,114528:0:0:0:0:
256,192,114378,128,0,114528:0:0:0:0:
358,192,114378,128,0,114528:0:0:0:0:
460,192,114378,128,0,114528:0:0:0:0:
460,192,114603,128,0,114752:0:0:0:0:
358,192,114603,128,0,114752:0:0:0:0:
256,192,114603,128,0,114752:0:0:0:0:
153,192,114603,128,0,114752:0:0:0:0:
51,192,114603,128,0,114752:0:0:0:0:
51,192,114827,128,0,114977:0:0:0:0:
153,192,114827,128,0,114977:0:0:0:0:
256,192,114827,128,0,114977:0:0:0:0:
358,192,114827,128,0,114977:0:0:0:0:
460,192,114827,128,0,114977:0:0:0:0:
51,192,115122,128,0,115797:0:0:0:0:
153,192,115122,128,0,115797:0:0:0:0:
256,192,115122,128,0,115797:0:0:0:0:
358,192,115122,128,0,115797:0:0:0:0:
460,192,115122,128,0,115797:0:0:0:0:
256,192,115947,128,0,116547:0:0:0:0:
358,192,115947,128,0,116547:0:0:0:0:
51,192,116622,128,0,117297:0:0:0:0:
460,192,116622,128,0,117297:0:0:0:0:
153,192,116697,1,0,0:0:0:0:
358,192,116847,1,0,0:0:0:0:
153,192,116997,1,0,0:0:0:0:
358,192,117147,1,0,0:0:0:0:
256,192,117297,128,0,118047:0:0:0:0:
153,192,118197,128,0,118797:0:0:0:0:
358,192,118197,128,0,118797:0:0:0:0:
153,192,118947,1,0,0:0:0:0:
358,192,119022,1,0,0:0:0:0:
51,192,119097,1,0,0:0:0:0:
460,192,119172,1,0,0:0:0:0:
358,192,119247,1,0,0:0:0:0:
153,192,119322,1,0,0:0:0:0:
256,192,119397,1,0,0:0:0:0:
358,192,119472,1,0,0:0:0:0:
256,192,119547,1,0,0:0:0:0:
358,192,119622,1,0,0:0:0:0:
460,192,119697,1,0,0:0:0:0:
51,192,119772,1,0,0:0:0:0:
256,192,119847,1,0,0:0:0:0:
153,192,119922,1,0,0:0:0:0:
358,192,119997,1,0,0:0:0:0:
51,192,120072,1,0,0:0:0:0:
460,192,120147,1,0,0:0:0:0:
256,192,120222,1,0,0:0:0:0:
358,192,120297,1,0,0:0:0:0:
51,192,120372,1,0,0:0:0:0:
358,192,120447,128,0,121872:0:0:0:0:
153,192,120447,128,0,121872:0:0:0:0:
256,192,121947,128,0,122622:0:0:0:0:
460,192,121947,128,0,122622:0:0:0:0:
51,192,121947,128,0,122622:0:0:0:0:
153,192,122772,128,0,125097:0:0:0:0:
51,192,122772,1,0,0:0:0:0:
256,192,122847,128,0,122997:0:0:0:0:
51,192,122997,1,0,0:0:0:0:
460,192,123072,128,0,123222:0:0:0:0:
51,192,123222,1,0,0:0:0:0:
256,192,123297,128,0,124122:0:0:0:0:
51,192,123447,1,0,0:0:0:0:
51,192,123672,1,0,0:0:0:0:
51,192,123897,1,0,0:0:0:0:
51,192,124122,128,0,125097:0:0:0:0:
460,192,124197,128,0,125097:0:0:0:0:
460,192,125247,128,0,125322:0:0:0:0:
358,192,125247,128,0,125322:0:0:0:0:
256,192,125247,128,0,125322:0:0:0:0:
153,192,125247,128,0,125322:0:0:0:0:
51,192,125247,128,0,125322:0:0:0:0:
256,192,125697,128,0,126897:0:0:0:0:
153,192,125772,1,0,0:0:0:0:
51,192,125922,1,0,0:0:0:0:
460,192,126072,1,0,0:0:0:0:
153,192,126222,1,0,0:0:0:0:
460,192,126372,1,0,0:0:0:0:
153,192,126522,128,0,126897:0:0:0:0:
256,192,127047,128,0,127197:0:0:0:0:
460,192,127197,128,0,127872:0:0:0:0:
51,192,127197,128,0,127872:0:0:0:0:
153,192,127947,1,0,0:0:0:0:
256,192,128022,1,0,0:0:0:0:
153,192,128097,1,0,0:0:0:0:
358,192,128172,1,0,0:0:0:0:
460,192,128247,1,0,0:0:0:0:
51,192,128322,1,0,0:0:0:0:
256,192,128397,1,0,0:0:0:0:
153,192,128472,1,0,0:0:0:0:
358,192,128547,1,0,0:0:0:0:
256,192,128622,1,0,0:0:0:0:
460,192,128697,1,0,0:0:0:0:
358,192,128772,1,0,0:0:0:0:
460,192,128847,1,0,0:0:0:0:
256,192,128922,1,0,0:0:0:0:
51,192,128997,1,0,0:0:0:0:
153,192,129072,1,0,0:0:0:0:
358,192,129147,1,0,0:0:0:0:
256,192,129222,1,0,0:0:0:0:
153,192,129297,1,0,0:0:0:0:
460,192,129372,1,0,0:0:0:0:
256,192,129447,1,0,0:0:0:0:
358,192,129522,1,0,0:0:0:0:
256,192,129597,1,0,0:0:0:0:
51,192,129672,1,0,0:0:0:0:
256,192,129747,1,0,0:0:0:0:
460,192,129822,1,0,0:0:0:0:
153,192,129897,1,0,0:0:0:0:
256,192,129972,128,0,130947:0:0:0:0:
153,192,131097,128,0,131772:0:0:0:0:
460,192,131247,128,0,131697:0:0:0:0:
358,192,131697,128,0,132447:0:0:0:0:
51,192,132522,128,0,133722:0:0:0:0:
153,192,132522,128,0,133722:0:0:0:0:
256,192,132522,128,0,133722:0:0:0:0:
358,192,133797,1,0,0:0:0:0:
460,192,133872,1,0,0:0:0:0:
256,192,133947,1,0,0:0:0:0:
51,192,134022,1,0,0:0:0:0:
256,192,134097,1,0,0:0:0:0:
153,192,134172,1,0,0:0:0:0:
358,192,134247,1,0,0:0:0:0:
51,192,134322,1,0,0:0:0:0:
460,192,134397,1,0,0:0:0:0:
358,192,134472,1,0,0:0:0:0:
153,192,134547,1,0,0:0:0:0:
256,192,134622,1,0,0:0:0:0:
51,192,134697,1,0,0:0:0:0:
358,192,134772,1,0,0:0:0:0:
460,192,134847,1,0,0:0:0:0:
153,192,134922,1,0,0:0:0:0:
358,192,134997,1,0,0:0:0:0:
256,192,135072,1,0,0:0:0:0:
51,192,135147,1,0,0:0:0:0:
153,192,135222,1,0,0:0:0:0:
51,192,135297,1,0,0:0:0:0:
460,192,135372,1,0,0:0:0:0:
358,192,135447,1,0,0:0:0:0:
460,192,135522,1,0,0:0:0:0:
358,192,135597,1,0,0:0:0:0:
256,192,135672,1,0,0:0:0:0:
153,192,135747,1,0,0:0:0:0:
256,192,135822,1,0,0:0:0:0:
153,192,135897,1,0,0:0:0:0:
51,192,135972,1,0,0:0:0:0:
153,192,136047,1,0,0:0:0:0:
256,192,136122,1,0,0:0:0:0:
358,192,136197,1,0,0:0:0:0:
256,192,136272,1,0,0:0:0:0:
358,192,136347,1,0,0:0:0:0:
460,192,136422,1,0,0:0:0:0:
51,192,136497,1,0,0:0:0:0:
256,192,136572,1,0,0:0:0:0:
153,192,136647,1,0,0:0:0:0:
358,192,136722,1,0,0:0:0:0:
256,192,136797,1,0,0:0:0:0:
51,192,136872,1,0,0:0:0:0:
460,192,136947,1,0,0:0:0:0:
358,192,137022,1,0,0:0:0:0:
153,192,137097,1,0,0:0:0:0:
358,192,137172,1,0,0:0:0:0:
51,192,137247,1,0,0:0:0:0:
460,192,137322,1,0,0:0:0:0:
256,192,137397,1,0,0:0:0:0:
51,192,137472,128,0,138147:0:0:0:0:
153,192,137547,128,0,137697:0:0:0:0:
256,192,137622,1,0,0:0:0:0:
358,192,137772,128,0,137922:0:0:0:0:
256,192,137847,1,0,0:0:0:0:
153,192,137997,128,0,138147:0:0:0:0:
256,192,138072,1,0,0:0:0:0:
460,192,138222,128,0,139047:0:0:0:0:
358,192,138222,128,0,138372:0:0:0:0:
51,192,138372,128,0,139047:0:0:0:0:
153,192,139122,128,0,139797:0:0:0:0:
256,192,139122,128,0,139797:0:0:0:0:
358,192,139122,128,0,139797:0:0:0:0:
153,192,139947,128,0,140622:0:0:0:0:
256,192,139947,1,0,0:0:0:0:
256,192,140097,128,0,140172:0:0:0:0:
358,192,140172,128,0,140322:0:0:0:0:
51,192,140397,128,0,140547:0:0:0:0:
460,192,140397,128,0,140472:0:0:0:0:
358,192,140547,128,0,140772:0:0:0:0:
51,192,140847,128,0,140997:0:0:0:0:
256,192,140847,1,0,0:0:0:0:
460,192,140922,128,0,140997:0:0:0:0:
358,192,140997,128,0,141147:0:0:0:0:
153,192,141072,128,0,141222:0:0:0:0:
460,192,141222,128,0,141297:0:0:0:0:
256,192,141297,128,0,141522:0:0:0:0:
51,192,141372,128,0,141522:0:0:0:0:
153,192,141447,1,0,0:0:0:0:
358,192,141522,128,0,141672:0:0:0:0:
460,192,141522,1,0,0:0:0:0:
153,192,141672,128,0,141747:0:0:0:0:
51,192,141672,128,0,141747:0:0:0:0:
256,192,141672,1,0,0:0:0:0:
460,192,141747,128,0,141972:0:0:0:0:
256,192,141822,128,0,141972:0:0:0:0:
51,192,141897,1,0,0:0:0:0:
358,192,142047,128,0,142272:0:0:0:0:
153,192,142047,128,0,142272:0:0:0:0:
256,192,142122,1,0,0:0:0:0:
51,192,142197,128,0,142272:0:0:0:0:
460,192,142272,128,0,142422:0:0:0:0:
256,192,142347,128,0,142422:0:0:0:0:
153,192,142422,1,0,0:0:0:0:
51,192,142497,128,0,142722:0:0:0:0:
358,192,142497,128,0,142572:0:0:0:0:
460,192,142572,1,0,0:0:0:0:
153,192,142647,128,0,142797:0:0:0:0:
256,192,142722,1,0,0:0:0:0:
460,192,142797,128,0,142947:0:0:0:0:
256,192,142872,128,0,142947:0:0:0:0:
51,192,142872,1,0,0:0:0:0:
51,192,143022,128,0,145797:0:0:0:0:
153,192,143097,128,0,145797:0:0:0:0:
256,192,143172,128,0,145797:0:0:0:0:
358,192,143397,128,0,145797:0:0:0:0:
460,192,143622,1,0,0:0:0:0:
460,192,143847,1,0,0:0:0:0:
460,192,144072,1,0,0:0:0:0:
460,192,144297,1,0,0:0:0:0:
460,192,144522,128,0,145797:0:0:0:0:
51,192,145947,1,0,0:0:0:0:
256,192,146022,1,0,0:0:0:0:
51,192,146097,1,0,0:0:0:0:
358,192,146172,1,0,0:0:0:0:
460,192,146247,1,0,0:0:0:0:
256,192,146322,1,0,0:0:0:0:
51,192,146397,1,0,0:0:0:0:
153,192,146472,1,0,0:0:0:0:
358,192,146547,1,0,0:0:0:0:
153,192,146622,1,0,0:0:0:0:
256,192,146697,1,0,0:0:0:0:
460,192,146772,1,0,0:0:0:0:
256,192,146847,1,0,0:0:0:0:
51,192,146922,1,0,0:0:0:0:
153,192,146997,1,0,0:0:0:0:
51,192,147072,1,0,0:0:0:0:
256,192,147147,1,0,0:0:0:0:
358,192,147222,1,0,0:0:0:0:
256,192,147297,1,0,0:0:0:0:
358,192,147372,1,0,0:0:0:0:
460,192,147447,1,0,0:0:0:0:
358,192,147522,1,0,0:0:0:0:
460,192,147597,1,0,0:0:0:0:
51,192,147672,1,0,0:0:0:0:
153,192,147747,1,0,0:0:0:0:
51,192,147822,1,0,0:0:0:0:
153,192,147897,1,0,0:0:0:0:
256,192,147972,1,0,0:0:0:0:
358,192,148047,1,0,0:0:0:0:
256,192,148122,1,0,0:0:0:0:
358,192,148197,1,0,0:0:0:0:
460,192,148272,1,0,0:0:0:0:
256,192,148347,1,0,0:0:0:0:
153,192,148422,1,0,0:0:0:0:
51,192,148497,1,0,0:0:0:0:
256,192,148572,1,0,0:0:0:0:
460,192,148647,1,0,0:0:0:0:
358,192,148722,1,0,0:0:0:0:
256,192,148797,1,0,0:0:0:0:
358,192,148872,1,0,0:0:0:0:
153,192,148947,1,0,0:0:0:0:
51,192,149022,1,0,0:0:0:0:
256,192,149097,1,0,0:0:0:0:
358,192,149172,1,0,0:0:0:0:
256,192,149247,1,0,0:0:0:0:
51,192,149322,1,0,0:0:0:0:
460,192,149397,1,0,0:0:0:0:
256,192,149472,1,0,0:0:0:0:
153,192,149547,1,0,0:0:0:0:
358,192,149622,1,0,0:0:0:0:
153,192,149697,1,0,0:0:0:0:
358,192,149772,1,0,0:0:0:0:
51,192,149847,1,0,0:0:0:0:
460,192,149922,1,0,0:0:0:0:
51,192,149997,1,0,0:0:0:0:
460,192,150072,1,0,0:0:0:0:
256,192,150147,1,0,0:0:0:0:
153,192,150222,1,0,0:0:0:0:
256,192,150297,1,0,0:0:0:0:
153,192,150372,1,0,0:0:0:0:
358,192,150447,1,0,0:0:0:0:
460,192,150522,1,0,0:0:0:0:
358,192,150597,1,0,0:0:0:0:
256,192,150672,1,0,0:0:0:0:
153,192,150747,1,0,0:0:0:0:
358,192,150822,1,0,0:0:0:0:
460,192,150897,1,0,0:0:0:0:
358,192,150972,1,0,0:0:0:0:
153,192,151047,1,0,0:0:0:0:
51,192,151122,1,0,0:0:0:0:
153,192,151197,1,0,0:0:0:0:
256,192,151272,1,0,0:0:0:0:
153,192,151347,1,0,0:0:0:0:
256,192,151422,1,0,0:0:0:0:
358,192,151497,1,0,0:0:0:0:
460,192,151572,1,0,0:0:0:0:
256,192,151647,1,0,0:0:0:0:
51,192,151722,1,0,0:0:0:0:
153,192,151797,1,0,0:0:0:0:
358,192,151872,1,0,0:0:0:0:
460,192,151947,1,0,0:0:0:0:
256,192,152022,1,0,0:0:0:0:
153,192,152097,1,0,0:0:0:0:
256,192,152172,1,0,0:0:0:0:
51,192,152247,1,0,0:0:0:0:
153,192,152322,1,0,0:0:0:0:
358,192,152397,1,0,0:0:0:0:
460,192,152472,1,0,0:0:0:0:
256,192,152547,1,0,0:0:0:0:
153,192,152622,1,0,0:0:0:0:
51,192,152697,1,0,0:0:0:0:
153,192,152772,1,0,0:0:0:0:
358,192,152847,1,0,0:0:0:0:
153,192,152922,1,0,0:0:0:0:
358,192,152997,1,0,0:0:0:0:
460,192,153072,1,0,0:0:0:0:
358,192,153147,1,0,0:0:0:0:
153,192,153222,1,0,0:0:0:0:
51,192,153297,1,0,0:0:0:0:
256,192,153372,1,0,0:0:0:0:
153,192,153447,1,0,0:0:0:0:
256,192,153522,1,0,0:0:0:0:
358,192,153597,1,0,0:0:0:0:
256,192,153672,1,0,0:0:0:0:
358,192,153747,1,0,0:0:0:0:
153,192,153822,1,0,0:0:0:0:
51,192,153897,1,0,0:0:0:0:
358,192,153972,1,0,0:0:0:0:
460,192,154047,1,0,0:0:0:0:
256,192,154122,1,0,0:0:0:0:
153,192,154197,1,0,0:0:0:0:
256,192,154272,1,0,0:0:0:0:
358,192,154347,1,0,0:0:0:0:
460,192,154422,1,0,0:0:0:0:
358,192,154497,1,0,0:0:0:0:
460,192,154572,1,0,0:0:0:0:
256,192,154647,1,0,0:0:0:0:
153,192,154722,1,0,0:0:0:0:
51,192,154797,1,0,0:0:0:0:
153,192,154872,1,0,0:0:0:0:
256,192,154947,1,0,0:0:0:0:
51,192,155022,128,0,155472:0:0:0:0:
256,192,155172,128,0,155397:0:0:0:0:
460,192,155547,128,0,155772:0:0:0:0:
153,192,156222,128,0,157797:0:0:0:0:
358,192,156222,128,0,157797:0:0:0:0:
256,192,156222,128,0,157797:0:0:0:0:
153,192,158022,1,0,0:0:0:0:
358,192,158172,1,0,0:0:0:0:
256,192,158322,128,0,158997:0:0:0:0:
358,192,159147,1,0,0:0:0:0:
153,192,159297,1,0,0:0:0:0:
358,192,159447,1,0,0:0:0:0:
460,192,159672,128,0,160722:0:0:0:0:
358,192,160872,1,0,0:0:0:0:
153,192,161022,1,0,0:0:0:0:
358,192,161172,128,0,161997:0:0:0:0:
153,192,162147,1,0,0:0:0:0:
51,192,162297,1,0,0:0:0:0:
256,192,162447,1,0,0:0:0:0:
358,192,162597,1,0,0:0:0:0:
51,192,162747,128,0,163797:0:0:0:0:
256,192,162747,128,0,163797:0:0:0:0:
460,192,162747,128,0,163797:0:0:0:0:
