osu file format v14

[General]
AudioFilename: audio.mp3
AudioLeadIn: 0
PreviewTime: 184383
Countdown: 0
SampleSet: Soft
StackLeniency: 0.7
Mode: 0
LetterboxInBreaks: 0
WidescreenStoryboard: 0

[Editor]
Bookmarks: 30174,178490,196857,209715
DistanceSpacing: 0.9
BeatDivisor: 4
GridSize: 4
TimelineZoom: 2

[Metadata]
Title:Bloom
TitleUnicode:Bloom
Artist:The Winking Owl
ArtistUnicode:The Winking Owl
Creator:Shmiklak
Version:Chalwa's Normal
Source:
Tags:marvollo m_a_r_v_o_l_l_o Lokidoki Marianna chalwa ザ ウィンキング オウル BLOOMING Luiza neoskylove Affirmation namki english japanese
BeatmapID:1349204
BeatmapSetID:602408

[Difficulty]
HPDrainRate:4
CircleSize:3
OverallDifficulty:4.5
ApproachRate:5
SliderMultiplier:1.05
SliderTickRate:1

[Events]
//Background and Video events
0,0,"the best map of shmoklok.jpg",0,0
Video,0,"opto.flv"
//Break Periods
2,76445,84841
2,126649,144841
2,165833,173004
//Storyboard Layer 0 (Background)
//Storyboard Layer 1 (Fail)
//Storyboard Layer 2 (Pass)
//Storyboard Layer 3 (Foreground)
//Storyboard Sound Samples

[TimingPoints]
5225,306.122448979592,4,2,0,80,1,0
56653,-100,4,2,0,80,0,1
76245,-100,4,2,0,80,0,0
106857,-100,4,2,0,80,0,1
126449,-100,4,2,0,80,0,0
160735,-100,4,2,0,80,0,1
165633,-100,4,2,0,80,0,0
180327,-100,4,2,0,80,0,1
183694,-100,4,2,0,80,0,0
184459,-100,4,2,0,5,0,0
184766,-100,4,2,0,80,0,0
185225,-100,4,2,0,80,0,1
204816,-100,4,2,0,80,0,0
225633,-200,4,2,0,60,0,0
226857,-100,4,2,0,50,0,0
228082,-100,4,2,0,40,0,0
229306,-100,4,2,0,30,0,0
230531,-100,4,2,0,20,0,0
231755,-100,4,2,0,10,0,0

[Colours]
Combo1 : 122,100,189
Combo2 : 248,233,54
Combo3 : 79,242,87
Combo4 : 186,87,82

[HitObjects]
112,292,5225,5,4,0:1:0:0:
168,216,5531,2,0,L|288:208,1,105,0|0,1:0|0:0,0:0:0:0:
348,152,6143,1,0,1:0:0:0:
424,208,6449,2,0,L|440:324,2,105,0|0|0,0:0|1:0|1:0,0:0:0:0:
460,176,7215,2,0,L|452:116,1,52.5,2|0,3:0|1:0,0:0:0:0:
386,57,7674,6,0,L|394:1,2,52.5,4|0|0,0:1|0:0|1:0,0:0:0:0:
308,108,8286,2,0,P|271:113|204:89,1,105,0|0,0:0|1:0,0:0:0:0:
116,68,8898,2,0,L|108:188,1,105,0|0,0:0|1:0,0:0:0:0:
128,264,9510,2,0,L|192:260,1,52.5,0|2,1:0|3:0,0:0:0:0:
214,294,9817,2,0,L|278:298,1,52.5,0|0,1:0|0:0,0:0:0:0:
299,263,10123,5,4,0:1:0:0:
348,344,10429,2,0,P|400:353|469:333,1,105,0|0,1:0|0:0,0:0:0:0:
512,268,11041,1,0,1:0:0:0:
460,192,11347,2,0,L|448:80,1,105,0|0,0:0|1:0,0:0:0:0:
356,64,11959,2,0,L|368:176,1,105,0|0,1:0|1:0,0:0:0:0:
404,256,12572,6,0,L|412:320,2,52.5,4|0|0,0:1|0:0|1:0,0:0:0:0:
320,212,13184,2,0,P|272:200|216:212,1,105,0|0,0:0|1:0,0:0:0:0:
133,252,13796,2,0,L|128:144,1,105,4|0,0:1|1:0,0:0:0:0:
161,113,14255,2,0,P|209:101|265:113,1,105,2|0,0:0|3:0,0:0:0:0:
303,87,14715,1,8,3:0:0:0:
380,140,15021,5,4,0:1:0:0:
448,204,15327,2,0,P|477:248|474:306,1,105,0|0,1:0|0:0,0:0:0:0:
388,268,15939,1,0,1:0:0:0:
308,216,16245,2,0,L|184:224,2,105,0|0|0,0:0|1:0|1:0,0:0:0:0:
339,179,17010,2,0,L|403:175,1,52.5,2|0,3:0|1:0,0:0:0:0:
444,96,17470,6,0,L|496:92,2,52.5,4|0|0,0:1|0:0|1:0,0:0:0:0:
356,68,18082,2,0,L|232:76,1,105,0|0,0:0|1:0,0:0:0:0:
172,124,18694,1,0,0:0:0:0:
96,68,19000,1,0,1:0:0:0:
88,160,19306,2,0,L|84:212,1,52.5,0|2,1:0|3:0,0:0:0:0:
124,236,19612,2,0,L|128:288,1,52.5,0|2,1:0|3:0,0:0:0:0:
100,324,19919,5,4,0:1:0:0:
188,360,20225,2,0,L|300:348,1,105,0|0,1:0|0:0,0:0:0:0:
352,276,20837,1,0,1:0:0:0:
424,212,21143,2,0,P|440:156|416:92,1,105,0|0,0:0|1:0,0:0:0:0:
356,52,21755,2,0,P|300:68|236:44,1,105,0|0,1:0|1:0,0:0:0:0:
164,88,22368,6,0,L|164:156,2,52.5,4|0|0,0:1|0:0|1:0,0:0:0:0:
72,60,22980,2,0,L|72:176,1,105,0|0,0:0|1:0,0:0:0:0:
72,259,23592,1,0,0:0:0:0:
138,325,23898,2,0,B|191:308|191:308|254:323,1,105,0|0,1:0|3:0,0:0:0:0:
326,355,24510,1,8,3:0:0:0:
412,316,24817,6,0,P|432:276|436:216,1,105,0|0,3:1|3:1,0:0:0:0:
504,152,25429,2,0,P|484:112|480:52,1,105,0|8,3:1|3:0,0:0:0:0:
384,56,26041,6,0,B|356:48|356:48|268:56,1,105,4|0,0:1|1:0,0:0:0:0:
200,120,26653,2,0,B|172:128|172:128|84:120,1,105,0|0,1:0|1:0,0:0:0:0:
16,72,27266,2,0,L|16:7,2,52.5,0|0|0,0:0|3:0|1:0,0:0:0:0:
8,120,27725,2,0,P|3:176|15:234,1,105,2|0,0:0|3:0,0:0:0:0:
32,268,28184,1,0,1:0:0:0:
104,328,28490,6,0,P|152:324|212:328,1,105,4|0,0:1|1:0,0:0:0:0:
300,356,29102,2,0,P|296:308|300:248,1,105,0|0,0:0|1:0,0:0:0:0:
232,188,29715,2,0,P|164:176|72:196,2,157.5,2|2|0,0:0|0:0|1:0,0:0:0:0:
304,128,30939,6,0,L|320:20,1,105,4|0,0:1|1:0,0:0:0:0:
408,52,31551,2,0,L|392:160,1,105,0|0,1:0|1:0,0:0:0:0:
392,248,32163,2,0,P|424:252|448:248,2,52.5,2|0|0,0:0|3:0|1:0,0:0:0:0:
300,220,32776,2,0,P|248:212|176:224,1,105,0|0,0:0|1:0,0:0:0:0:
152,228,33235,1,0,3:0:0:0:
152,228,33388,6,0,P|100:236|28:224,2,105,4|0|0,0:1|1:0|0:0,0:0:0:0:
100,148,34306,1,0,1:0:0:0:
56,64,34612,2,0,B|108:56|108:56|168:76,1,105,2|0,0:0|1:0,0:0:0:0:
252,88,35225,2,0,B|304:96|304:96|364:76,1,105,0|0,1:0|1:0,0:0:0:0:
392,52,35684,1,0,3:0:0:0:
392,52,35837,6,0,L|392:176,1,105,4|0,0:1|1:0,0:0:0:0:
332,232,36449,2,0,L|332:356,1,105,0|0,1:0|1:0,0:0:0:0:
244,372,37061,2,0,P|216:376|180:364,2,52.5,2|0|0,0:0|3:0|1:0,0:0:0:0:
224,280,37674,2,0,P|164:276|120:312,1,105,0|0,0:0|1:0,0:0:0:0:
92,332,38133,1,0,3:0:0:0:
92,332,38286,6,0,L|92:220,1,105,4|0,0:1|1:0,0:0:0:0:
44,148,38898,2,0,L|152:128,1,105,0|0,1:0|1:0,0:0:0:0:
240,136,39510,2,0,P|288:148|344:136,1,105,2|0,0:0|1:0,0:0:0:0:
372,100,39970,2,0,P|422:89|473:101,1,105,2|0,0:0|3:0,0:0:0:0:
496,140,40429,1,0,1:0:0:0:
456,224,40735,5,4,0:1:0:0:
408,304,41041,1,0,1:0:0:0:
328,256,41347,2,0,L|208:248,1,105,0|0,1:0|1:0,0:0:0:0:
160,180,41959,2,0,L|40:172,1,105,2|0,0:0|1:0,0:0:0:0:
16,148,42419,2,0,P|36:104|32:32,1,105,2|0,0:0|3:0,0:0:0:0:
60,8,42878,1,0,1:0:0:0:
144,52,43184,6,0,L|264:56,1,105,4|0,0:1|1:0,0:0:0:0:
336,16,43796,1,0,0:0:0:0:
404,80,44102,1,0,1:0:0:0:
368,168,44408,2,0,P|352:248|388:320,2,157.5,0|0|0,0:0|3:0|3:0,0:0:0:0:
316,88,45633,6,0,L|200:80,1,105,4|0,0:1|1:0,0:0:0:0:
164,164,46245,2,0,L|280:172,1,105,0|0,1:0|1:0,0:0:0:0:
224,256,46857,2,0,L|108:248,1,105,2|0,0:0|1:0,0:0:0:0:
84,280,47317,1,0,0:0:0:0:
84,280,47470,2,0,P|68:324|80:384,1,105,0|0,1:0|1:0,0:0:0:0:
160,336,48082,5,4,0:1:0:0:
252,348,48388,1,0,0:0:0:0:
344,364,48694,1,0,1:0:0:0:
436,380,49000,2,0,P|464:280|424:168,1,210,0|0,1:0|1:0,0:0:0:0:
372,108,49919,2,0,L|268:92,1,105,0|0,1:0|1:0,0:0:0:0:
192,36,50531,6,0,P|176:92|188:140,1,105,4|0,0:1|1:0,0:0:0:0:
256,200,51143,2,0,P|272:256|260:304,2,105,0|0|2,1:0|1:0|0:0,0:0:0:0:
164,224,52061,1,0,1:0:0:0:
76,260,52368,2,0,P|60:316|72:364,1,105,0|0,0:0|1:0,0:0:0:0:
152,316,52980,5,2,0:0:0:0:
240,348,53286,1,0,0:0:0:0:
332,372,53592,2,0,B|324:320|328:268|328:268|360:280|404:272|432:236|440:192|432:164|408:120|384:96|336:88|292:96|248:136|244:184|268:224,1,525,0|0,1:0|1:0,0:0:0:0:
204,292,55429,6,0,P|164:304|88:276,1,105,0|0,3:0|3:0,0:0:0:0:
16,320,56041,2,0,L|16:384,2,52.5,0|0|8,3:0|3:0|3:0,0:0:0:0:
20,224,56653,6,0,L|20:104,1,105,4|0,0:1|1:0,0:0:0:0:
44,80,57112,2,0,P|88:64|156:88,1,105,2|0,0:0|3:0,0:0:0:0:
180,108,57572,1,0,1:0:0:0:
256,164,57878,2,0,P|300:180|368:156,2,105,2|0|0,0:0|1:0|1:0,0:0:0:0:
168,200,58796,1,0,1:0:0:0:
84,244,59102,6,0,P|56:312|96:388,2,157.5,4|2|0,0:1|0:0|1:0,0:0:0:0:
168,200,60327,2,0,P|180:148|168:96,1,105,2|0,0:0|1:0,0:0:0:0:
240,36,60939,2,0,P|292:48|344:36,1,105,0|0,1:0|1:0,0:0:0:0:
412,100,61551,5,4,0:1:0:0:
356,176,61857,2,0,P|344:228|356:280,1,105,0|0,1:0|0:0,0:0:0:0:
420,348,62470,1,0,1:0:0:0:
328,360,62776,2,0,L|204:360,1,105,4|0,0:1|1:0,0:0:0:0:
144,304,63388,1,0,1:0:0:0:
64,356,63694,1,0,1:0:0:0:
64,260,64000,6,0,B|72:184|72:184|44:96,1,157.5,4|2,0:1|0:0,0:0:0:0:
112,36,64766,1,0,3:0:0:0:
112,36,64919,2,0,L|148:136,1,105,0|4,1:0|0:1,0:0:0:0:
232,180,65531,1,0,1:0:0:0:
320,148,65837,2,0,P|372:136|440:156,1,105,2|8,3:0|0:3,0:0:0:0:
480,220,66449,6,0,P|492:272|472:340,1,105,4|0,0:1|1:0,0:0:0:0:
444,348,66908,2,0,L|340:352,1,105,2|0,0:0|3:0,0:0:0:0:
300,324,67368,1,0,1:0:0:0:
212,364,67674,2,0,L|108:360,1,105,2|0,0:0|1:0,0:0:0:0:
68,272,68286,2,0,L|172:268,1,105,0|0,1:0|1:0,0:0:0:0:
216,252,68745,1,0,0:0:0:0:
216,252,68898,6,0,P|232:200|208:96,2,157.5,4|2|0,0:1|0:0|1:0,0:0:0:0:
268,332,70123,2,0,L|376:320,1,105,4|0,0:1|1:0,0:0:0:0:
420,240,70735,1,0,1:0:0:0:
484,172,71041,1,0,1:0:0:0:
416,108,71347,6,0,P|372:96|304:112,1,105,2|0,0:0|1:0,0:0:0:0:
240,164,71959,2,0,P|196:176|128:160,1,105,0|0,0:0|1:0,0:0:0:0:
96,148,72419,2,0,L|96:256,1,105,0|2,0:0|3:0,0:0:0:0:
120,292,72878,1,0,1:0:0:0:
212,268,73184,2,0,P|256:256|324:272,1,105,0|0,1:0|1:0,0:0:0:0:
388,328,73796,6,0,P|404:296|320:164,2,210,2|0|4,0:0|0:0|0:1,0:0:0:0:
296,352,75327,1,0,1:0:0:0:
216,304,75633,2,0,L|92:292,1,105,0|0,3:0|3:0,0:0:0:0:
32,240,76245,5,4,0:1:0:0:
396,164,86041,5,4,0:1:0:0:
336,92,86347,1,0,1:0:0:0:
268,28,86653,2,0,P|212:52|152:44,1,105,0|0,1:0|1:0,0:0:0:0:
76,76,87266,2,0,P|52:132|60:192,1,105,0|0,0:0|1:0,0:0:0:0:
92,204,87725,2,0,P|116:260|108:320,1,105,0|0,0:0|3:0,0:0:0:0:
84,340,88184,1,0,1:0:0:0:
172,368,88490,6,0,L|284:368,1,105,4|0,0:1|1:0,0:0:0:0:
308,280,89102,2,0,L|196:280,1,105,0|0,1:0|1:0,0:0:0:0:
240,192,89715,2,0,L|412:192,2,157.5,2|2|0,0:0|0:0|1:0,0:0:0:0:
160,140,90939,6,0,P|144:92|156:40,1,105,4|0,0:1|1:0,0:0:0:0:
235,92,91551,2,0,P|251:140|239:192,1,105,0|0,1:0|1:0,0:0:0:0:
168,252,92163,1,2,0:0:0:0:
232,324,92470,1,0,1:0:0:0:
232,324,92623,2,0,L|352:324,1,105,2|0,0:0|3:0,0:0:0:0:
368,236,93235,1,0,3:0:0:0:
368,236,93388,6,0,L|248:236,1,105,4|0,0:1|1:0,0:0:0:0:
168,252,94000,1,0,1:0:0:0:
76,272,94306,1,0,1:0:0:0:
100,180,94612,2,0,L|88:60,1,105,2|0,0:0|3:0,0:0:0:0:
180,56,95225,2,0,L|192:176,1,105,0|0,3:0|3:0,0:0:0:0:
168,252,95837,5,4,0:1:0:0:
144,344,96143,1,0,1:0:0:0:
236,320,96449,2,0,P|280:312|352:328,1,105,0|0,1:0|1:0,0:0:0:0:
432,340,97061,2,0,L|420:232,1,105,2|0,0:0|1:0,0:0:0:0:
400,192,97521,1,0,0:0:0:0:
400,192,97674,2,0,L|412:84,1,105,0|0,1:0|1:0,0:0:0:0:
344,20,98286,5,4,0:1:0:0:
256,60,98592,1,0,0:0:0:0:
173,13,98898,1,0,1:0:0:0:
136,100,99204,2,0,P|84:107|34:92,1,105,0|0,1:0|0:0,0:0:0:0:
11,183,99817,1,0,1:0:0:0:
52,268,100123,2,0,P|101:252|153:260,1,105,0|0,1:0|1:0,0:0:0:0:
220,328,100735,6,0,P|328:296|428:344,1,210,4|0,0:1|1:0,0:0:0:0:
492,280,101653,1,0,1:0:0:0:
420,216,101959,2,0,B|400:184|400:184|412:60,2,157.5,2|0|0,0:0|0:0|1:0,0:0:0:0:
492,280,103184,5,2,0:0:0:0:
400,308,103490,1,0,0:0:0:0:
332,244,103796,2,0,B|309:201|307:171|320:137|320:137|297:169|239:199|200:164|152:140|152:140|200:164|228:192|236:248|220:288|172:316,1,525,0|2,1:0|0:3,0:0:0:0:
84,284,105633,6,0,P|60:229|54:166,1,105,0|0,3:0|3:0,0:0:0:0:
40,92,106245,2,0,L|24:32,2,52.5,0|0|8,3:0|3:0|3:0,0:0:0:0:
128,132,106857,6,0,L|240:132,1,105,4|0,0:1|1:0,0:0:0:0:
276,112,107317,2,0,P|316:100|380:116,1,105,2|0,0:0|3:0,0:0:0:0:
412,144,107776,1,0,1:0:0:0:
424,236,108082,2,0,P|368:248|324:235,1,105,2|0,0:0|1:0,0:0:0:0:
244,184,108694,1,0,1:0:0:0:
196,264,109000,1,0,1:0:0:0:
252,340,109306,6,0,B|200:356|200:356|92:328,2,157.5,4|2|0,0:1|0:0|1:0,0:0:0:0:
344,356,110531,2,0,P|400:368|448:356,1,105,2|0,0:0|1:0,0:0:0:0:
488,272,111143,1,0,1:0:0:0:
404,228,111449,1,0,1:0:0:0:
472,160,111755,5,4,0:1:0:0:
404,92,112061,2,0,P|360:96|304:136,1,105,0|0,1:0|0:0,0:0:0:0:
256,208,112674,1,0,1:0:0:0:
176,156,112980,2,0,B|160:108|160:108|180:52,1,105,4|0,0:1|1:0,0:0:0:0:
92,20,113592,1,0,1:0:0:0:
52,104,113898,1,0,1:0:0:0:
88,192,114204,6,0,B|100:296|100:296|152:332,1,157.5,4|2,0:1|0:0,0:0:0:0:
236,336,114970,1,0,3:0:0:0:
236,336,115123,2,0,L|344:344,1,105,0|4,1:0|0:1,0:0:0:0:
428,312,115735,1,0,1:0:0:0:
488,236,116041,2,0,P|496:176|484:128,1,105,2|8,0:3|3:0,0:0:0:0:
420,64,116653,6,0,L|300:48,1,105,4|0,0:1|1:0,0:0:0:0:
276,76,117112,2,0,L|156:92,1,105,2|0,0:0|3:0,0:0:0:0:
132,64,117572,1,0,1:0:0:0:
108,156,117878,2,0,P|92:204|120:268,1,105,2|0,0:0|1:0,0:0:0:0:
188,304,118490,2,0,P|204:256|176:192,1,105,0|0,1:0|1:0,0:0:0:0:
248,136,119102,6,0,L|416:140,2,157.5,4|2|0,0:1|0:0|1:0,0:0:0:0:
160,104,120327,1,4,0:1:0:0:
92,168,120633,1,0,1:0:0:0:
140,252,120939,1,0,1:0:0:0:
232,228,121245,1,0,1:0:0:0:
324,208,121551,6,0,L|336:316,1,105,2|0,0:0|1:0,0:0:0:0:
428,324,122163,2,0,L|416:216,1,105,0|0,0:0|1:0,0:0:0:0:
452,188,122623,2,0,L|440:80,1,105,0|2,0:0|3:0,0:0:0:0:
396,64,123082,2,0,P|348:80|288:64,1,105,0|0,1:0|1:0,0:0:0:0:
204,40,123694,1,0,1:0:0:0:
128,96,124000,6,0,P|77:84|28:100,2,105,2|0|2,0:0|1:0|0:0,0:0:0:0:
204,156,124919,1,0,1:0:0:0:
276,220,125225,2,0,P|364:268|464:208,2,210,0|0|6,3:1|3:0|0:0,0:0:0:0:
272,220,146041,6,0,B|312:208|348:220|348:224|352:220|352:224|388:236|432:220,1,157.5,4|0,0:1|1:0,0:0:0:0:
472,208,146653,1,2,0:0:0:0:
440,120,146959,1,0,1:0:0:0:
404,32,147266,2,0,L|280:48,1,105,2|0,0:0|1:0,0:0:0:0:
204,36,147878,2,0,L|80:52,1,105,0|0,1:0|1:0,0:0:0:0:
36,120,148490,6,0,P|80:164|64:304,1,210,4|2,0:1|0:0,0:0:0:0:
136,364,149408,1,0,1:0:0:0:
224,324,149715,2,0,L|384:316,1,157.5,2|2,0:0|0:0,0:0:0:0:
444,244,150480,1,0,3:0:0:0:
504,172,150786,1,0,3:0:0:0:
504,172,150939,6,0,P|484:124|336:108,1,210,4|2,0:1|0:0,0:0:0:0:
272,164,151857,2,0,L|196:172,1,52.5,0|0,1:0|3:0,0:0:0:0:
184,200,152163,2,0,L|64:212,1,105,2|0,0:0|1:0,0:0:0:0:
68,304,152776,2,0,L|188:292,1,105,0|0,1:0|1:0,0:0:0:0:
216,312,153235,1,0,3:0:0:0:
260,328,153388,6,0,L|440:312,2,157.5,4|0|0,0:1|1:0|1:0,0:0:0:0:
172,293,154612,2,0,P|156:248|168:192,1,105,2|0,0:0|1:0,0:0:0:0:
204,108,155225,1,0,1:0:0:0:
244,20,155531,1,0,1:0:0:0:
296,96,155837,6,0,P|340:104|468:16,2,210,4|2|2,0:1|0:0|0:0,0:0:0:0:
204,108,157368,1,0,1:0:0:0:
204,108,157521,1,0,0:0:0:0:
204,108,157674,2,0,L|184:232,1,105,0|0,1:0|1:0,0:0:0:0:
224,300,158286,6,0,P|312:256|408:312,1,210,4|2,0:1|0:0,0:0:0:0:
480,364,159204,1,0,1:0:0:0:
480,364,159357,1,0,3:0:0:0:
480,364,159510,6,0,L|488:248,1,105,0|0,0:0|3:0,0:0:0:0:
464,216,159970,2,0,L|456:100,2,105,0|0|0,3:0|3:0|3:0,0:0:0:0:
432,248,160735,6,0,P|336:280|224:240,1,210,4|4,3:1|3:1,0:0:0:0:
156,200,161653,1,8,3:0:0:0:
84,260,161959,2,0,L|84:368,2,105,4|8|4,3:1|3:0|3:1,0:0:0:0:
20,188,162878,1,8,3:0:0:0:
72,108,163184,6,0,P|121:98|190:102,1,105,4|8,3:1|3:0,0:0:0:0:
209,132,163643,2,0,P|270:146|365:108,1,157.5,4|8,3:1|3:3,0:0:0:0:
436,60,164408,2,0,L|449:184,1,105,8|8,3:3|3:3,0:0:0:0:
380,232,165021,2,0,L|367:356,1,105,8|8,3:3|3:3,0:0:0:0:
280,372,165633,5,6,0:2:0:0:
224,212,174204,6,0,L|352:216,1,105,2|2,0:3|0:3,0:0:0:0:
364,128,174817,2,0,L|259:131,1,105,2|4,0:3|0:3,0:0:0:0:
164,148,175429,6,0,P|140:200|188:292,1,157.5,4|0,3:1|3:0,0:0:0:0:
216,316,176041,2,0,L|344:320,1,105,8|0,3:0|0:0,0:0:0:0:
372,240,176653,1,4,3:1:0:0:
420,160,176959,1,0,0:0:0:0:
468,76,177266,2,0,P|416:64|352:92,1,105,8|0,3:0|0:0,0:0:0:0:
284,124,177878,5,4,3:1:0:0:
284,124,178031,2,0,P|232:136|168:108,1,105,0|0,3:0|3:0,0:0:0:0:
144,96,178490,1,8,3:0:0:0:
60,52,178796,1,0,0:0:0:0:
60,148,179102,6,0,L|0:160,2,52.5,4|0|8,3:1|3:0|3:0,0:0:0:0:
128,212,179715,1,4,3:1:0:0:
192,284,180021,1,0,3:0:0:0:
264,348,180327,6,0,L|372:356,1,105,4|8,3:1|3:0,0:0:0:0:
444,300,180939,1,4,3:0:0:0:
384,228,181245,1,8,3:0:0:0:
384,228,181398,2,0,P|372:184|384:120,1,105,0|0,3:0|3:0,0:0:0:0:
400,84,181857,1,4,3:0:0:0:
332,20,182163,2,0,L|208:16,1,105,4|4,3:0|3:0,0:0:0:0:
148,68,182776,6,0,B|136:96|136:96|144:172,1,105,4|2,3:1|3:0,0:0:0:0:
172,208,183235,1,2,3:0:0:0:
204,244,183388,2,0,B|216:272|216:272|208:348,2,105,8|8|0,3:0|3:0|0:0,0:0:0:0:
440,268,184766,6,0,L|432:344,1,52.5,2|2,3:0|3:0,0:0:0:0:
340,340,185225,6,0,L|352:224,1,105,4|0,0:1|1:0,0:0:0:0:
328,192,185684,2,0,L|340:76,1,105,2|0,0:0|3:0,0:0:0:0:
360,44,186143,1,0,1:0:0:0:
268,56,186449,2,0,P|216:64|152:52,1,105,2|0,0:0|1:0,0:0:0:0:
96,120,187061,1,0,1:0:0:0:
28,188,187368,1,0,1:0:0:0:
120,212,187674,6,0,P|216:204|288:220,2,157.5,4|2|0,0:1|0:0|1:0,0:0:0:0:
52,276,188898,1,2,0:0:0:0:
28,188,189204,1,0,1:0:0:0:
4,96,189510,2,0,L|116:76,1,105,0|0,1:0|1:0,0:0:0:0:
196,40,190123,5,4,0:1:0:0:
284,72,190429,2,0,L|387:90,2,105,0|2|0,1:0|0:0|1:0,0:0:0:0:
216,136,191347,2,0,P|204:188|220:240,1,105,4|0,0:1|1:0,0:0:0:0:
276,308,191959,1,0,1:0:0:0:
360,264,192266,1,0,1:0:0:0:
436,208,192572,2,0,P|456:272|404:352,2,157.5,4|2|0,0:1|0:0|1:0,0:0:0:0:
376,136,193796,5,2,0:3:0:0:
376,136,193949,2,0,L|272:128,1,105,2|2,3:3|0:3,0:0:0:0:
232,140,194408,1,8,0:3:0:0:
140,168,194715,1,8,3:3:0:0:
56,208,195021,6,0,P|48:156|72:100,1,105,4|0,0:1|1:0,0:0:0:0:
100,76,195480,2,0,L|204:48,1,105,2|0,0:0|3:0,0:0:0:0:
248,36,195939,1,0,1:0:0:0:
336,72,196245,2,0,B|356:92|356:92|360:136|356:184,1,105,2|0,0:0|1:0,0:0:0:0:
316,252,196857,1,0,1:0:0:0:
276,340,197163,1,0,1:0:0:0:
204,280,197470,6,0,P|200:204|204:116,2,157.5,4|2|0,0:1|0:0|1:0,0:0:0:0:
136,344,198694,2,0,P|92:348|24:344,1,105,4|0,0:1|1:0,0:0:0:0:
8,252,199306,1,0,1:0:0:0:
32,160,199612,1,0,1:0:0:0:
72,76,199919,6,0,L|192:64,1,105,2|0,0:0|1:0,0:0:0:0:
256,120,200531,1,2,0:0:0:0:
336,72,200837,1,0,1:0:0:0:
336,72,200990,2,0,P|348:136|328:188,1,105,0|2,0:0|3:0,0:0:0:0:
308,212,201449,1,0,1:0:0:0:
240,276,201755,2,0,L|135:286,1,105,0|0,1:0|1:0,0:0:0:0:
40,288,202368,5,2,0:0:0:0:
36,192,202674,1,0,1:0:0:0:
132,188,202980,1,2,0:0:0:0:
135,286,203286,1,0,1:0:0:0:
140,380,203592,2,0,L|248:372,1,105,0|8,3:1|3:0,0:0:0:0:
320,316,204204,2,0,L|428:308,1,105,2|8,3:3|3:3,0:0:0:0:
492,244,204817,6,0,P|480:184|480:124,1,105,4|0,0:1|1:0,0:0:0:0:
468,96,205276,2,0,P|420:108|364:96,1,105,2|2,3:0|3:0,0:0:0:0:
324,76,205735,1,0,1:0:0:0:
252,136,206041,2,0,L|140:140,1,105,0|0,0:0|1:0,0:0:0:0:
64,100,206653,1,0,1:0:0:0:
64,196,206959,1,0,1:0:0:0:
64,292,207266,6,0,P|120:280|176:296,1,105,4|0,0:1|1:0,0:0:0:0:
208,316,207725,2,0,P|264:328|320:312,1,105,2|2,3:0|3:0,0:0:0:0:
352,296,208184,1,0,1:0:0:0:
408,220,208490,2,0,L|412:116,1,105,2|0,0:0|1:0,0:0:0:0:
328,76,209102,2,0,L|324:180,1,105,0|0,1:0|1:0,0:0:0:0:
264,256,209715,6,0,P|204:268|116:220,2,157.5,4|2|0,0:1|3:0|1:0,0:0:0:0:
324,180,210939,2,0,L|328:76,1,105,0|0,0:0|1:0,0:0:0:0:
252,16,211551,1,0,1:0:0:0:
168,56,211857,1,0,1:0:0:0:
84,96,212163,6,0,L|80:224,1,105,4|0,0:1|1:0,0:0:0:0:
120,232,212623,2,0,L|124:360,1,105,2|2,3:0|3:0,0:0:0:0:
160,368,213082,1,0,1:0:0:0:
240,320,213388,2,0,P|296:308|352:320,1,105,4|0,0:1|1:0,0:0:0:0:
384,336,213847,1,0,0:0:0:0:
468,288,214153,1,0,3:0:0:0:
468,288,214306,2,0,L|464:220,1,52.5,8|8,3:0|3:0,0:0:0:0:
436,196,214612,6,0,L|428:32,1,157.5,4|2,0:1|3:0,0:0:0:0:
384,24,215225,1,0,0:0:0:0:
296,56,215531,1,0,1:0:0:0:
216,108,215837,2,0,P|168:104|100:112,1,105,0|0,0:0|0:0,0:0:0:0:
96,204,216449,2,0,P|144:208|212:200,1,105,0|0,1:0|0:0,0:0:0:0:
292,176,217061,6,0,B|300:216|300:216|272:344,1,157.5,4|2,0:1|3:0,0:0:0:0:
296,372,217674,1,0,0:0:0:0:
384,336,217980,1,0,1:0:0:0:
468,292,218286,2,0,L|480:184,1,105,0|0,0:0|0:0,0:0:0:0:
408,124,218898,2,0,L|396:16,1,105,0|0,1:0|0:0,0:0:0:0:
308,52,219510,6,0,P|256:72|156:56,1,157.5,4|2,0:1|3:0,0:0:0:0:
116,36,220123,1,0,0:0:0:0:
80,124,220429,1,0,1:0:0:0:
44,212,220735,2,0,P|60:272|56:328,1,105,0|0,0:0|0:0,0:0:0:0:
140,364,221347,2,0,P|200:348|256:352,1,105,0|0,1:0|1:0,0:0:0:0:
336,368,221959,6,0,L|344:244,1,105,4|0,0:1|1:0,0:0:0:0:
308,232,222419,2,0,L|300:108,1,105,2|0,3:0|0:0,0:0:0:0:
324,84,222878,1,0,1:0:0:0:
232,72,223184,2,0,P|184:88|128:72,1,105,0|0,0:0|0:0,0:0:0:0:
44,48,223796,2,0,L|52:168,1,105,0|0,3:0|0:0,0:0:0:0:
100,232,224408,5,4,3:1:0:0:
182,186,224715,1,0,3:0:0:0:
251,250,225021,1,8,3:0:0:0:
211,336,225327,1,8,3:0:0:0:
118,324,225633,5,6,3:2:0:0:
256,192,225709,12,0,234204,0:0:0:0:
