osu file format v14

[General]
AudioFilename: audio.mp3
AudioLeadIn: 0
PreviewTime: 184383
Countdown: 0
SampleSet: Soft
StackLeniency: 0.6
Mode: 0
LetterboxInBreaks: 0
WidescreenStoryboard: 0

[Editor]
Bookmarks: 5225,26041,35837,45633,56653,76245,86041,95837,106857,126449,146041,165633,174204,192572,225633,232980
DistanceSpacing: 1
BeatDivisor: 4
GridSize: 4
TimelineZoom: 2.699999

[Metadata]
Title:Bloom
TitleUnicode:Bloom
Artist:The Winking Owl
ArtistUnicode:The Winking Owl
Creator:Shmiklak
Version:Blossom
Source:
Tags:marvollo m_a_r_v_o_l_l_o Lokidoki Marianna chalwa ザ ウィンキング オウル BLOOMING Luiza neoskylove Affirmation namki english japanese
BeatmapID:1508978
BeatmapSetID:602408

[Difficulty]
HPDrainRate:6.5
CircleSize:4
OverallDifficulty:8
ApproachRate:9.5
SliderMultiplier:1.7
SliderTickRate:1

[Events]
//Background and Video events
0,0,"the best map of shmoklok.jpg",0,0
Video,0,"opto.flv"
//Break Periods
2,76445,84904
2,126649,145516
2,165833,167557
2,168282,170006
2,170731,172455
//Storyboard Layer 0 (Background)
//Storyboard Layer 1 (Fail)
//Storyboard Layer 2 (Pass)
//Storyboard Layer 3 (Foreground)
//Storyboard Sound Samples

[TimingPoints]
5225.21104444316,306.122448979592,4,2,0,80,1,0
26041,-133.333333333333,4,2,0,80,0,0
49000,-200,4,2,0,80,0,0
49612,-133.333333333333,4,2,0,80,0,0
53592,-200,4,2,0,80,0,0
54204,-133.333333333333,4,2,0,80,0,0
55429,-100,4,2,0,80,0,0
56653,-100,4,2,0,80,0,1
76245,-133.333333333333,4,2,0,80,0,0
86041,-133.333333333333,4,2,0,80,0,0
99204,-200,4,2,0,80,0,0
99817,-133.333333333333,4,2,0,80,0,0
103796,-200,4,2,0,80,0,0
104408,-133.333333333333,4,2,0,80,0,0
105633,-100,4,2,0,80,0,0
106857,-100,4,2,0,80,0,1
126449,-100,4,2,0,80,0,0
146041,-133.333333333333,4,2,0,80,0,0
160735,-100,4,2,0,80,0,1
165633,-100,4,2,0,80,0,0
180327,-100,4,2,0,80,0,1
183694,-200,4,2,0,80,0,0
184459,-200,4,2,0,5,0,0
184766,-100,4,2,0,80,0,0
185225,-100,4,2,0,80,0,1
204817,-100,4,2,0,80,0,0
225633,-100,4,2,0,60,0,0
226857,-100,4,2,0,50,0,0
228082,-100,4,2,0,40,0,0
229306,-100,4,2,0,30,0,0
230531,-100,4,2,0,20,0,0
231755,-100,4,2,0,10,0,0

[Colours]
Combo1 : 122,100,189
Combo2 : 248,233,54
Combo3 : 79,242,87
Combo4 : 186,87,82

[HitObjects]
52,80,5225,6,0,B|152:107|127:41|225:70,1,170,4|0,0:1|1:0,0:0:0:0:
300,143,5684,2,0,P|345:149|395:139,1,85,2|0,3:0|0:0,0:0:0:0:
247,213,5990,1,2,3:0:0:0:
338,25,6143,1,0,1:0:0:0:
408,134,6296,6,0,B|429:192|429:192|413:300,1,170,4|2,0:1|3:0,0:0:0:0:
278,331,6755,2,0,P|271:288|260:238,1,85,0|0,1:0|0:0,0:0:0:0:
111,126,7061,1,0,1:0:0:0:
153,270,7215,1,2,3:0:0:0:
216,145,7368,1,0,1:0:0:0:
216,145,7521,1,0,0:0:0:0:
72,263,7674,6,0,P|90:323|198:338,1,170,4|0,0:1|1:0,0:0:0:0:
295,279,8133,2,0,P|349:276|390:284,1,85,2|0,3:0|0:0,0:0:0:0:
492,361,8439,1,2,3:0:0:0:
438,181,8592,1,0,1:0:0:0:
295,279,8745,6,0,B|195:306|220:240|122:269,1,170,4|0,0:1|0:0,0:0:0:0:
254,189,9204,2,0,P|257:145|263:94,1,85,0|0,1:0|0:0,0:0:0:0:
100,53,9510,1,0,1:0:0:0:
152,185,9663,1,2,3:0:0:0:
0,94,9817,1,0,1:0:0:0:
0,94,9970,1,0,0:0:0:0:
201,31,10123,6,0,B|264:22|264:22|382:35,1,170,4|0,0:1|1:0,0:0:0:0:
452,155,10582,2,0,P|378:165|366:170,1,85,2|0,3:0|0:0,0:0:0:0:
286,283,10888,1,2,3:0:0:0:
210,95,11041,1,0,1:0:0:0:
136,227,11194,6,0,B|75:240|17:219|17:219|10:190|2:161,1,170,4|0,0:1|0:0,0:0:0:0:
58,317,11653,2,0,P|150:300|165:297,1,85,0|0,1:0|0:0,0:0:0:0:
301,219,11959,1,0,1:0:0:0:
232,357,12112,1,2,3:0:0:0:
232,357,12189,1,0,3:0:0:0:
232,357,12266,1,0,1:0:0:0:
357,326,12419,1,0,0:0:0:0:
157,200,12572,6,0,B|159:36|160:26,1,170,4|0,0:1|1:0,0:0:0:0:
251,169,13031,2,0,P|254:241|254:253,1,85,2|0,3:0|0:0,0:0:0:0:
177,360,13337,1,2,3:0:0:0:
157,200,13490,1,0,1:0:0:0:
367,111,13643,5,2,3:0:0:0:
367,111,13720,1,0,3:0:0:0:
367,111,13796,1,4,0:1:0:0:
323,310,13949,1,0,0:0:0:0:
251,114,14102,5,0,1:0:0:0:
492,242,14255,1,2,0:0:0:0:
299,341,14408,5,0,3:0:0:0:
257,347,14484,1,0,3:0:0:0:
215,340,14561,1,0,3:0:0:0:
177,320,14637,1,0,3:0:0:0:
148,290,14714,5,8,3:0:0:0:
129,252,14790,1,8,0:3:0:0:
123,210,14867,1,8,3:0:0:0:
130,168,14943,1,8,0:3:0:0:
152,132,15021,6,0,B|252:159|227:93|325:122,1,170,4|0,0:1|1:0,0:0:0:0:
412,212,15480,2,0,P|456:222|500:210,1,85,2|0,3:0|0:0,0:0:0:0:
329,230,15786,1,2,3:0:0:0:
454,102,15939,1,0,1:0:0:0:
512,232,16092,6,0,P|509:297|420:340,1,170,4|2,0:1|3:0,0:0:0:0:
296,361,16551,2,0,P|293:318|290:271,1,85,0|0,1:0|0:0,0:0:0:0:
155,141,16857,1,0,1:0:0:0:
157,281,17010,1,2,3:0:0:0:
318,153,17163,1,0,1:0:0:0:
318,153,17317,1,0,0:0:0:0:
352,266,17470,6,0,B|408:288|408:288|526:269,1,170,4|0,0:1|1:0,0:0:0:0:
441,169,17929,2,0,P|394:157|349:173,1,85,2|0,3:0|0:0,0:0:0:0:
259,279,18235,1,2,3:0:0:0:
220,94,18388,1,0,1:0:0:0:
68,266,18541,6,0,B|168:293|143:227|241:256,1,170,4|0,0:1|0:0,0:0:0:0:
110,97,19000,2,0,P|110:198|111:204,1,85,0|0,1:0|0:0,0:0:0:0:
208,349,19306,1,0,1:0:0:0:
293,209,19459,1,2,3:0:0:0:
107,181,19612,1,0,1:0:0:0:
271,288,19766,1,2,3:0:0:0:
271,288,19842,1,0,3:0:0:0:
271,288,19919,6,0,B|208:272|208:272|108:320,1,170,4|0,0:1|1:0,0:0:0:0:
34,226,20378,2,0,P|27:146|27:131,1,85,2|0,3:0|0:0,0:0:0:0:
177,26,20684,1,2,3:0:0:0:
128,216,20837,1,0,1:0:0:0:
42,51,20990,6,0,P|93:80|194:36,1,170,4|0,0:1|0:0,0:0:0:0:
268,135,21449,2,0,P|259:217|258:235,1,85,0|0,1:0|0:0,0:0:0:0:
326,65,21755,1,0,1:0:0:0:
161,170,21908,1,2,3:0:0:0:
412,174,22061,1,0,1:0:0:0:
412,174,22215,1,0,0:0:0:0:
190,307,22368,6,0,B|90:334|115:268|17:297,1,170,4|0,0:1|1:0,0:0:0:0:
143,147,22827,2,0,P|150:226|150:235,1,85,2|0,3:0|0:0,0:0:0:0:
38,190,23133,1,2,3:0:0:0:
266,181,23286,1,0,1:0:0:0:
399,339,23439,6,0,P|332:363|225:342,1,170,2|0,3:0|0:0,0:0:0:0:
147,164,23898,2,0,P|145:206|140:249,1,85,0|0,1:0|0:0,0:0:0:0:
210,333,24204,1,0,3:0:0:0:
33,291,24357,1,0,3:0:0:0:
238,161,24510,1,8,3:0:0:0:
202,243,24663,5,0,3:0:0:0:
243,250,24740,1,0,3:0:0:0:
284,241,24816,1,0,3:1:0:0:
310,331,24970,5,0,3:0:0:0:
349,317,25046,1,0,3:0:0:0:
380,288,25123,1,0,3:1:0:0:
471,174,25276,6,0,P|462:216|451:234,1,42.5,0|0,3:0|3:0,0:0:0:0:
370,267,25429,1,0,3:1:0:0:
329,267,25505,1,8,3:0:0:0:
293,247,25582,1,8,3:0:0:0:
272,213,25658,1,8,3:0:0:0:
276,173,25735,6,0,P|297:167|322:162,1,42.5,8|8,3:0|3:0,0:0:0:0:
411,63,25888,2,0,P|384:58|368:55,1,42.5,8|8,3:0|3:0,0:0:0:0:
190,177,26041,6,0,P|128:174|118:174,1,63.7500024318696,4|0,0:1|3:0,0:0:0:0:
38,267,26347,2,0,P|100:264|173:300,1,127.500004863739,0|0,1:0|1:0,0:0:0:0:
214,355,26806,1,0,3:0:0:0:
291,268,26959,2,0,P|325:269|366:275,1,63.7500024318696,0|0,1:0|3:0,0:0:0:0:
458,327,27266,6,0,P|463:272|465:265,1,63.7500024318696,0|0,0:0|3:0,0:0:0:0:
452,122,27572,1,0,1:0:0:0:
372,191,27725,2,0,P|303:193|255:135,1,127.500004863739,2|0,0:0|3:0,0:0:0:0:
228,48,28184,1,0,1:0:0:0:
333,124,28337,1,0,3:0:0:0:
230,251,28490,6,0,P|168:246|92:245,1,127.500004863739,4|0,0:1|1:0,0:0:0:0:
260,156,28949,2,0,P|295:173|323:277,1,127.500004863739,2|0,0:0|3:0,0:0:0:0:
408,353,29408,2,0,P|401:293|401:286,1,63.7500024318696,0|0,1:0|3:0,0:0:0:0:
395,177,29715,5,2,0:0:0:0:
296,294,29868,1,0,3:0:0:0:
469,239,30021,1,0,1:0:0:0:
307,216,30174,2,0,B|227:235|263:185|164:207,1,127.500004863739,2|0,0:0|3:0,0:0:0:0:
51,268,30633,1,0,1:0:0:0:
87,157,30786,1,0,3:0:0:0:
198,303,30939,6,0,P|266:306|275:305,1,63.7500024318696,4|0,0:1|0:0,0:0:0:0:
384,233,31245,2,0,P|385:162|388:97,1,127.500004863739,0|0,1:0|1:0,0:0:0:0:
463,240,31704,1,0,3:0:0:0:
286,132,31857,2,0,P|243:129|209:129,1,63.7500024318696,0|0,1:0|3:0,0:0:0:0:
66,253,32163,6,0,P|133:249|143:250,1,63.7500024318696,2|0,0:0|3:0,0:0:0:0:
274,296,32470,1,0,1:0:0:0:
150,349,32623,2,0,P|87:333|53:254,1,127.500004863739,2|0,0:0|3:0,0:0:0:0:
104,137,33082,1,0,1:0:0:0:
134,266,33235,1,0,3:0:0:0:
288,110,33388,6,0,P|302:109|433:99,1,127.500004863739,4|0,0:1|1:0,0:0:0:0:
339,222,33847,2,0,P|222:213|211:212,1,127.500004863739,2|0,0:0|3:0,0:0:0:0:
348,304,34306,2,0,P|412:296|420:296,1,63.7500024318696,0|0,1:0|3:0,0:0:0:0:
264,347,34612,6,0,B|184:324|184:324|128:348,2,127.500004863739,2|0|0,0:0|1:0|1:0,0:0:0:0:
186,249,35378,1,0,3:0:0:0:
56,335,35531,2,0,P|48:275|48:264,1,63.7500024318696,0|0,1:0|3:0,0:0:0:0:
121,76,35837,6,0,P|173:79|188:80,1,63.7500024318696,4|0,0:1|0:0,0:0:0:0:
267,178,36143,2,0,P|215:181|200:182,1,63.7500024318696,0|0,1:0|0:0,0:0:0:0:
333,77,36449,2,0,P|345:204|345:216,1,127.500004863739,0|0,1:0|1:0,0:0:0:0:
335,316,36908,1,0,3:0:0:0:
213,205,37061,6,0,P|164:201|150:201,1,63.7500024318696,2|0,0:0|3:0,0:0:0:0:
35,297,37368,1,0,1:0:0:0:
66,194,37521,2,0,P|57:69|56:62,1,127.500004863739,2|0,0:0|3:0,0:0:0:0:
149,201,37980,1,0,1:0:0:0:
223,90,38133,1,0,3:0:0:0:
303,222,38286,6,0,P|165:217|152:217,1,127.500004863739,4|0,0:1|1:0,0:0:0:0:
228,304,38745,1,0,0:0:0:0:
328,192,38898,2,0,P|190:187|177:187,1,127.500004863739,0|0,1:0|1:0,0:0:0:0:
253,274,39357,1,0,3:0:0:0:
359,113,39510,6,0,P|358:73|354:39,1,63.7500024318696,2|0,0:0|3:0,0:0:0:0:
425,181,39817,1,0,1:0:0:0:
346,255,39970,2,0,B|266:274|302:224|203:246,1,127.500004863739,2|0,0:0|3:0,0:0:0:0:
117,356,40429,1,0,1:0:0:0:
241,335,40582,1,0,3:0:0:0:
100,242,40735,6,0,P|59:234|35:232,1,63.7500024318696,4|0,0:1|0:0,0:0:0:0:
117,356,41041,2,0,P|158:348|182:346,1,63.7500024318696,0|0,1:0|0:0,0:0:0:0:
312,359,41347,2,0,P|306:236|306:222,1,127.500004863739,0|0,1:0|1:0,0:0:0:0:
320,128,41806,1,0,3:0:0:0:
423,308,41959,6,0,P|378:309|327:244,1,127.500004863739,2|0,0:0|1:0,0:0:0:0:
468,222,42419,2,0,P|507:258|516:341,1,127.500004863739,2|0,0:0|3:0,0:0:0:0:
343,384,42878,1,0,1:0:0:0:
423,308,43031,1,0,3:0:0:0:
254,220,43184,6,0,P|129:209|115:208,1,127.500004863739,4|0,0:1|1:0,0:0:0:0:
64,125,43643,2,0,P|189:118|203:117,1,127.500004863739,2|0,0:0|3:0,0:0:0:0:
316,58,44102,2,0,P|357:53|385:54,1,63.7500024318696,0|0,1:0|3:0,0:0:0:0:
498,120,44408,5,0,0:0:0:0:
378,231,44561,1,0,3:0:0:0:
379,53,44715,1,0,1:0:0:0:
475,192,44868,6,0,P|481:208|485:227,1,31.8750012159348,0|0,3:0|0:0,0:0:0:0:
460,323,45021,1,0,3:0:0:0:
435,342,45097,1,0,3:0:0:0:
404,348,45174,1,0,3:0:0:0:
374,338,45250,1,0,3:0:0:0:
352,316,45327,5,0,3:0:0:0:
331,292,45403,1,0,3:0:0:0:
301,280,45480,1,0,3:0:0:0:
270,282,45556,1,0,3:0:0:0:
240,296,45633,6,0,P|164:293|152:292,1,63.7500024318696,4|0,0:1|0:0,0:0:0:0:
78,188,45939,2,0,P|154:185|166:184,1,63.7500024318696,0|0,1:0|0:0,0:0:0:0:
69,337,46245,2,0,P|64:303|72:248,1,63.7500024318696,0|0,1:0|3:0,0:0:0:0:
138,122,46551,2,0,P|143:156|135:211,1,63.7500024318696,0|0,1:0|3:0,0:0:0:0:
240,296,46857,6,0,P|296:288|304:286,1,63.7500024318696,2|0,0:0|3:0,0:0:0:0:
397,189,47163,1,0,1:0:0:0:
406,292,47317,1,0,0:0:0:0:
293,190,47470,2,0,P|289:152|292:122,1,63.7500024318696,0|0,1:0|0:0,0:0:0:0:
226,248,47776,2,0,P|230:286|227:316,1,63.7500024318696,0|0,1:0|0:0,0:0:0:0:
58,374,48082,6,0,P|64:192|68:176,1,191.250007295609,4|0,0:1|0:0,0:0:0:0:
119,107,48694,2,0,P|161:111|190:104,1,63.7500024318696,0|0,1:0|3:0,0:0:0:0:
351,186,49000,6,0,B|271:205|307:155|208:177,1,127.500004863739,0|0,1:0|3:0,0:0:0:0:
146,283,49612,2,0,P|114:287|82:290,1,63.7500024318696,0|0,1:0|0:0,0:0:0:0:
223,348,49919,2,0,P|254:352|286:355,1,63.7500024318696,0|0,1:0|0:0,0:0:0:0:
219,236,50225,2,0,P|226:175|228:164,1,63.7500024318696,0|0,1:0|0:0,0:0:0:0:
112,37,50531,6,0,P|119:97|121:109,1,63.7500024318696,4|0,0:1|0:0,0:0:0:0:
66,242,50837,1,0,1:0:0:0:
6,146,50990,1,0,0:0:0:0:
155,241,51143,2,0,P|212:236|222:235,1,63.7500024318696,0|0,1:0|3:0,0:0:0:0:
333,324,51449,2,0,P|275:319|266:318,1,63.7500024318696,0|0,1:0|3:0,0:0:0:0:
218,235,51755,5,2,0:0:0:0:
251,62,51908,1,0,3:0:0:0:
352,242,52061,1,0,1:0:0:0:
194,138,52215,2,0,P|155:132|114:131,1,63.7500024318696,0|0,0:0|0:0,0:0:0:0:
48,244,52521,2,0,P|116:238|188:240,1,127.500004863739,0|0,3:0|3:0,0:0:0:0:
333,272,52980,6,0,P|389:254|317:186,1,191.250007295609,2|0,0:0|0:0,0:0:0:0:
237,292,53592,6,0,B|137:319|162:253|64:282,1,170,0|0,1:0|0:0,0:0:0:0:
198,188,54357,5,0,3:0:0:0:
347,272,54510,2,0,P|399:269|417:270,1,63.7500024318696,0|0,1:0|0:0,0:0:0:0:
220,317,54817,1,0,1:0:0:0:
291,193,54970,1,0,3:0:0:0:
265,373,55123,1,0,1:0:0:0:
209,224,55276,5,0,3:0:0:0:
168,217,55352,1,0,3:0:0:0:
127,226,55429,1,0,3:0:0:0:
101,136,55583,5,0,3:0:0:0:
62,150,55659,1,0,3:0:0:0:
31,179,55736,1,0,3:0:0:0:
35,310,55889,6,0,P|77:319|95:330,1,42.5,0|0,3:0|0:0,0:0:0:0:
164,363,56042,1,0,3:0:0:0:
205,363,56118,1,0,3:0:0:0:
241,343,56194,1,0,3:0:0:0:
262,309,56271,1,0,3:0:0:0:
258,269,56348,6,8,P|245:241|240:224,1,42.5,8|8,3:0|3:0,3:0:0:0:
128,144,56501,2,8,P|143:166|153:179,1,42.5,8|8,3:0|3:0,3:0:0:0:
258,269,56653,6,0,P|318:262|346:259,1,85,4|2,0:1|3:0,0:0:0:0:
481,285,56959,1,0,1:0:0:0:
423,201,57112,2,0,P|418:101|424:28,1,170,2|0,0:0|3:0,0:0:0:0:
341,159,57572,2,0,P|345:192|351:257,1,85,0|0,1:0|3:0,0:0:0:0:
226,342,57878,6,0,B|124:366|170:302|45:330,1,170,2|0,0:0|1:0,0:0:0:0:
13,209,58337,1,0,0:0:0:0:
195,236,58490,1,0,1:0:0:0:
36,344,58643,1,0,3:0:0:0:
130,169,58796,2,0,P|125:105|121:69,1,85,0|0,1:0|0:0,0:0:0:0:
17,303,59102,6,0,P|169:276|214:268,1,170,4|0,0:1|1:0,0:0:0:0:
317,203,59561,2,0,P|163:189|117:186,1,170,2|0,0:0|3:0,0:0:0:0:
339,280,60021,1,0,1:0:0:0:
267,115,60174,1,0,3:0:0:0:
197,300,60327,6,0,P|192:368|197:405,1,85,2|2,0:0|3:0,0:0:0:0:
362,258,60633,2,0,P|360:215|351:174,1,85,0|0,1:0|0:0,0:0:0:0:
165,37,60939,1,0,1:0:0:0:
338,83,61092,1,0,3:0:0:0:
91,99,61245,1,0,1:0:0:0:
266,24,61398,1,0,3:0:0:0:
383,181,61551,6,0,P|391:222|393:264,1,85,4|2,0:1|3:0,0:0:0:0:
226,361,61857,2,0,P|234:262|236:246,1,85,0|0,1:0|0:0,0:0:0:0:
168,69,62163,1,0,0:0:0:0:
134,234,62317,1,0,3:0:0:0:
272,48,62470,1,0,1:0:0:0:
97,135,62623,1,0,0:0:0:0:
248,254,62776,6,0,P|342:251|424:250,1,170,4|0,0:1|1:0,0:0:0:0:
305,336,63235,1,0,0:0:0:0:
408,155,63388,1,0,1:0:0:0:
454,320,63541,1,0,3:0:0:0:
305,168,63694,2,0,P|261:161|200:157,1,85,0|0,1:0|3:0,0:0:0:0:
147,371,64000,6,0,P|195:368|194:243,1,170,4|0,0:1|1:0,0:0:0:0:
132,224,64459,2,0,P|303:213|321:212,1,170,2|0,0:0|3:0,0:0:0:0:
385,124,64919,2,0,P|285:115|272:112,1,85,0|0,1:0|0:0,0:0:0:0:
446,190,65225,5,4,0:1:0:0:
332,36,65378,1,2,3:0:0:0:
396,269,65531,1,0,1:0:0:0:
489,118,65684,1,0,0:0:0:0:
279,197,65837,5,2,3:0:0:0:
236,198,65913,1,2,3:0:0:0:
196,186,65990,1,2,3:0:0:0:
163,160,66066,1,2,3:0:0:0:
144,124,66143,5,8,0:3:0:0:
108,103,66219,1,8,0:3:0:0:
68,113,66296,1,8,0:3:0:0:
47,149,66372,1,8,0:3:0:0:
44,192,66449,6,0,P|47:243|51:283,1,85,4|2,0:1|3:0,0:0:0:0:
196,350,66755,1,0,1:0:0:0:
279,206,66908,2,0,P|257:35|256:23,1,170,2|0,0:0|3:0,0:0:0:0:
375,172,67368,2,0,P|375:224|370:261,1,85,0|0,1:0|3:0,0:0:0:0:
171,328,67674,6,0,B|147:226|211:272|183:147,1,170,2|0,0:0|1:0,0:0:0:0:
246,294,68133,1,0,0:0:0:0:
85,198,68286,1,0,1:0:0:0:
292,165,68439,1,0,3:0:0:0:
45,93,68592,2,0,P|85:88|139:83,1,85,0|0,1:0|0:0,0:0:0:0:
317,184,68898,6,0,P|251:183|201:281,1,170,4|0,0:1|1:0,0:0:0:0:
394,219,69357,2,0,P|395:153|297:103,1,170,2|0,0:0|3:0,0:0:0:0:
408,298,69817,1,0,1:0:0:0:
490,197,69970,1,0,3:0:0:0:
291,293,70123,6,0,P|216:288|202:287,1,85,4|2,0:1|3:0,0:0:0:0:
44,226,70429,2,0,P|118:221|133:220,1,85,0|0,1:0|0:0,0:0:0:0:
254,72,70735,1,0,1:0:0:0:
95,133,70888,1,0,3:0:0:0:
273,219,71041,2,0,P|314:217|361:204,1,85,0|0,1:0|3:0,0:0:0:0:
493,96,71347,6,0,P|485:53|479:12,1,85,2|2,0:0|3:0,0:0:0:0:
362,121,71653,2,0,P|359:163|355:205,1,85,0|0,1:0|0:0,0:0:0:0:
227,354,71959,1,0,0:0:0:0:
169,228,72112,1,0,0:0:0:0:
66,373,72266,1,0,1:0:0:0:
19,268,72419,1,0,0:0:0:0:
195,367,72572,5,4,0:1:0:0:
0,338,72725,1,2,3:0:0:0:
209,207,72878,2,0,P|205:163|197:112,1,85,0|0,1:0|0:0,0:0:0:0:
275,277,73184,1,0,1:0:0:0:
125,211,73337,1,0,3:0:0:0:
310,102,73490,1,0,1:0:0:0:
147,52,73643,1,0,3:0:0:0:
297,200,73796,6,0,P|339:190|391:186,1,85,2|2,0:0|3:0,0:0:0:0:
475,323,74102,2,0,P|432:313|381:309,1,85,0|0,1:0|0:0,0:0:0:0:
189,345,74408,1,0,0:0:0:0:
274,219,74561,1,0,0:0:0:0:
389,382,74715,1,0,1:0:0:0:
280,312,74868,1,0,0:0:0:0:
376,127,75021,6,0,P|372:85|366:36,1,85,4|2,0:1|3:0,0:0:0:0:
296,192,75327,1,0,1:0:0:0:
224,42,75480,1,0,3:0:0:0:
219,84,75556,1,0,3:0:0:0:
216,127,75633,1,0,3:0:0:0:
294,269,75786,1,0,3:0:0:0:
143,358,75939,1,0,3:0:0:0:
101,359,76015,1,0,3:0:0:0:
65,337,76092,1,0,3:0:0:0:
49,299,76168,1,0,3:0:0:0:
58,258,76245,5,4,0:1:0:0:
350,149,85429,5,0,1:0:0:0:
405,226,85582,1,0,3:0:0:0:
405,63,85735,1,0,1:0:0:0:
262,142,85888,1,0,3:0:0:0:
230,145,85964,1,0,3:0:0:0:
198,137,86041,6,0,P|158:135|114:136,1,63.7500024318696,4|0,0:1|0:0,0:0:0:0:
244,245,86347,2,0,P|284:243|328:244,1,63.7500024318696,0|0,1:0|0:0,0:0:0:0:
163,353,86653,2,0,P|154:276|141:224,1,127.500004863739,0|0,1:0|1:0,0:0:0:0:
198,137,87112,1,0,3:0:0:0:
386,275,87266,5,0,0:0:0:0:
281,207,87419,1,0,3:0:0:0:
472,186,87572,1,0,1:0:0:0:
363,128,87725,2,0,P|353:201|376:261,1,127.500004863739,0|0,0:0|3:0,0:0:0:0:
264,359,88184,2,0,P|258:303|254:291,1,63.7500024318696,0|0,1:0|3:0,0:0:0:0:
119,163,88490,6,0,P|124:102|130:27,1,127.500004863739,4|0,0:1|1:0,0:0:0:0:
249,114,88949,1,0,0:0:0:0:
100,188,89102,2,0,P|105:127|111:52,1,127.500004863739,0|0,1:0|1:0,0:0:0:0:
230,139,89561,1,0,3:0:0:0:
74,273,89715,6,0,P|37:268|2:267,1,63.7500024318696,2|0,0:0|3:0,0:0:0:0:
142,340,90021,1,0,1:0:0:0:
249,225,90174,2,0,B|227:150|270:170|241:84,1,127.500004863739,2|0,0:0|3:0,0:0:0:0:
339,193,90633,1,0,1:0:0:0:
256,308,90786,1,0,3:0:0:0:
146,114,90939,6,0,P|150:75|160:44,1,63.7500024318696,4|0,0:1|0:0,0:0:0:0:
202,218,91245,2,0,P|171:226|139:228,1,63.7500024318696,0|0,1:0|0:0,0:0:0:0:
261,82,91551,2,0,P|321:85|403:89,1,127.500004863739,0|0,1:0|1:0,0:0:0:0:
480,171,92010,1,0,3:0:0:0:
340,296,92163,6,0,P|342:230|344:153,1,127.500004863739,2|0,0:0|1:0,0:0:0:0:
262,310,92623,2,0,P|297:365|370:370,1,127.500004863739,2|0,0:0|3:0,0:0:0:0:
199,254,93082,1,0,1:0:0:0:
340,296,93235,1,0,3:0:0:0:
144,354,93388,6,0,P|108:349|69:342,1,63.7500024318696,4|0,0:1|0:0,0:0:0:0:
198,180,93694,2,0,P|233:175|273:168,1,63.7500024318696,0|0,1:0|0:0,0:0:0:0:
147,331,94000,2,0,P|112:323|73:312,1,63.7500024318696,0|0,1:0|3:0,0:0:0:0:
216,162,94306,2,0,P|251:160|292:157,1,63.7500024318696,0|0,1:0|3:0,0:0:0:0:
110,117,94612,5,2,0:0:0:0:
263,233,94766,1,0,3:0:0:0:
294,232,94842,1,0,3:0:0:0:
323,220,94919,5,0,3:0:0:0:
345,196,94995,1,0,3:0:0:0:
355,167,95072,1,0,3:0:0:0:
353,135,95148,1,0,3:0:0:0:
336,108,95225,5,0,3:0:0:0:
333,76,95301,1,0,3:0:0:0:
345,47,95378,1,0,3:0:0:0:
371,29,95454,1,0,3:0:0:0:
402,25,95531,5,0,3:0:0:0:
431,37,95607,1,0,3:0:0:0:
451,62,95684,1,0,3:0:0:0:
456,93,95760,1,0,3:0:0:0:
444,122,95837,6,0,P|443:174|445:204,1,63.7500024318696,4|0,0:1|0:0,0:0:0:0:
322,258,96143,2,0,P|317:226|310:195,1,63.7500024318696,0|0,1:0|0:0,0:0:0:0:
479,285,96449,2,0,P|447:283|415:284,1,63.7500024318696,0|0,1:0|3:0,0:0:0:0:
302,107,96755,2,0,P|333:102|364:95,1,63.7500024318696,0|0,1:0|3:0,0:0:0:0:
227,208,97061,6,0,P|196:203|165:196,1,63.7500024318696,2|0,0:0|3:0,0:0:0:0:
12,121,97368,1,0,1:0:0:0:
62,249,97521,1,0,0:0:0:0:
158,98,97674,2,0,P|162:48|160:14,1,63.7500024318696,0|0,1:0|3:0,0:0:0:0:
12,121,97980,2,0,P|14:152|21:183,1,63.7500024318696,0|0,1:0|3:0,0:0:0:0:
177,371,98286,6,0,P|184:330|147:173,1,191.250007295609,4|0,0:1|0:0,0:0:0:0:
6,294,98898,2,0,P|37:299|81:298,1,63.7500024318696,0|0,1:0|3:0,0:0:0:0:
277,198,99204,6,0,B|197:217|233:167|134:189,1,127.500004863739,0|0,1:0|3:0,0:0:0:0:
279,278,99817,2,0,P|312:277|347:268,1,63.7500024318696,0|0,1:0|0:0,0:0:0:0:
307,110,100123,2,0,P|274:111|239:120,1,63.7500024318696,0|0,1:0|3:0,0:0:0:0:
402,204,100429,2,0,P|394:162|379:132,1,63.7500024318696,0|0,1:0|3:0,0:0:0:0:
290,288,100735,6,0,P|280:318|278:350,1,63.7500024318696,4|0,0:1|0:0,0:0:0:0:
391,230,101041,1,0,1:0:0:0:
243,209,101194,1,0,0:0:0:0:
394,337,101347,2,0,P|445:329|462:327,1,63.7500024318696,0|0,1:0|3:0,0:0:0:0:
278,350,101653,2,0,P|227:342|210:340,1,63.7500024318696,0|0,1:0|3:0,0:0:0:0:
13,356,101959,5,2,0:0:0:0:
193,260,102112,1,0,0:0:0:0:
0,157,102266,1,0,1:0:0:0:
83,267,102419,1,0,0:0:0:0:
197,91,102572,2,0,P|188:28|182:15,1,63.7500024318696,0|0,1:0|3:0,0:0:0:0:
20,109,102878,2,0,P|11:139|11:171,1,63.7500024318696,0|0,1:0|3:0,0:0:0:0:
193,260,103184,6,0,P|246:236|171:184,1,191.250007295609,2|0,0:0|0:0,0:0:0:0:
172,333,103796,6,0,B|272:360|247:294|345:323,1,170,0|0,1:0|0:0,0:0:0:0:
442,201,104561,5,2,0:3:0:0:
442,201,104638,1,2,0:3:0:0:
442,201,104715,1,2,0:3:0:0:
336,320,104868,1,2,0:0:0:0:
385,117,105021,1,2,0:3:0:0:
423,309,105174,1,2,0:0:0:0:
289,105,105327,1,2,0:3:0:0:
112,203,105480,1,0,3:3:0:0:
112,203,105556,1,0,3:3:0:0:
112,203,105633,5,0,3:0:0:0:
141,218,105709,1,0,3:0:0:0:
175,217,105786,1,0,3:0:0:0:
203,199,105862,1,0,3:0:0:0:
224,163,105939,5,0,3:0:0:0:
248,128,106015,1,0,3:0:0:0:
286,109,106092,1,0,3:0:0:0:
328,109,106168,1,0,3:0:0:0:
372,136,106245,5,0,3:0:0:0:
401,176,106321,1,0,3:0:0:0:
409,226,106398,1,0,3:0:0:0:
394,274,106474,1,0,3:0:0:0:
358,310,106551,5,8,3:0:0:0:
310,326,106627,1,8,3:0:0:0:
261,318,106704,1,8,3:0:0:0:
224,284,106781,1,8,3:0:0:0:
204,236,106857,6,0,P|206:193|208:144,1,85,4|2,0:1|3:0,0:0:0:0:
124,34,107163,1,0,1:0:0:0:
120,182,107316,2,0,P|115:263|96:356,1,170,2|0,0:0|3:0,0:0:0:0:
204,236,107776,2,0,P|246:232|296:240,1,85,0|0,1:0|3:0,0:0:0:0:
387,361,108082,6,0,B|285:385|331:321|206:349,1,170,2|0,0:0|1:0,0:0:0:0:
356,278,108541,1,0,0:0:0:0:
204,236,108694,1,0,1:0:0:0:
399,186,108847,1,0,3:0:0:0:
177,125,109000,2,0,P|127:122|82:121,1,85,0|0,1:0|0:0,0:0:0:0:
222,345,109306,6,0,P|235:191|239:145,1,170,4|0,0:1|1:0,0:0:0:0:
295,37,109765,2,0,P|322:189|329:234,1,170,2|0,0:0|3:0,0:0:0:0:
216,22,110225,1,0,1:0:0:0:
387,79,110378,1,0,3:0:0:0:
170,220,110531,6,0,P|102:225|65:220,1,85,2|2,0:0|3:0,0:0:0:0:
212,55,110837,2,0,P|255:57|296:66,1,85,0|0,1:0|0:0,0:0:0:0:
433,252,111143,1,0,1:0:0:0:
387,79,111296,1,0,3:0:0:0:
371,326,111449,1,0,1:0:0:0:
446,151,111602,1,0,3:0:0:0:
300,363,111755,6,0,P|259:371|217:373,1,85,4|2,0:1|3:0,0:0:0:0:
120,206,112061,2,0,P|219:214|235:216,1,85,0|0,1:0|0:0,0:0:0:0:
412,148,112367,1,0,0:0:0:0:
247,114,112521,1,0,3:0:0:0:
433,252,112674,1,0,1:0:0:0:
346,77,112827,1,0,0:0:0:0:
228,283,112980,6,0,P|134:280|52:279,1,170,4|0,0:1|1:0,0:0:0:0:
171,365,113439,1,0,0:0:0:0:
68,184,113592,1,0,1:0:0:0:
22,349,113745,1,0,3:0:0:0:
171,197,113898,2,0,P|215:190|276:186,1,85,0|0,1:0|3:0,0:0:0:0:
413,341,114204,6,0,P|410:293|285:294,1,170,4|0,0:1|1:0,0:0:0:0:
266,356,114663,2,0,P|255:185|254:167,1,170,2|0,0:0|3:0,0:0:0:0:
166,103,115123,2,0,P|157:203|154:216,1,85,0|0,1:0|0:0,0:0:0:0:
282,56,115429,5,4,0:1:0:0:
357,252,115582,1,2,3:0:0:0:
392,78,115735,1,0,1:0:0:0:
473,215,115888,1,2,0:3:0:0:
473,215,115965,1,2,0:3:0:0:
473,215,116041,1,2,0:3:0:0:
430,214,116117,1,2,0:3:0:0:
390,226,116194,1,2,3:3:0:0:
357,252,116270,1,2,0:3:0:0:
338,288,116347,1,8,3:0:0:0:
302,309,116423,1,8,3:0:0:0:
262,299,116500,1,8,3:0:0:0:
241,263,116576,1,8,3:0:0:0:
236,220,116653,6,0,P|239:169|243:129,1,85,4|2,0:1|3:0,0:0:0:0:
325,34,116959,1,0,1:0:0:0:
404,199,117112,2,0,P|265:215|221:222,1,170,2|0,0:0|3:0,0:0:0:0:
106,315,117572,2,0,P|158:315|195:320,1,85,0|0,1:0|3:0,0:0:0:0:
419,363,117878,6,0,B|443:261|379:307|407:182,1,170,2|0,0:0|1:0,0:0:0:0:
265,126,118337,1,0,0:0:0:0:
429,185,118490,1,0,1:0:0:0:
277,282,118643,1,0,3:0:0:0:
503,353,118796,2,0,P|463:358|409:363,1,85,0|0,1:0|0:0,0:0:0:0:
242,205,119102,6,0,P|241:139|339:89,1,170,4|0,0:1|1:0,0:0:0:0:
277,282,119561,2,0,P|211:283|161:185,1,170,2|0,0:0|3:0,0:0:0:0:
217,40,120021,1,0,1:0:0:0:
82,120,120174,1,0,3:0:0:0:
242,205,120327,6,0,P|317:210|331:211,1,85,4|2,0:1|3:0,0:0:0:0:
464,330,120633,2,0,P|390:335|375:336,1,85,0|0,1:0|0:0,0:0:0:0:
211,350,120939,1,0,1:0:0:0:
347,243,121092,1,0,3:0:0:0:
228,121,121245,2,0,P|230:162|243:209,1,85,0|0,1:0|3:0,0:0:0:0:
472,314,121551,6,0,P|479:272|477:229,1,85,2|2,0:0|3:0,0:0:0:0:
352,65,121857,2,0,P|355:107|359:149,1,85,0|0,1:0|0:0,0:0:0:0:
256,292,122163,1,0,0:0:0:0:
181,158,122316,1,0,0:0:0:0:
367,304,122470,1,0,1:0:0:0:
185,361,122623,1,0,0:0:0:0:
363,215,122776,5,4,0:1:0:0:
143,269,122929,1,2,3:0:0:0:
335,328,123082,2,0,P|339:284|347:233,1,85,0|0,1:0|0:0,0:0:0:0:
429,63,123388,1,0,1:0:0:0:
461,257,123541,1,0,3:0:0:0:
321,116,123694,1,0,1:0:0:0:
509,163,123847,1,0,3:0:0:0:
267,229,124000,6,0,P|225:223|173:217,1,85,2|2,0:0|3:0,0:0:0:0:
21,337,124306,2,0,P|63:331|105:326,1,85,0|0,1:0|0:0,0:0:0:0:
267,229,124612,1,2,0:0:0:0:
198,369,124765,1,0,0:0:0:0:
163,203,124919,1,0,1:0:0:0:
297,336,125072,1,0,0:0:0:0:
83,280,125225,5,0,3:1:0:0:
237,156,125378,1,0,3:0:0:0:
274,136,125454,1,0,3:0:0:0:
316,131,125531,1,0,3:0:0:0:
357,141,125607,1,0,3:0:0:0:
392,164,125684,2,0,P|401:188|406:226,1,42.5,0|0,3:0|3:0,0:0:0:0:
327,358,125837,1,0,3:0:0:0:
300,235,125990,5,0,3:0:0:0:
300,235,126067,1,0,3:0:0:0:
300,235,126143,1,0,3:0:0:0:
338,250,126219,1,0,3:0:0:0:
360,286,126296,1,0,3:0:0:0:
355,327,126372,1,0,3:0:0:0:
327,358,126449,5,6,0:0:0:0:
260,47,146041,6,0,P|246:89|245:114,1,63.7500024318696,4|0,0:1|3:0,0:0:0:0:
375,183,146347,2,0,P|371:151|359:121,1,63.7500024318696,0|0,1:0|1:0,0:0:0:0:
320,293,146653,2,0,P|385:285|456:276,1,127.500004863739,2|0,0:0|1:0,0:0:0:0:
446,277,147112,1,0,3:0:0:0:
234,358,147266,6,0,P|199:348|169:331,1,63.7500024318696,2|0,0:0|3:0,0:0:0:0:
121,177,147572,2,0,P|149:162|180:154,1,63.7500024318696,0|0,1:0|0:0,0:0:0:0:
44,272,147878,2,0,P|40:202|34:134,1,127.500004863739,0|0,1:0|1:0,0:0:0:0:
35,144,148337,1,0,3:0:0:0:
224,279,148490,6,0,P|186:280|159:272,1,63.7500024318696,4|0,0:1|3:0,0:0:0:0:
266,154,148796,2,0,P|285:186|292:213,1,63.7500024318696,0|0,1:0|1:0,0:0:0:0:
127,184,149102,2,0,P|145:150|165:131,1,63.7500024318696,2|0,0:0|3:0,0:0:0:0:
163,132,149332,1,0,0:0:0:0:
163,132,149408,1,0,1:0:0:0:
44,272,149561,1,0,3:0:0:0:
339,344,149715,6,0,P|375:340|407:336,1,63.7500024318696,2|0,0:0|3:0,0:0:0:0:
484,248,150021,1,0,1:0:0:0:
371,120,150174,2,0,P|365:163|371:187,1,63.7500024318696,2|0,0:0|1:0,0:0:0:0:
339,344,150480,2,0,P|343:312|337:281,1,63.7500024318696,0|0,3:0|1:0,0:0:0:0:
235,169,150786,1,0,3:0:0:0:
86,332,150939,6,0,P|135:326|155:316,1,63.7500024318696,4|0,0:1|3:0,0:0:0:0:
41,191,151245,2,0,P|21:236|20:258,1,63.7500024318696,0|0,1:0|1:0,0:0:0:0:
194,216,151551,2,0,P|164:176|145:164,1,63.7500024318696,2|0,0:0|3:0,0:0:0:0:
21,83,151857,1,0,1:0:0:0:
180,52,152010,1,0,3:0:0:0:
128,283,152163,6,0,B|106:208|149:228|120:142,1,127.500004863739,2|0,0:0|1:0,0:0:0:0:
220,248,152623,1,0,0:0:0:0:
160,363,152776,2,0,P|125:357|94:351,1,63.7500024318696,0|0,1:0|3:0,0:0:0:0:
220,248,153082,2,0,P|255:242|286:236,1,63.7500024318696,0|0,1:0|3:0,0:0:0:0:
490,361,153388,6,0,P|448:352|421:330,1,63.7500024318696,4|0,0:1|3:0,0:0:0:0:
300,236,153694,1,0,1:0:0:0:
480,124,153847,2,0,L|477:260,1,127.500004863739,0|0,1:0|3:0,0:0:0:0:
477,251,154230,1,0,0:0:0:0:
477,251,154306,1,0,1:0:0:0:
397,98,154459,1,0,3:0:0:0:
353,294,154612,5,2,0:0:0:0:
413,88,154766,1,0,3:0:0:0:
173,275,154919,2,0,P|158:229|147:207,1,63.7500024318696,0|0,1:0|0:0,0:0:0:0:
151,215,155148,1,0,3:0:0:0:
151,215,155225,1,0,1:0:0:0:
32,103,155378,1,0,3:0:0:0:
111,330,155531,1,0,1:0:0:0:
246,211,155684,1,0,3:0:0:0:
47,41,155837,6,0,P|33:83|32:108,1,63.7500024318696,4|0,0:1|3:0,0:0:0:0:
151,215,156143,2,0,P|147:183|135:153,1,63.7500024318696,0|0,1:0|1:0,0:0:0:0:
102,305,156449,2,0,P|165:296|228:289,1,127.500004863739,2|0,0:0|1:0,0:0:0:0:
228,289,156908,1,0,3:0:0:0:
373,146,157061,6,0,P|379:102|371:70,1,63.7500024318696,2|0,0:0|3:0,0:0:0:0:
203,26,157368,2,0,P|199:57|205:88,1,63.7500024318696,0|0,1:0|0:0,0:0:0:0:
160,238,157674,2,0,P|90:241|22:248,1,127.500004863739,0|0,1:0|1:0,0:0:0:0:
32,246,158133,1,0,3:0:0:0:
207,357,158286,6,0,P|246:353|269:344,1,63.7500024318696,4|0,0:1|3:0,0:0:0:0:
423,273,158592,2,0,P|384:269|361:260,1,63.7500024318696,0|0,1:0|1:0,0:0:0:0:
224,164,158898,2,0,L|211:19,1,127.500004863739,2|0,0:0|1:0,0:0:0:0:
212,37,159357,1,0,3:0:0:0:
153,242,159510,6,0,P|192:265|221:273,1,63.7500024318696,0|0,0:0|3:0,0:0:0:0:
240,276,159740,1,0,0:0:0:0:
271,274,159816,5,0,3:0:0:0:
300,262,159893,1,0,3:0:0:0:
323,240,159969,1,0,3:0:0:0:
337,212,160046,1,0,3:0:0:0:
341,180,160123,5,0,1:0:0:0:
328,151,160199,1,0,3:0:0:0:
331,120,160276,1,0,3:0:0:0:
349,94,160352,1,0,3:0:0:0:
378,80,160429,6,0,P|401:79|427:81,1,31.8750012159348,0|0,1:0|3:0,0:0:0:0:
251,195,160582,2,0,P|235:194|219:193,1,31.8750012159348,0|0,3:0|3:0,0:0:0:0:
422,327,160735,5,4,3:1:0:0:
256,104,160888,1,2,3:0:0:0:
324,373,161041,5,8,3:0:0:0:
409,79,161194,1,0,3:0:0:0:
409,79,161271,1,0,3:0:0:0:
409,79,161347,5,4,3:1:0:0:
151,226,161500,1,2,3:0:0:0:
441,231,161653,5,8,3:0:0:0:
119,79,161806,1,0,3:0:0:0:
119,79,161883,1,0,3:0:0:0:
119,79,161959,5,4,3:1:0:0:
190,292,162112,1,2,3:0:0:0:
233,45,162266,5,8,3:0:0:0:
64,247,162419,1,0,3:0:0:0:
64,247,162495,1,0,3:0:0:0:
64,247,162572,5,4,3:1:0:0:
309,177,162725,1,2,3:0:0:0:
19,161,162878,5,8,3:0:0:0:
256,310,163031,1,0,3:0:0:0:
256,310,163107,1,0,3:0:0:0:
256,310,163184,5,4,3:1:0:0:
170,91,163337,1,2,3:0:0:0:
163,362,163490,5,8,3:0:0:0:
453,40,163643,1,4,3:1:0:0:
453,290,163796,5,4,3:1:0:0:
280,102,163949,2,0,P|268:76|260:49,1,42.5,0|0,3:3|3:3,0:0:0:0:
357,121,164102,2,0,P|384:123|412:130,1,42.5,8|0,3:3|3:3,0:0:0:0:
302,185,164255,2,0,P|285:208|265:228,1,42.5,0|0,3:3|3:3,0:0:0:0:
145,310,164408,5,8,3:3:0:0:
105,324,164484,1,0,3:3:0:0:
64,316,164561,1,0,3:3:0:0:
34,287,164637,1,0,3:3:0:0:
23,247,164714,5,8,3:3:0:0:
36,207,164790,1,0,3:3:0:0:
67,179,164867,1,0,3:3:0:0:
109,173,164943,1,0,3:3:0:0:
147,190,165021,5,8,3:3:0:0:
186,205,165097,1,0,3:3:0:0:
227,197,165174,1,0,3:3:0:0:
257,168,165250,1,0,3:3:0:0:
268,128,165327,5,8,3:3:0:0:
255,88,165403,1,8,3:3:0:0:
224,60,165480,1,0,3:3:0:0:
182,54,165556,1,8,3:3:0:0:
144,71,165633,5,6,0:2:0:0:
319,50,168082,5,2,0:2:0:0:
127,228,170531,5,2,0:2:0:0:
345,242,172980,5,2,0:2:0:0:
80,112,174204,5,2,0:3:0:0:
80,112,174510,1,2,0:3:0:0:
108,188,174663,2,0,P|105:208|104:236,2,42.5,2|2|2,0:3|0:3|0:3,0:3:0:0:
172,136,174970,1,0,0:0:0:0:
190,263,175123,2,0,P|149:260|100:250,1,85,4|0,0:3|0:3,0:3:0:0:
316,88,175429,5,4,3:1:0:0:
316,88,175888,1,0,3:0:0:0:
368,337,176041,1,8,3:0:0:0:
368,337,176653,5,4,3:1:0:0:
391,313,177266,1,8,3:0:0:0:
414,289,177878,5,4,3:1:0:0:
228,120,178031,1,0,3:0:0:0:
310,341,178337,5,0,3:0:0:0:
296,48,178490,1,8,3:0:0:0:
286,6,179102,5,4,3:1:0:0:
470,139,179255,1,0,3:0:0:0:
176,88,179408,1,8,3:0:0:0:
176,88,179715,5,4,3:1:0:0:
424,43,179868,1,0,3:0:0:0:
424,43,179944,1,0,3:0:0:0:
424,43,180021,1,0,3:0:0:0:
257,257,180174,1,0,3:0:0:0:
257,257,180250,1,0,3:0:0:0:
257,257,180327,5,4,3:1:0:0:
149,81,180480,1,0,3:0:0:0:
364,81,180633,1,8,3:0:0:0:
162,226,180786,1,0,3:0:0:0:
257,1,180939,1,4,3:0:0:0:
352,226,181092,1,0,3:0:0:0:
149,81,181245,1,8,3:0:0:0:
364,81,181398,1,0,3:0:0:0:
78,186,181551,5,4,3:0:0:0:
278,65,181704,1,0,3:0:0:0:
37,114,181857,5,4,3:0:0:0:
280,161,182010,1,0,3:0:0:0:
102,63,182163,5,4,3:0:0:0:
237,241,182317,1,0,3:0:0:0:
180,27,182470,5,4,3:0:0:0:
147,263,182623,1,0,3:0:0:0:
11,24,182776,5,4,3:1:0:0:
256,187,182929,1,2,3:0:0:0:
500,24,183082,1,2,3:0:0:0:
500,24,183158,1,2,3:0:0:0:
500,24,183235,1,2,3:0:0:0:
256,17,183388,5,8,3:0:0:0:
85,293,183541,1,8,3:0:0:0:
426,293,183694,1,8,3:0:0:0:
256,192,183847,12,0,184459,0:0:0:0:
488,40,184766,5,2,3:0:0:0:
488,40,184842,1,2,3:0:0:0:
488,40,184919,1,2,3:0:0:0:
115,279,185225,6,0,P|55:272|27:269,1,85,4|2,0:1|3:0,0:0:0:0:
185,361,185531,1,0,1:0:0:0:
305,227,185684,2,0,P|300:127|306:54,1,170,2|0,0:0|3:0,0:0:0:0:
186,244,186144,2,0,P|190:277|196:342,1,85,0|0,1:0|3:0,0:0:0:0:
58,166,186450,6,0,B|160:190|114:126|239:154,1,170,2|0,0:0|1:0,0:0:0:0:
88,72,186909,1,0,0:0:0:0:
186,244,187062,1,0,1:0:0:0:
19,269,187215,1,0,3:0:0:0:
222,150,187368,2,0,P|217:86|213:50,1,85,0|0,1:0|0:0,0:0:0:0:
342,267,187674,6,0,P|188:242|154:267,1,170,4|0,0:1|1:0,0:0:0:0:
395,350,188133,2,0,P|381:196|378:150,1,170,2|0,0:0|3:0,0:0:0:0:
264,20,188593,1,0,1:0:0:0:
412,75,188746,1,0,3:0:0:0:
286,229,188899,6,0,P|218:234|181:229,1,85,2|2,0:0|3:0,0:0:0:0:
328,64,189205,2,0,P|371:66|412:75,1,85,0|0,1:0|0:0,0:0:0:0:
240,31,189511,1,0,1:0:0:0:
358,166,189664,1,0,3:0:0:0:
139,111,189817,1,0,1:0:0:0:
294,85,189970,1,0,3:0:0:0:
220,327,190123,6,0,P|212:286|210:244,1,85,4|2,0:1|3:0,0:0:0:0:
367,81,190429,2,0,P|365:123|357:165,1,85,0|0,1:0|0:0,0:0:0:0:
220,327,190735,1,2,0:0:0:0:
162,172,190889,1,0,3:0:0:0:
340,336,191042,1,0,1:0:0:0:
134,321,191195,1,0,0:0:0:0:
362,180,191348,6,0,P|368:85|358:4,1,170,4|0,0:1|1:0,0:0:0:0:
306,230,191807,1,0,0:0:0:0:
443,139,191960,1,0,1:0:0:0:
422,307,192113,1,0,3:0:0:0:
283,209,192266,2,0,P|239:202|178:198,1,85,0|0,1:0|3:0,0:0:0:0:
245,304,192572,6,0,B|347:328|301:264|426:292,1,170,4|0,0:1|1:0,0:0:0:0:
213,384,193031,2,0,P|202:213|201:195,1,170,2|0,0:0|3:0,0:0:0:0:
315,76,193491,2,0,P|415:85|428:88,1,85,0|0,1:0|0:0,0:0:0:0:
432,116,193720,1,2,0:0:0:0:
449,154,193796,5,2,0:3:0:0:
448,196,193873,1,2,0:3:0:0:
428,233,193949,1,2,3:3:0:0:
394,257,194026,1,2,0:3:0:0:
352,262,194102,5,2,0:3:0:0:
312,248,194179,1,2,0:3:0:0:
283,218,194255,1,2,0:3:0:0:
271,178,194332,1,2,0:3:0:0:
271,135,194408,6,0,P|275:100|279:80,1,42.5,8|0,0:3|0:0,0:0:0:0:
175,22,194561,1,8,0:3:0:0:
188,60,194637,1,8,0:3:0:0:
179,102,194714,1,8,3:3:0:0:
151,133,194790,1,8,0:3:0:0:
111,146,194867,1,8,3:3:0:0:
69,138,194943,1,8,0:3:0:0:
32,116,195021,6,0,P|27:64|30:29,1,85,4|2,0:1|3:0,0:0:0:0:
127,229,195327,1,0,1:0:0:0:
242,69,195480,2,0,P|413:47|425:46,1,170,2|0,0:0|3:0,0:0:0:0:
250,219,195940,2,0,P|207:214|165:214,1,85,0|0,1:0|3:0,0:0:0:0:
322,350,196246,6,0,B|298:248|362:294|334:169,1,170,2|0,0:0|1:0,0:0:0:0:
419,326,196705,1,0,0:0:0:0:
233,215,196858,1,0,1:0:0:0:
427,155,197011,1,0,3:0:0:0:
242,67,197164,2,0,P|200:71|158:77,1,85,0|0,1:0|0:0,0:0:0:0:
114,294,197470,6,0,P|195:286|232:214,1,170,4|0,0:1|1:0,0:0:0:0:
77,363,197929,2,0,P|73:269|71:185,1,170,2|0,0:0|3:0,0:0:0:0:
177,68,198389,1,0,1:0:0:0:
232,214,198542,1,0,3:0:0:0:
74,94,198695,6,0,P|149:89|163:88,1,85,4|2,0:1|3:0,0:0:0:0:
316,220,199001,2,0,P|242:215|227:214,1,85,0|0,1:0|0:0,0:0:0:0:
381,103,199307,1,0,1:0:0:0:
281,298,199460,1,0,3:0:0:0:
158,88,199613,2,0,P|160:47|173:0,1,85,0|0,1:0|3:0,0:0:0:0:
403,137,199919,6,0,P|411:180|417:221,1,85,2|2,0:0|3:0,0:0:0:0:
208,314,200225,2,0,P|211:271|215:229,1,85,0|0,1:0|0:0,0:0:0:0:
328,62,200531,1,2,0:0:0:0:
125,147,200684,1,0,0:0:0:0:
328,62,200838,1,0,1:0:0:0:
125,147,200991,1,0,0:0:0:0:
325,174,201144,5,4,0:1:0:0:
65,66,201297,1,2,3:0:0:0:
224,273,201450,2,0,P|220:229|212:178,1,85,0|0,1:0|0:0,0:0:0:0:
65,66,201756,1,0,1:0:0:0:
266,87,201909,1,0,3:0:0:0:
65,66,202062,1,0,1:0:0:0:
213,188,202215,1,0,3:0:0:0:
24,313,202368,6,0,P|25:268|32:219,1,85,2|2,0:0|3:0,0:0:0:0:
162,35,202674,2,0,P|167:77|168:119,1,85,0|0,1:0|0:0,0:0:0:0:
274,312,202980,1,2,0:0:0:0:
58,221,203133,1,0,0:0:0:0:
274,312,203287,1,0,1:0:0:0:
213,188,203439,1,0,0:0:0:0:
213,188,203516,1,0,0:0:0:0:
213,188,203592,6,0,P|223:144|224:120,1,42.5,0|0,3:1|3:0,0:0:0:0:
286,21,203745,2,0,P|289:41|295:62,1,42.5,0|0,3:0|3:0,0:0:0:0:
401,148,203898,5,8,3:0:0:0:
416,173,203974,1,8,3:0:0:0:
423,201,204051,1,8,3:0:0:0:
421,231,204127,1,8,3:0:0:0:
400,268,204204,5,2,3:3:0:0:
364,289,204280,1,2,3:3:0:0:
322,284,204357,1,2,3:3:0:0:
293,254,204434,1,2,0:3:0:0:
268,204,204510,5,8,3:3:0:0:
233,163,204586,1,8,3:3:0:0:
180,166,204663,1,8,3:3:0:0:
150,210,204740,1,8,3:3:0:0:
132,264,204817,6,0,P|76:288|48:192,1,170,4|0,0:1|1:0,0:0:0:0:
129,36,205276,2,0,P|127:80|125:131,1,85,2|0,3:0|0:0,0:0:0:0:
233,251,205582,1,2,3:0:0:0:
317,58,205735,1,0,1:0:0:0:
419,274,205888,6,0,B|361:295|361:295|253:279,1,170,4|2,0:1|3:0,0:0:0:0:
340,95,206347,2,0,P|342:137|346:179,1,85,0|0,1:0|0:0,0:0:0:0:
177,294,206653,1,0,1:0:0:0:
346,179,206807,1,2,3:0:0:0:
174,101,206960,1,0,1:0:0:0:
177,294,207112,1,0,0:0:0:0:
460,261,207266,6,0,P|442:201|334:186,1,170,4|0,0:1|1:0,0:0:0:0:
373,360,207725,2,0,P|374:317|375:275,1,85,2|0,3:0|0:0,0:0:0:0:
305,108,208031,1,2,3:0:0:0:
224,354,208184,1,0,1:0:0:0:
152,171,208337,1,4,0:1:0:0:
224,354,208490,6,0,P|221:311|216:269,1,85,2|0,0:0|0:0,0:0:0:0:
305,108,208796,2,0,P|300:150|297:192,1,85,0|0,1:0|0:0,0:0:0:0:
217,53,209102,1,0,1:0:0:0:
390,119,209255,1,2,3:0:0:0:
152,171,209409,1,0,1:0:0:0:
390,119,209562,1,0,0:0:0:0:
152,335,209715,6,0,B|132:287|132:287|154:154,1,170,4|0,0:1|1:0,0:0:0:0:
298,31,210174,2,0,P|288:105|283:117,1,85,2|0,3:0|0:0,0:0:0:0:
151,170,210480,1,2,3:0:0:0:
310,230,210633,1,0,1:0:0:0:
135,353,210786,6,0,B|74:366|16:345|16:345|9:316|1:287,1,170,4|0,0:1|0:0,0:0:0:0:
127,171,211245,2,0,P|128:254|128:280,1,85,0|0,1:0|0:0,0:0:0:0:
216,97,211551,1,0,1:0:0:0:
46,185,211704,1,2,3:0:0:0:
216,97,211858,1,0,1:0:0:0:
46,185,212011,1,0,0:0:0:0:
225,292,212164,6,0,B|214:141|212:114,1,170,4|0,0:1|1:0,0:0:0:0:
357,28,212623,2,0,P|354:100|354:112,1,85,2|0,3:0|0:0,0:0:0:0:
397,330,212929,1,2,3:0:0:0:
225,292,213082,1,0,1:0:0:0:
456,209,213235,5,2,3:0:0:0:
456,209,213312,1,2,3:0:0:0:
456,209,213388,1,4,0:1:0:0:
177,353,213541,1,0,0:0:0:0:
303,99,213694,5,0,1:0:0:0:
316,365,213847,1,0,0:0:0:0:
88,126,214000,6,0,P|85:98|86:76,1,42.5,0|0,3:0|3:0,0:0:0:0:
188,232,214153,2,0,P|188:253|185:274,1,42.5,0|0,3:0|3:0,0:0:0:0:
118,208,214306,5,8,3:0:0:0:
141,173,214382,1,8,0:3:0:0:
180,157,214459,1,8,3:0:0:0:
221,165,214535,1,8,0:3:0:0:
256,188,214612,6,0,B|356:215|331:149|429:178,1,170,4|0,0:1|1:0,0:0:0:0:
379,337,215071,2,0,P|375:295|387:251,1,85,2|0,3:0|0:0,0:0:0:0:
471,88,215377,1,2,3:0:0:0:
509,338,215530,1,0,1:0:0:0:
259,167,215684,6,0,B|366:146|366:146|422:176,1,170,4|2,0:1|3:0,0:0:0:0:
282,343,216142,2,0,P|279:300|276:253,1,85,0|0,1:0|0:0,0:0:0:0:
123,134,216448,1,0,1:0:0:0:
276,258,216602,1,2,0:3:0:0:
123,134,216754,1,0,1:0:0:0:
276,258,216908,1,0,0:0:0:0:
119,331,217061,6,0,B|97:275|97:275|116:157,1,170,4|0,0:1|1:0,0:0:0:0:
232,25,217520,2,0,P|244:65|234:106,1,85,2|0,3:0|0:0,0:0:0:0:
101,188,217826,1,2,3:0:0:0:
163,67,217979,1,0,1:0:0:0:
234,260,218132,6,0,B|334:287|309:221|407:250,1,170,4|0,0:1|0:0,0:0:0:0:
429,278,218516,1,0,3:0:0:0:
466,296,218591,2,0,P|466:195|467:189,1,85,0|0,1:0|0:0,0:0:0:0:
361,38,218897,1,0,1:0:0:0:
271,181,219050,1,2,3:0:0:0:
449,92,219203,1,0,0:0:0:0:
205,46,219357,1,2,3:0:0:0:
205,46,219433,1,0,3:0:0:0:
205,46,219510,6,0,B|138:34|138:34|42:78,1,170,4|0,0:1|1:0,0:0:0:0:
144,268,219969,2,0,P|149:225|151:183,1,85,2|0,3:0|0:0,0:0:0:0:
45,76,220275,1,2,3:0:0:0:
245,134,220428,1,0,1:0:0:0:
32,267,220581,6,0,P|3:216|20:102,1,170,4|0,0:1|0:0,0:0:0:0:
45,76,220965,1,0,0:0:0:0:
74,46,221040,2,0,P|156:55|174:56,1,85,0|0,1:0|0:0,0:0:0:0:
373,38,221346,1,0,1:0:0:0:
158,55,221499,1,2,3:0:0:0:
373,38,221653,1,0,1:0:0:0:
158,55,221806,1,0,0:0:0:0:
304,275,221959,6,0,B|404:302|379:236|477:265,1,170,4|0,0:1|1:0,0:0:0:0:
351,115,222418,2,0,P|344:194|344:203,1,85,2|0,3:0|0:0,0:0:0:0:
456,158,222724,1,2,3:0:0:0:
228,149,222877,1,0,1:0:0:0:
446,338,223030,6,0,P|422:271|443:164,1,170,2|0,3:0|0:0,0:0:0:0:
357,30,223489,2,0,P|355:72|350:115,1,85,0|2,1:0|3:0,0:0:0:0:
140,268,223796,1,0,3:0:0:0:
201,105,223948,1,2,3:0:0:0:
298,321,224101,1,0,1:0:0:0:
111,170,224255,1,8,3:0:0:0:
111,170,224332,1,8,3:0:0:0:
111,170,224408,5,4,3:1:0:0:
401,170,224561,1,0,3:0:0:0:
181,358,224715,5,0,3:0:0:0:
148,365,224791,1,0,3:0:0:0:
114,361,224868,1,0,3:0:0:0:
84,345,224944,1,0,3:0:0:0:
56,312,225021,5,8,3:0:0:0:
46,271,225097,1,8,3:0:0:0:
55,229,225174,1,8,3:0:0:0:
81,197,225250,1,8,3:0:0:0:
119,179,225327,5,8,3:0:0:0:
162,179,225403,1,8,3:0:0:0:
199,198,225480,1,8,3:0:0:0:
224,232,225556,1,8,3:0:0:0:
232,273,225633,5,6,3:2:0:0:
256,192,225709,12,0,234204,0:0:0:0:
