osu file format v14

[General]
AudioFilename: audio.mp3
AudioLeadIn: 0
PreviewTime: 184383
Countdown: 0
SampleSet: Soft
StackLeniency: 0.7
Mode: 0
LetterboxInBreaks: 0
WidescreenStoryboard: 0

[Editor]
Bookmarks: 26041
DistanceSpacing: 1.2
BeatDivisor: 4
GridSize: 4
TimelineZoom: 2

[Metadata]
Title:Bloom
TitleUnicode:Bloom
Artist:The Winking Owl
ArtistUnicode:The Winking Owl
Creator:Shmiklak
Version:Affirmation's Hard
Source:
Tags:marvollo m_a_r_v_o_l_l_o Lokidoki Marianna chalwa ザ ウィンキング オウル BLOOMING Luiza neoskylove Affirmation namki english japanese
BeatmapID:1571120
BeatmapSetID:602408

[Difficulty]
HPDrainRate:5
CircleSize:3.8
OverallDifficulty:6.2
ApproachRate:7
SliderMultiplier:1.4
SliderTickRate:1

[Events]
//Background and Video events
0,0,"the best map of shmoklok.jpg",0,0
Video,0,"opto.flv"
//Break Periods
2,76445,85141
2,126649,145141
2,165833,174529
//Storyboard Layer 0 (Background)
//Storyboard Layer 1 (Fail)
//Storyboard Layer 2 (Pass)
//Storyboard Layer 3 (Foreground)
//Storyboard Sound Samples

[TimingPoints]
5225.21104444316,306.122448979592,4,2,0,80,1,0
56653,-100,4,2,0,80,0,1
76245,-100,4,2,0,80,0,0
106857,-100,4,2,0,80,0,1
126449,-100,4,2,0,80,0,0
160735,-100,4,2,0,80,0,1
165633,-100,4,2,0,80,0,0
180327,-100,4,2,0,80,0,1
183694,-100,4,2,0,80,0,0
185225,-100,4,2,0,80,0,1
204817,-100,4,2,0,80,0,0
225633,-100,4,2,0,60,0,0
226857,-100,4,2,0,50,0,0
228082,-100,4,2,0,40,0,0
229306,-100,4,2,0,30,0,0
230531,-100,4,2,0,20,0,0
231755,-100,4,2,0,10,0,0

[Colours]
Combo1 : 122,100,189
Combo2 : 248,233,54
Combo3 : 79,242,87
Combo4 : 186,87,82

[HitObjects]
67,118,5225,6,0,B|109:132|109:132|202:112,1,140,4|0,0:1|1:0,0:0:0:0:
250,42,5684,2,0,P|285:100|267:166,1,140,2|2,3:0|3:0,0:0:0:0:
199,215,6143,1,0,1:0:0:0:
257,274,6296,6,0,L|396:265,1,140,4|2,0:1|3:0,0:0:0:0:
460,210,6755,1,0,1:0:0:0:
460,210,6908,2,0,P|436:273|468:333,2,140,0|2|0,0:0|3:0|0:0,0:0:0:0:
418,136,7674,6,0,B|379:166|367:193|367:193|342:170|310:166,1,140,4|0,0:1|1:0,0:0:0:0:
247,221,8133,2,0,B|275:172|275:172|243:94,1,140,2|2,3:0|3:0,0:0:0:0:
183,35,8592,1,0,1:0:0:0:
105,67,8745,6,0,B|73:144|73:144|101:193,1,140,4|0,0:1|0:0,0:0:0:0:
166,246,9204,1,0,1:0:0:0:
166,246,9357,2,0,L|27:263,2,140,0|2|0,0:0|3:0|0:0,0:0:0:0:
247,221,10123,6,0,L|385:238,1,140,4|0,0:1|1:0,0:0:0:0:
443,298,10582,2,0,P|470:235|441:174,1,140,2|2,3:0|3:0,0:0:0:0:
371,127,11041,1,0,1:0:0:0:
299,78,11194,6,0,L|160:95,1,140,4|0,0:1|0:0,0:0:0:0:
80,122,11653,1,0,1:0:0:0:
80,122,11806,2,0,P|112:182|89:246,1,140,0|2,0:0|3:0,0:0:0:0:
72,285,12189,1,0,3:0:0:0:
72,285,12266,2,0,L|141:286,1,70,0|0,1:0|0:0,0:0:0:0:
212,242,12572,6,0,P|224:274|221:308,2,70,4|0|0,0:1|0:0|1:0,0:0:0:0:
287,203,13031,2,0,P|309:268|299:337,1,140,2|2,3:0|3:0,0:0:0:0:
221,308,13490,1,0,1:0:0:0:
149,352,13643,6,0,L|114:358,2,35,2|0|4,3:0|3:0|0:1,0:0:0:0:
221,308,13949,2,0,P|224:274|212:242,1,70,0|0,0:0|1:0,0:0:0:0:
162,174,14255,1,2,0:0:0:0:
228,122,14408,2,0,L|262:128,3,35,0|0|0|0,3:0|3:0|3:0|3:0,0:0:0:0:
297,153,14715,2,0,L|331:146,3,35,8|0|0|0,3:0|0:0|0:0|0:0,0:0:0:0:
369,127,15021,6,0,P|364:162|373:195,2,70,4|0|0,0:1|0:0|1:0,0:0:0:0:
444,91,15480,2,0,P|472:153|454:219,1,140,2|2,3:0|3:0,0:0:0:0:
373,195,15939,1,0,1:0:0:0:
315,257,16092,6,0,L|175:252,1,140,4|2,0:1|3:0,0:0:0:0:
100,290,16551,1,0,1:0:0:0:
171,335,16704,2,0,L|310:339,2,140,0|2|0,0:0|3:0|0:0,0:0:0:0:
100,290,17470,6,0,P|90:256|96:222,2,70,4|0|0,0:1|0:0|1:0,0:0:0:0:
175,252,17929,2,0,L|179:112,1,140,2|2,3:0|3:0,0:0:0:0:
221,39,18388,1,0,1:0:0:0:
282,96,18541,6,0,B|325:111|361:102|361:102|396:113|405:138,1,140,4|0,0:1|0:0,0:0:0:0:
365,211,19000,1,0,1:0:0:0:
430,263,19153,2,0,P|369:294|306:269,1,140,0|2,0:0|3:0,0:0:0:0:
260,199,19612,2,0,L|189:205,1,70,0|2,1:0|3:0,0:0:0:0:
156,230,19842,1,0,3:0:0:0:
155,229,19919,6,0,P|167:262|162:297,2,70,4|0|0,0:1|0:0|1:0,0:0:0:0:
113,157,20378,2,0,B|95:110|117:72|117:72|171:75,1,140,2|2,3:0|3:0,0:0:0:0:
244,111,20837,1,0,1:0:0:0:
307,54,20990,6,0,P|375:52|426:97,1,140,4|0,0:1|0:0,0:0:0:0:
417,181,21449,1,0,1:0:0:0:
356,238,21602,2,0,L|370:377,2,140,0|2|0,0:0|3:0|0:0,0:0:0:0:
279,273,22368,6,0,L|286:342,2,70,4|0|0,0:1|0:0|1:0,0:0:0:0:
212,221,22827,2,0,B|175:248|175:248|81:236,1,140,2|2,3:0|3:0,0:0:0:0:
21,178,23286,1,0,1:0:0:0:
69,109,23439,6,0,P|130:78|195:97,1,140,2|0,3:0|0:0,0:0:0:0:
262,148,23898,2,0,L|331:144,1,70,0|0,1:0|0:0,0:0:0:0:
366,222,24204,2,0,L|296:225,1,70,0|0,3:0|3:0,0:0:0:0:
212,221,24510,1,8,3:0:0:0:
151,279,24663,1,0,3:0:0:0:
151,279,24740,1,8,3:0:0:0:
151,279,24817,6,0,P|161:313|154:347,1,70,0|0,3:1|3:0,0:0:0:0:
70,347,25123,2,0,P|60:313|67:279,1,70,0|0,3:1|3:0,0:0:0:0:
104,204,25429,2,0,L|99:169,3,35,0|8|8|8,3:1|3:0|3:0|3:0,0:0:0:0:
131,142,25735,2,0,L|135:107,3,35,8|8|8|8,3:0|3:0|3:0|3:0,0:0:0:0:
116,72,26041,6,0,P|50:87|0:43,2,140,4|0|0,0:1|1:0|1:0,0:0:0:0:
184,23,26806,1,0,3:0:0:0:
228,94,26959,2,0,L|297:102,1,70,0|0,1:0|3:0,0:0:0:0:
368,56,27266,6,0,L|437:47,2,70,0|0|0,0:0|3:0|1:0,0:0:0:0:
298,103,27725,2,0,P|282:168|326:218,1,140,2|0,0:0|3:0,0:0:0:0:
288,293,28184,2,0,L|218:288,1,70,0|0,1:0|3:0,0:0:0:0:
184,364,28490,6,0,L|323:373,2,140,4|0|0,0:1|1:0|0:0,0:0:0:0:
107,330,29255,2,0,P|96:297|104:263,1,70,0|0,3:0|1:0,0:0:0:0:
154,196,29561,1,0,3:0:0:0:
79,155,29715,5,2,0:0:0:0:
154,196,29868,2,0,L|293:176,2,140,0|2|0,3:0|0:0|3:0,0:0:0:0:
79,155,30633,2,0,P|68:122|76:88,1,70,0|0,1:0|3:0,0:0:0:0:
138,31,30939,6,0,P|72:49|21:6,2,140,4|0|0,0:1|1:0|1:0,0:0:0:0:
200,87,31704,1,0,3:0:0:0:
266,36,31857,2,0,P|282:68|282:102,1,70,0|0,1:0|3:0,0:0:0:0:
228,166,32163,6,0,P|228:200|243:231,2,70,2|0|0,0:0|3:0|1:0,0:0:0:0:
200,86,32623,2,0,P|141:124|72:131,1,140,2|0,0:0|3:0,0:0:0:0:
54,213,33082,2,0,P|88:217|123:212,1,70,0|0,1:0|3:0,0:0:0:0:
160,287,33388,6,0,P|92:301|23:292,2,140,4|0|0,0:1|1:0|0:0,0:0:0:0:
224,231,34153,1,0,3:0:0:0:
304,255,34306,2,0,P|313:288|308:322,1,70,0|0,1:0|3:0,0:0:0:0:
246,378,34612,6,0,P|310:354|377:371,1,140,2|0,0:0|1:0,0:0:0:0:
452,331,35072,2,0,P|435:300|435:266,1,70,0|0,0:0|1:0,0:0:0:0:
486,200,35378,2,0,P|421:216|365:178,1,140,0|0,3:0|3:0,0:0:0:0:
384,96,35837,6,0,P|449:79|505:117,2,140,4|0|0,0:1|1:0|1:0,0:0:0:0:
329,160,36602,1,0,0:0:0:0:
266,103,36755,2,0,L|196:107,1,70,0|0,1:0|3:0,0:0:0:0:
132,162,37061,6,0,L|62:157,2,70,2|0|0,0:0|3:0|1:0,0:0:0:0:
205,204,37521,2,0,B|226:248|226:248|208:337,1,140,2|0,0:0|3:0,0:0:0:0:
126,325,37980,2,0,L|139:256,1,70,0|0,1:0|3:0,0:0:0:0:
205,204,38286,6,0,B|249:225|249:225|338:207,2,140,4|0|0,0:1|1:0|1:0,0:0:0:0:
148,141,39051,1,0,0:0:0:0:
189,67,39204,2,0,P|221:54|256:57,1,70,0|0,1:0|3:0,0:0:0:0:
321,110,39510,5,2,0:0:0:0:
380,51,39663,2,0,P|447:34|507:66,2,140,0|2|0,3:0|0:0|3:0,0:0:0:0:
321,110,40429,2,0,L|333:192,1,70,0|0,1:0|3:0,0:0:0:0:
274,241,40735,6,0,B|317:227|351:246|351:246|386:258|410:246,2,140,4|0|0,0:1|1:0|1:0,0:0:0:0:
215,301,41500,1,0,0:0:0:0:
151,246,41653,2,0,P|136:214|141:180,1,70,0|0,1:0|3:0,0:0:0:0:
197,117,41959,6,0,L|336:120,1,140,2|0,0:0|1:0,0:0:0:0:
397,61,42419,2,0,P|420:124|390:185,1,140,2|0,0:0|3:0,0:0:0:0:
324,238,42878,1,0,1:0:0:0:
376,304,43031,1,0,3:0:0:0:
323,238,43184,6,0,P|262:208|199:232,2,140,4|0|0,0:1|1:0|0:0,0:0:0:0:
376,304,43949,1,0,3:0:0:0:
437,248,44102,2,0,P|446:214|437:180,1,70,0|0,1:0|3:0,0:0:0:0:
383,115,44409,6,0,P|374:81|382:47,2,70,0|0|0,0:0|0:0|1:0,0:0:0:0:
318,168,44868,1,0,3:0:0:0:
255,111,45021,2,0,L|220:115,3,35,0|0|0|0,3:0|3:0|3:0|3:0,0:0:0:0:
187,141,45327,2,0,L|152:136,3,35,0|0|0|0,3:0|3:0|3:0|3:0,0:0:0:0:
111,125,45633,6,0,P|124:156|115:189,1,70,4|0,0:1|0:0,0:0:0:0:
59,251,45939,2,0,B|107:243|131:257|131:257|163:277|195:269,2,140,0|0|0,1:0|1:0|1:0,0:0:0:0:
187,359,46857,6,0,B|219:366|251:346|251:346|275:332|323:340,1,140,2|0,0:0|1:0,0:0:0:0:
400,371,47317,1,0,0:0:0:0:
458,310,47470,2,0,L|446:170,1,140,0|0,1:0|1:0,0:0:0:0:
342,38,48082,6,0,B|385:38|410:59|410:59|444:34|471:35,2,140,4|0|0,0:1|1:0|1:0,0:0:0:0:
295,107,48847,1,0,3:0:0:0:
228,55,49000,1,0,1:0:0:0:
295,107,49153,6,0,L|295:247,1,140,0|0,0:0|3:0,0:0:0:0:
237,307,49612,1,0,1:0:0:0:
70,282,49919,2,0,P|65:247|77:215,1,70,0|0,1:0|0:0,0:0:0:0:
160,232,50225,2,0,P|164:266|152:298,1,70,0|0,1:0|0:0,0:0:0:0:
237,307,50531,5,4,0:1:0:0:
295,247,50684,2,0,L|295:107,1,140,0|0,0:0|0:0,0:0:0:0:
219,68,51143,2,0,P|255:32|306:24,2,105,0|0|0,1:0|0:0|3:0,0:0:0:0:
224,152,51755,6,0,P|174:138|141:98,2,105,2|0|0,0:0|0:0|0:0,0:0:0:0:
294,106,52368,2,0,P|306:139|304:174,1,70,0|0,1:0|3:0,0:0:0:0:
258,245,52674,1,0,0:0:0:0:
258,245,52827,1,0,3:0:0:0:
325,294,52980,6,0,B|368:300|399:274|399:274|432:263|458:276,2,140,2|0|0,0:0|0:0|1:0,0:0:0:0:
258,245,53745,1,0,0:0:0:0:
212,315,53898,1,0,0:0:0:0:
137,277,54051,6,0,P|106:215|120:147,1,140,0|0,0:0|3:0,0:0:0:0:
173,82,54510,1,0,1:0:0:0:
338,112,54817,2,0,L|344:181,1,70,0|0,1:0|3:0,0:0:0:0:
426,200,55123,2,0,L|419:269,1,70,0|0,1:0|3:0,0:0:0:0:
393,302,55352,1,0,3:0:0:0:
393,302,55429,6,0,P|358:295|324:301,1,70,0|0,3:0|3:0,0:0:0:0:
262,358,55735,2,0,P|227:363|193:357,1,70,0|0,3:0|3:0,0:0:0:0:
137,294,56041,2,0,L|139:259,3,35,0|0|0|0,3:0|3:0|3:0|3:0,0:0:0:0:
114,224,56347,2,0,L|116:189,3,35,8|8|8|8,3:0|3:0|3:0|3:0,0:0:0:0:
147,160,56653,6,0,B|191:176|191:176|283:164,1,140,4|0,0:1|1:0,0:0:0:0:
340,102,57112,2,0,B|324:146|324:146|335:238,1,140,2|0,0:0|3:0,0:0:0:0:
294,312,57572,2,0,P|261:299|227:302,1,70,0|0,1:0|3:0,0:0:0:0:
147,328,57878,6,0,P|152:258|142:189,1,140,2|0,0:0|1:0,0:0:0:0:
118,108,58337,1,0,0:0:0:0:
118,108,58490,2,0,P|187:113|256:103,1,140,0|0,1:0|1:0,0:0:0:0:
407,177,59102,6,0,P|339:169|289:215,1,140,4|0,0:1|1:0,0:0:0:0:
220,264,59561,2,0,P|287:256|337:302,1,140,2|0,0:0|3:0,0:0:0:0:
262,337,60020,1,0,1:0:0:0:
102,282,60327,6,0,P|96:212|106:143,2,140,2|0|0,0:0|1:0|1:0,0:0:0:0:
170,332,61092,1,0,3:0:0:0:
220,264,61245,2,0,P|226:216|211:175,1,70,0|0,1:0|3:0,0:0:0:0:
228,110,61551,6,0,P|295:128|356:98,2,140,4|0|0,0:1|1:0|0:0,0:0:0:0:
166,53,62317,1,0,3:0:0:0:
102,108,62470,2,0,B|93:144|93:144|104:174,1,70,0|0,1:0|0:0,0:0:0:0:
173,222,62776,6,0,L|242:213,1,70,4|0,0:1|0:0,0:0:0:0:
305,269,63082,2,0,B|348:283|388:266|388:266|414:280|422:307,1,140,0|0,1:0|1:0,0:0:0:0:
360,363,63541,1,0,3:0:0:0:
276,357,63694,2,0,L|206:354,1,70,0|0,1:0|3:0,0:0:0:0:
121,345,64000,6,0,P|139:279|101:222,1,140,4|0,0:1|1:0,0:0:0:0:
40,168,64459,2,0,P|105:185|162:147,1,140,2|0,0:0|3:0,0:0:0:0:
199,71,64919,1,0,1:0:0:0:
273,109,65072,6,0,L|256:248,1,140,0|2,0:0|3:0,0:0:0:0:
315,308,65531,1,0,1:0:0:0:
315,308,65684,1,0,0:0:0:0:
240,269,65837,2,0,P|206:259|172:266,1,70,2|2,3:0|3:0,0:0:0:0:
117,328,66143,2,0,P|99:332|82:334,3,35,8|8|8|8,0:3|0:3|0:3|0:3,0:0:0:0:
48,308,66450,6,0,L|65:169,1,140,4|0,0:1|0:0,0:0:0:0:
109,98,66908,2,0,B|148:112|181:102|181:102|215:109|231:141,1,140,2|0,0:0|3:0,0:0:0:0:
193,217,67368,2,0,P|234:225|271:215,1,70,0|0,1:0|3:0,0:0:0:0:
320,159,67674,6,0,P|313:229|321:299,1,140,2|0,0:0|1:0,0:0:0:0:
405,301,68133,1,0,0:0:0:0:
405,301,68286,2,0,P|411:231|403:161,1,140,0|0,1:0|1:0,0:0:0:0:
256,78,68898,6,0,P|190:96|127:70,1,140,4|0,0:1|1:0,0:0:0:0:
55,114,69357,2,0,P|81:177|62:243,1,140,2|0,0:0|3:0,0:0:0:0:
5,306,69817,1,0,1:0:0:0:
166,348,70123,6,0,P|234:354|284:308,2,140,4|0|0,0:1|1:0|1:0,0:0:0:0:
208,275,70888,1,0,3:0:0:0:
140,225,71041,2,0,L|145:156,1,70,0|0,1:0|3:0,0:0:0:0:
204,95,71347,6,0,B|159:106|131:93|131:93|90:78|66:88,2,140,2|0|0,0:0|1:0|0:0,0:0:0:0:
275,50,72112,1,0,0:0:0:0:
344,95,72266,2,0,P|355:129|349:163,1,70,0|0,1:0|0:0,0:0:0:0:
282,213,72572,6,0,P|271:247|277:281,1,70,4|2,0:1|3:0,0:0:0:0:
339,336,72878,2,0,P|272:315|204:330,1,140,0|0,1:0|1:0,0:0:0:0:
133,373,73337,1,0,3:0:0:0:
77,309,73490,2,0,P|72:274|76:239,1,70,0|0,1:0|3:0,0:0:0:0:
149,198,73796,6,0,P|94:157|28:171,2,140,2|0|0,0:0|1:0|0:0,0:0:0:0:
219,151,74561,1,0,0:0:0:0:
291,193,74715,2,0,L|359:180,1,70,0|0,1:0|0:0,0:0:0:0:
426,129,75021,6,0,P|442:160|442:195,1,70,4|2,0:1|3:0,0:0:0:0:
396,264,75327,2,0,P|380:294|380:329,1,70,0|0,1:0|3:0,0:0:0:0:
350,358,75556,1,0,3:0:0:0:
350,358,75633,2,0,L|280:352,1,70,0|0,3:0|3:0,0:0:0:0:
213,301,75939,2,0,L|178:303,4,35,0|0|0|0|4,3:0|3:0|3:0|3:0|0:1,0:0:0:0:
128,96,86041,6,0,B|95:148|95:148|115:223,2,140,4|0|0,0:1|1:0|1:0,0:0:0:0:
183,160,86806,1,0,0:0:0:0:
246,103,86959,2,0,L|316:107,1,70,0|0,1:0|3:0,0:0:0:0:
380,162,87265,6,0,L|450:157,2,70,0|0|0,0:0|3:0|1:0,0:0:0:0:
307,204,87725,2,0,B|286:248|286:248|304:337,1,140,0|0,0:0|3:0,0:0:0:0:
386,325,88184,2,0,L|373:256,1,70,0|0,1:0|3:0,0:0:0:0:
307,204,88490,6,0,P|245:233|180:212,2,140,4|0|0,0:1|1:0|1:0,0:0:0:0:
364,141,89255,1,0,0:0:0:0:
323,67,89408,2,0,P|291:54|256:57,1,70,0|0,1:0|3:0,0:0:0:0:
191,110,89714,5,2,0:0:0:0:
132,51,89867,2,0,B|90:35|90:35|0:65,2,140,0|2|0,0:0|0:0|3:0,0:0:0:0:
191,110,90633,2,0,L|179:192,1,70,0|0,1:0|3:0,0:0:0:0:
238,241,90939,6,0,P|172:222|112:255,2,140,4|0|0,0:1|1:0|1:0,0:0:0:0:
297,301,91704,1,0,0:0:0:0:
361,246,91857,2,0,P|376:214|371:180,1,70,0|0,1:0|3:0,0:0:0:0:
315,117,92163,6,0,L|176:120,1,140,2|0,0:0|1:0,0:0:0:0:
118,57,92623,2,0,P|148:117|125:181,1,140,2|0,0:0|3:0,0:0:0:0:
75,248,93082,1,0,1:0:0:0:
136,304,93235,1,0,3:0:0:0:
189,238,93388,6,0,P|250:208|313:232,2,140,4|0|0,0:1|1:0|1:0,0:0:0:0:
136,304,94153,1,0,3:0:0:0:
75,248,94306,2,0,P|66:214|75:180,1,70,0|0,1:0|3:0,0:0:0:0:
131,119,94612,6,0,L|200:124,1,70,2|0,0:0|3:0,0:0:0:0:
267,175,94918,2,0,L|336:169,1,70,0|0,3:0|3:0,0:0:0:0:
416,196,95225,2,0,P|419:213|419:230,3,35,0|0|0|0,3:0|3:0|3:0|3:0,0:0:0:0:
387,258,95531,2,0,P|383:275|383:292,3,35,0|0|0|0,3:0|3:0|3:0|3:0,0:0:0:0:
385,334,95837,6,0,P|350:327|316:331,1,70,4|0,0:1|0:0,0:0:0:0:
248,280,96143,2,0,P|278:220|255:156,2,140,0|0|0,1:0|1:0|1:0,0:0:0:0:
111,182,97061,6,0,P|87:118|118:57,1,140,2|0,0:0|1:0,0:0:0:0:
195,21,97521,1,0,0:0:0:0:
195,21,97674,2,0,L|334:24,1,140,0|0,1:0|1:0,0:0:0:0:
388,182,98286,6,0,P|456:185|497:132,2,140,4|0|0,0:1|0:0|1:0,0:0:0:0:
314,216,99051,1,0,3:0:0:0:
247,164,99204,1,0,1:0:0:0:
314,216,99357,6,0,B|330:270|330:270|314:352,1,140,0|0,0:0|3:0,0:0:0:0:
235,382,99817,1,0,1:0:0:0:
68,348,100123,2,0,P|56:315|63:281,1,70,0|0,1:0|3:0,0:0:0:0:
113,213,100429,2,0,L|188:222,1,70,0|0,1:0|3:0,0:0:0:0:
225,293,100734,5,4,0:1:0:0:
295,247,100887,2,0,L|295:107,1,140,0|0,0:0|0:0,0:0:0:0:
219,68,101347,2,0,P|255:32|306:24,2,105,0|0|0,1:0|0:0|3:0,0:0:0:0:
224,152,101959,6,0,P|174:138|141:98,2,105,2|0|0,0:0|0:0|0:0,0:0:0:0:
294,106,102571,2,0,P|306:139|304:174,1,70,0|0,1:0|3:0,0:0:0:0:
258,245,102877,1,0,1:0:0:0:
258,245,103030,1,0,0:0:0:0:
325,294,103184,6,0,B|425:308|425:308|459:289,2,140,2|0|0,0:0|0:0|1:0,0:0:0:0:
258,245,103949,1,0,0:0:0:0:
212,315,104102,1,0,0:0:0:0:
137,277,104255,6,0,B|97:214|97:214|118:152,1,140,0|2,0:0|0:3,0:0:0:0:
145,120,104638,1,2,0:3:0:0:
145,120,104715,2,0,L|214:118,1,70,2|2,0:3|0:0,0:0:0:0:
269,54,105021,2,0,L|338:52,1,70,2|2,0:3|0:0,0:0:0:0:
397,111,105327,2,0,L|466:109,1,70,2|0,0:3|3:3,0:0:0:0:
500,134,105556,1,0,3:3:0:0:
500,134,105633,6,0,L|496:168,3,35,0|0|0|0,3:0|3:0|3:0|3:0,0:0:0:0:
464,196,105939,2,0,L|460:230,3,35,0|0|0|0,3:0|3:0|3:0|3:0,0:0:0:0:
428,258,106245,2,0,L|424:292,3,35,0|0|0|0,3:0|3:0|3:0|3:0,0:0:0:0:
392,320,106551,2,0,L|388:354,3,35,8|8|8|8,3:0|3:0|3:0|3:0,0:0:0:0:
346,366,106857,6,0,P|284:338|214:343,1,140,4|0,0:1|1:0,0:0:0:0:
130,333,107317,2,0,P|158:270|153:200,1,140,2|0,0:0|3:0,0:0:0:0:
190,125,107776,2,0,P|221:138|256:136,1,70,0|0,1:0|3:0,0:0:0:0:
338,154,108082,6,0,P|311:216|341:277,1,140,2|0,0:0|1:0,0:0:0:0:
401,336,108541,1,0,0:0:0:0:
401,336,108694,2,0,P|338:309|277:339,1,140,0|0,1:0|1:0,0:0:0:0:
197,192,109306,6,0,P|136:221|73:195,1,140,4|0,0:1|1:0,0:0:0:0:
70,111,109766,2,0,P|130:81|193:107,1,140,2|0,0:0|3:0,0:0:0:0:
197,192,110225,1,0,1:0:0:0:
345,113,110531,6,0,B|415:100|415:100|483:109,2,140,2|0|0,0:0|1:0|1:0,0:0:0:0:
345,196,111296,1,0,3:0:0:0:
266,225,111449,2,0,P|260:259|267:293,1,70,0|0,1:0|3:0,0:0:0:0:
336,341,111755,6,0,P|269:323|208:353,2,140,4|0|0,0:1|1:0|0:0,0:0:0:0:
416,366,112521,1,0,3:0:0:0:
457,293,112674,2,0,B|468:263|468:263|459:227,1,70,0|0,1:0|0:0,0:0:0:0:
387,182,112980,6,0,L|318:173,1,70,4|0,0:1|0:0,0:0:0:0:
243,212,113286,2,0,B|200:226|160:209|160:209|134:223|126:250,1,140,0|0,1:0|1:0,0:0:0:0:
154,329,113745,1,0,3:0:0:0:
236,357,113898,2,0,L|306:354,1,70,0|0,1:0|3:0,0:0:0:0:
391,345,114204,6,0,P|373:279|411:222,1,140,4|0,0:1|1:0,0:0:0:0:
472,168,114663,2,0,P|407:185|350:147,1,140,2|0,0:0|3:0,0:0:0:0:
313,71,115123,1,0,1:0:0:0:
313,71,115276,1,0,0:0:0:0:
229,75,115429,6,0,P|218:107|224:142,1,70,4|2,0:1|3:0,0:0:0:0:
286,198,115735,2,0,P|296:230|290:265,1,70,0|2,1:0|0:3,0:0:0:0:
327,340,116041,2,0,P|344:343|361:345,3,35,2|2|2|2,0:3|0:3|3:3|0:3,0:0:0:0:
402,335,116347,2,0,P|419:338|436:340,3,35,8|8|8|8,3:0|3:0|3:0|3:0,0:0:0:0:
463,308,116654,6,0,P|472:239|449:173,1,140,4|0,0:1|0:0,0:0:0:0:
404,103,117112,2,0,B|365:117|332:107|332:107|298:114|282:146,1,140,2|0,0:0|3:0,0:0:0:0:
320,222,117572,2,0,P|279:230|242:220,1,70,0|0,1:0|3:0,0:0:0:0:
192,159,117878,6,0,B|210:203|210:203|191:299,1,140,2|0,0:0|1:0,0:0:0:0:
126,345,118337,1,0,0:0:0:0:
126,345,118490,2,0,B|108:301|108:301|127:205,1,140,0|0,1:0|1:0,0:0:0:0:
247,94,119102,6,0,P|313:112|376:86,1,140,4|0,0:1|1:0,0:0:0:0:
451,124,119561,2,0,P|425:187|444:253,1,140,2|0,0:0|3:0,0:0:0:0:
510,306,120021,1,0,1:0:0:0:
346,348,120327,6,0,P|278:354|228:308,2,140,4|0|0,0:1|1:0|1:0,0:0:0:0:
304,275,121092,1,0,3:0:0:0:
372,225,121245,2,0,L|367:156,1,70,0|0,1:0|3:0,0:0:0:0:
320,86,121551,6,0,P|387:75|440:117,2,140,2|0|0,0:0|1:0|0:0,0:0:0:0:
250,132,122316,1,0,0:0:0:0:
174,93,122470,2,0,P|163:126|168:160,1,70,0|0,1:0|0:0,0:0:0:0:
233,214,122776,6,0,P|237:248|227:281,1,70,4|2,0:1|3:0,0:0:0:0:
170,342,123082,2,0,B|231:319|231:319|303:335,1,140,0|0,1:0|1:0,0:0:0:0:
380,372,123541,1,0,3:0:0:0:
435,309,123694,2,0,P|440:274|436:239,1,70,0|0,1:0|3:0,0:0:0:0:
363,198,124000,6,0,P|418:157|484:171,2,140,2|0|2,0:0|1:0|0:0,0:0:0:0:
291,241,124765,1,0,0:0:0:0:
219,195,124919,2,0,P|206:162|210:128,1,70,0|0,1:0|0:0,0:0:0:0:
263,63,125225,6,0,P|294:47|329:47,1,70,0|0,3:1|0:0,0:0:0:0:
398,93,125531,2,0,P|414:123|414:158,1,70,8|0,3:0|0:0,0:0:0:0:
399,197,125760,1,8,3:0:0:0:
399,197,125837,2,0,L|329:191,1,70,2|0,3:3|0:0,0:0:0:0:
257,233,126143,2,0,L|222:235,4,35,8|0|0|8|6,3:3|0:0|0:0|3:3|0:0,0:0:0:0:
126,103,146041,6,0,P|97:165|118:230,1,140,4|0,0:1|1:0,0:0:0:0:
189,276,146500,2,0,L|328:264,1,140,0|0,1:0|0:0,0:0:0:0:
411,252,146959,1,0,1:0:0:0:
364,90,147266,6,0,P|331:78|296:82,1,70,2|0,0:0|3:0,0:0:0:0:
236,140,147572,2,0,P|203:151|168:147,1,70,0|0,1:0|0:0,0:0:0:0:
103,94,147878,2,0,P|125:158|98:221,1,140,0|0,1:0|1:0,0:0:0:0:
38,279,148337,1,0,3:0:0:0:
109,322,148490,6,0,B|157:335|157:335|245:319,1,140,4|0,0:1|1:0,0:0:0:0:
255,235,148949,2,0,B|303:248|303:248|391:232,1,140,0|0,1:0|3:0,0:0:0:0:
425,206,149332,1,0,0:0:0:0:
425,206,149408,2,0,L|426:136,1,70,0|0,1:0|3:0,0:0:0:0:
380,64,149715,6,0,P|318:93|255:66,1,140,2|0,0:0|1:0,0:0:0:0:
177,96,150174,2,0,P|114:69|52:97,1,140,2|0,0:0|3:0,0:0:0:0:
16,173,150633,1,0,1:0:0:0:
16,173,150786,1,0,3:0:0:0:
78,229,150939,6,0,B|127:234|127:234|169:216|169:216|213:221,1,140,4|0,0:1|1:0,0:0:0:0:
271,283,151398,2,0,B|315:277|315:277|357:295|357:295|406:290,1,140,0|0,1:0|3:0,0:0:0:0:
466,232,151857,2,0,P|472:197|463:164,1,70,0|0,1:0|3:0,0:0:0:0:
412,97,152163,6,0,L|272:102,1,140,2|0,0:0|1:0,0:0:0:0:
308,28,152623,2,0,L|168:33,1,140,0|0,0:0|3:0,0:0:0:0:
104,88,153082,1,0,1:0:0:0:
168,142,153235,1,0,3:0:0:0:
168,142,153311,1,8,0:3:0:0:
168,142,153388,6,0,P|197:203|172:266,1,140,4|0,0:1|1:0,0:0:0:0:
116,329,153847,2,0,P|177:299|240:324,1,140,0|0,1:0|3:0,0:0:0:0:
270,353,154230,1,0,0:0:0:0:
269,352,154306,2,0,P|301:367|335:360,1,70,0|0,1:0|3:0,0:0:0:0:
401,308,154612,6,0,L|394:238,1,70,2|0,0:0|3:0,0:0:0:0:
321,195,154919,2,0,L|314:125,1,70,0|0,1:0|0:0,0:0:0:0:
284,96,155148,1,0,3:0:0:0:
284,95,155225,2,0,P|251:107|216:102,1,70,0|0,1:0|3:0,0:0:0:0:
153,47,155531,2,0,P|118:41|85:53,1,70,0|0,1:0|3:0,0:0:0:0:
46,127,155837,6,0,L|57:266,1,140,4|0,0:1|1:0,0:0:0:0:
111,330,156296,1,0,1:0:0:0:
111,330,156449,2,0,B|150:333|181:311|181:311|218:306|244:323,1,140,2|0,0:0|1:0,0:0:0:0:
313,370,156908,1,0,3:0:0:0:
371,310,157061,6,0,L|375:152,1,140,2|0,0:0|1:0,0:0:0:0:
316,108,157521,1,0,0:0:0:0:
250,161,157674,2,0,P|184:175|126:138,1,140,0|0,1:0|1:0,0:0:0:0:
40,284,158286,6,0,P|106:269|164:306,1,140,4|0,0:1|1:0,0:0:0:0:
223,366,158745,1,0,1:0:0:0:
223,366,158898,2,0,L|362:362,1,140,2|0,0:0|1:0,0:0:0:0:
465,229,159510,6,0,L|430:228,3,35,0|0|0|0,0:0|0:0|3:0|0:0,0:0:0:0:
393,205,159817,2,0,L|358:205,3,35,0|0|0|0,3:0|3:0|0:0|3:0,0:0:0:0:
321,229,160123,2,0,L|286:228,3,35,0|0|0|0,1:0|3:0|3:0|3:0,0:0:0:0:
249,205,160429,2,0,L|214:205,3,35,0|0|0|0,1:0|3:0|3:0|3:0,0:0:0:0:
176,229,160735,6,0,P|165:261|165:296,1,70,4|2,3:1|3:0,0:0:0:0:
150,379,161041,2,0,P|117:367|82:367,1,70,8|0,3:0|3:0,0:0:0:0:
0,352,161347,2,0,P|11:319|11:284,1,70,4|2,3:1|3:0,0:0:0:0:
27,202,161653,2,0,P|59:213|94:213,1,70,8|0,3:0|3:0,0:0:0:0:
152,152,161959,6,0,L|163:82,1,70,4|2,3:1|3:0,0:0:0:0:
237,41,162266,2,0,L|306:52,1,70,8|0,3:0|3:0,0:0:0:0:
348,126,162572,2,0,L|336:195,1,70,4|2,3:1|3:0,0:0:0:0:
263,237,162877,2,0,L|193:225,1,70,8|0,3:0|3:0,0:0:0:0:
119,265,163184,6,0,P|109:299|116:333,2,70,4|2|8,3:1|3:0|3:0,0:0:0:0:
193,225,163643,1,4,3:1:0:0:
143,157,163796,2,0,P|139:139|140:122,3,35,4|0|0|0,3:1|0:0|3:3|3:3,0:0:0:0:
171,93,164102,2,0,P|188:89|205:90,3,35,8|0|0|0,3:3|3:3|3:3|3:3,0:0:0:0:
244,107,164409,6,0,P|261:108|278:104,3,35,8|0|0|0,3:3|0:0|0:0|0:0,0:0:0:0:
316,85,164715,2,0,P|333:81|350:82,3,35,8|0|0|0,3:3|0:0|0:0|0:0,0:0:0:0:
377,114,165021,2,0,P|380:131|379:148,3,35,8|0|0|0,3:3|3:3|3:3|3:3,0:0:0:0:
348,177,165327,2,0,P|346:194|350:211,3,35,8|8|0|8,3:3|3:3|3:3|3:3,0:0:0:0:
377,244,165633,5,6,0:2:0:0:
190,316,175429,6,0,P|278:265|373:301,1,210,4|0,3:1|3:0,0:0:0:0:
452,272,176041,2,0,L|454:116,1,140,8|0,3:0|0:0,0:0:0:0:
305,53,176653,6,0,B|256:85|172:40|172:40|102:33|48:93,1,280,4|8,3:1|3:0,0:0:0:0:
282,335,177878,5,4,3:1:0:0:
281,335,178031,2,0,P|308:271|282:208,1,140,0|0,3:0|3:0,0:0:0:0:
212,161,178490,2,0,L|72:170,1,140,8|0,3:0|0:0,0:0:0:0:
135,326,179102,6,0,L|204:330,2,70,4|0|8,3:1|3:0|3:0,0:0:0:0:
270,226,179715,2,0,L|409:216,1,140,4|0,3:1|3:0,0:0:0:0:
461,150,180174,1,0,3:0:0:0:
461,150,180250,1,0,3:0:0:0:
461,150,180327,6,0,P|493:209|469:273,1,140,4|8,3:1|3:0,0:0:0:0:
400,321,180786,1,0,3:0:0:0:
316,322,180939,2,0,L|176:312,1,140,4|8,3:0|3:0,0:0:0:0:
67,183,181551,6,0,L|136:178,1,70,4|0,3:0|3:0,0:0:0:0:
169,100,181857,2,0,L|238:95,1,70,4|0,3:0|3:0,0:0:0:0:
289,161,182163,2,0,P|352:185|414:158,1,140,4|4,3:0|3:0,0:0:0:0:
431,75,182623,1,0,3:0:0:0:
507,110,182776,5,4,3:1:0:0:
507,110,182929,1,2,3:0:0:0:
432,260,183235,5,2,3:0:0:0:
360,216,183388,1,8,3:0:0:0:
316,288,183541,1,8,3:0:0:0:
388,332,183694,1,8,3:0:0:0:
270,46,184766,5,2,3:0:0:0:
270,46,184842,1,2,3:0:0:0:
270,46,184919,1,2,3:0:0:0:
146,159,185225,6,0,P|210:186|276:168,1,140,4|0,0:1|1:0,0:0:0:0:
336,110,185684,2,0,B|320:154|320:154|331:246,1,140,2|0,0:0|3:0,0:0:0:0:
294,312,186144,2,0,L|224:305,1,70,0|0,1:0|3:0,0:0:0:0:
143,328,186450,6,0,P|148:258|138:189,1,140,2|0,0:0|1:0,0:0:0:0:
118,108,186909,1,0,0:0:0:0:
118,108,187062,2,0,P|187:113|256:103,1,140,0|0,1:0|1:0,0:0:0:0:
407,177,187674,6,0,B|318:167|318:167|282:202,1,140,4|0,0:1|1:0,0:0:0:0:
219,258,188133,2,0,B|308:248|308:248|343:283,1,140,2|0,0:0|3:0,0:0:0:0:
288,347,188592,1,0,1:0:0:0:
102,282,188899,6,0,B|82:216|82:216|104:148,2,140,2|0|0,0:0|1:0|1:0,0:0:0:0:
172,327,189664,1,0,3:0:0:0:
219,258,189817,2,0,P|225:210|210:169,1,70,0|0,1:0|3:0,0:0:0:0:
228,110,190123,6,0,B|295:133|295:133|354:98,2,140,4|0|2,0:1|1:0|0:0,0:0:0:0:
166,53,190889,1,0,3:0:0:0:
102,108,191042,2,0,B|93:144|93:144|104:174,1,70,0|0,1:0|0:0,0:0:0:0:
173,222,191348,6,0,L|242:213,1,70,4|0,0:1|0:0,0:0:0:0:
317,175,191653,2,0,P|372:213|379:280,1,140,0|0,1:0|1:0,0:0:0:0:
360,363,192113,1,0,3:0:0:0:
276,357,192266,2,0,L|206:354,1,70,0|0,1:0|3:0,0:0:0:0:
121,345,192572,6,0,P|139:279|101:222,1,140,4|0,0:1|1:0,0:0:0:0:
40,168,193031,2,0,P|105:185|162:147,1,140,2|0,0:0|3:0,0:0:0:0:
190,67,193491,1,0,1:0:0:0:
272,109,193643,1,0,0:0:0:0:
272,109,193720,1,2,0:0:0:0:
272,109,193796,6,0,L|269:143,3,35,2|2|2|2,0:3|0:3|3:3|0:3,0:0:0:0:
303,168,194102,2,0,L|300:202,3,35,2|2|2|2,0:3|0:3|0:3|0:3,0:0:0:0:
285,242,194408,2,0,L|250:239,3,35,8|0|8|8,0:3|0:0|0:3|0:3,0:0:0:0:
223,272,194715,2,0,L|188:274,3,35,8|0|0|0,3:3|0:0|0:0|0:0,0:0:0:0:
149,291,195021,6,0,B|163:240|147:194|147:194|126:195|105:188,1,140,4|0,0:1|1:0,0:0:0:0:
105,106,195480,2,0,B|144:120|177:110|177:110|220:136|226:167,1,140,2|0,0:0|3:0,0:0:0:0:
249,235,195939,2,0,P|284:236|318:226,1,70,0|0,1:0|3:0,0:0:0:0:
369,160,196245,6,0,L|360:299,1,140,2|0,0:0|1:0,0:0:0:0:
440,327,196704,1,0,0:0:0:0:
440,327,196857,2,0,L|448:187,1,140,0|0,1:0|1:0,0:0:0:0:
307,93,197470,6,0,P|241:111|178:85,1,140,4|0,0:1|1:0,0:0:0:0:
94,98,197929,2,0,P|120:161|101:227,1,140,2|0,0:0|3:0,0:0:0:0:
28,272,198389,1,0,1:0:0:0:
177,349,198695,6,0,P|245:355|295:309,2,140,4|0|0,0:1|1:0|1:0,0:0:0:0:
219,276,199460,1,0,3:0:0:0:
148,230,199613,2,0,L|153:161,1,70,0|0,1:0|3:0,0:0:0:0:
208,97,199919,6,0,B|166:116|127:87|127:87|94:78|74:88,2,140,2|0|2,0:0|1:0|0:0,0:0:0:0:
278,51,200684,1,0,0:0:0:0:
340,106,200837,2,0,L|332:175,1,70,0|0,1:0|0:0,0:0:0:0:
256,211,201143,6,0,L|248:280,1,70,4|2,0:1|3:0,0:0:0:0:
310,337,201450,2,0,P|247:309|181:329,1,140,0|0,1:0|1:0,0:0:0:0:
117,382,201909,1,0,3:0:0:0:
67,314,202062,2,0,B|58:279|58:279|66:245,1,70,0|0,1:0|3:0,0:0:0:0:
139,205,202368,6,0,P|72:218|18:177,2,140,2|0|2,0:0|1:0|0:0,0:0:0:0:
213,157,203133,1,0,0:0:0:0:
291,193,203287,2,0,L|359:180,1,70,0|0,1:0|0:0,0:0:0:0:
426,129,203593,6,0,P|442:160|442:195,1,70,0|0,3:1|0:0,0:0:0:0:
396,264,203899,2,0,P|380:294|380:329,1,70,8|0,3:0|0:0,0:0:0:0:
350,358,204128,1,8,3:0:0:0:
350,358,204205,2,0,L|280:352,1,70,2|0,3:3|0:0,0:0:0:0:
213,301,204511,2,0,L|178:303,4,35,8|0|0|8|4,3:3|0:0|0:0|3:3|0:1,0:0:0:0:
256,192,204893,12,4,207266,0:1:0:0:
312,222,208490,6,0,P|374:251|435:222,2,140,2|0|0,0:0|1:0|1:0,0:0:0:0:
264,154,209255,1,2,3:0:0:0:
190,194,209408,2,0,P|179:228|183:262,1,70,0|0,1:0|0:0,0:0:0:0:
252,310,209715,6,0,P|186:288|123:315,1,140,4|0,0:1|1:0,0:0:0:0:
70,250,210174,1,2,3:0:0:0:
70,250,210326,2,0,P|91:184|64:121,1,140,0|0,0:0|1:0,0:0:0:0:
2,63,210786,1,4,0:1:0:0:
256,192,210939,12,4,213388,0:1:0:0:
446,109,214612,6,0,B|357:127|357:127|310:112,1,140,4|0,0:1|1:0,0:0:0:0:
262,41,215071,2,0,P|226:100|245:166,1,140,2|2,3:0|3:0,0:0:0:0:
313,215,215530,1,0,1:0:0:0:
255,274,215683,6,0,B|211:278|211:278|117:262,1,140,4|2,0:1|3:0,0:0:0:0:
49,211,216142,1,0,1:0:0:0:
49,211,216295,2,0,P|72:274|40:334,2,140,0|0|0,0:0|0:0|0:0,0:0:0:0:
88,134,217061,6,0,B|183:125|183:125|218:152,1,140,4|0,0:1|1:0,0:0:0:0:
275,214,217521,2,0,P|251:149|277:86,1,140,2|0,3:0|0:0,0:0:0:0:
343,35,217979,1,0,1:0:0:0:
418,72,218133,6,0,L|401:211,1,140,4|0,0:1|0:0,0:0:0:0:
373,242,218516,1,0,3:0:0:0:
373,242,218592,2,0,L|442:241,1,70,0|0,1:0|0:0,0:0:0:0:
448,324,218898,2,0,L|378:324,1,70,0|0,1:0|0:0,0:0:0:0:
295,342,219204,1,0,0:0:0:0:
295,342,219357,1,2,3:0:0:0:
259,265,219510,6,0,B|173:231|173:231|127:238,1,140,4|0,0:1|1:0,0:0:0:0:
68,297,219969,2,0,P|41:235|70:174,1,140,2|2,3:0|3:0,0:0:0:0:
141,127,220428,1,0,1:0:0:0:
213,78,220581,6,0,L|352:95,1,140,4|0,0:1|0:0,0:0:0:0:
388,73,220965,1,0,0:0:0:0:
388,72,221041,2,0,P|375:105|378:140,1,70,0|0,1:0|0:0,0:0:0:0:
458,163,221347,2,0,P|470:195|467:230,1,70,0|0,1:0|0:0,0:0:0:0:
403,283,221653,2,0,L|334:284,1,70,0|0,1:0|0:0,0:0:0:0:
263,240,221959,6,0,P|250:272|254:307,2,70,4|0|0,0:1|0:0|1:0,0:0:0:0:
316,174,222418,2,0,P|338:108|327:39,1,140,2|2,3:0|3:0,0:0:0:0:
250,69,222877,1,0,1:0:0:0:
173,32,223031,6,0,L|33:18,2,140,2|0|0,3:0|0:0|0:0,0:0:0:0:
167,116,223797,2,0,L|97:122,1,70,0|0,3:0|0:0,0:0:0:0:
49,190,224102,2,0,P|66:221|65:256,1,70,0|8,1:0|3:0,0:0:0:0:
51,296,224332,1,8,3:0:0:0:
51,296,224408,6,0,L|120:288,1,70,4|0,3:1|3:0,0:0:0:0:
188,238,224715,2,0,P|196:253|201:270,3,35,0|0|0|0,3:0|3:0|3:0|3:0,0:0:0:0:
242,281,225021,2,0,P|257:272|274:267,3,35,8|8|8|8,3:0|3:0|3:0|3:0,0:0:0:0:
314,278,225327,2,0,P|329:286|346:291,3,35,8|8|8|8,3:0|3:0|3:0|3:0,0:0:0:0:
385,276,225633,5,6,3:2:0:0:
256,192,225709,12,0,234204,0:0:0:0:
