osu file format v14

[General]
AudioFilename: audio.ogg
AudioLeadIn: 0
PreviewTime: 1009
Countdown: 0
SampleSet: Normal
StackLeniency: 0.4
Mode: 0
LetterboxInBreaks: 0
EpilepsyWarning: 1
WidescreenStoryboard: 1

[Editor]
DistanceSpacing: 1.1
BeatDivisor: 4
GridSize: 8
TimelineZoom: 0.8000054

[Metadata]
Title:Seven Nation Army
TitleUnicode:Seven Nation Army
Artist:The White Stripes
ArtistUnicode:The White Stripes
Creator:intiaz
Version:casper's Normal
Source:
Tags:7 Elephant salvation sna english rock alternative garage blues punk revival jack white meg nyantiaz flux3on fluxie fluxies casperisapotato
BeatmapID:3804395
BeatmapSetID:1843753

[Difficulty]
HPDrainRate:4
CircleSize:3
OverallDifficulty:4
ApproachRate:5.5
SliderMultiplier:1.6
SliderTickRate:1

[Events]
//Background and Video events
Video,1010,"army.mp4"
0,0,"elephante.jpg",0,0
//Break Periods
2,71710,78547
2,158187,165076
//Storyboard Layer 0 (Background)
//Storyboard Layer 1 (Fail)
//Storyboard Layer 2 (Pass)
//Storyboard Layer 3 (Foreground)
//Storyboard Layer 4 (Overlay)
//Storyboard Sound Samples

[TimingPoints]
1141,524.017467248908,4,1,1,50,1,0
2189,545.454545454546,4,1,1,50,1,0
2916,444.444444444444,4,1,1,50,1,0
3212,504.201680672269,4,1,1,50,1,0
4220,483.870967741935,4,1,1,50,1,0
5187,512.820512820513,4,1,1,50,1,0
6212,528.63436123348,4,1,1,50,1,0
6916,428.571428571429,4,1,1,50,1,0
7201,526.315789473684,4,1,1,50,1,0
8253,465.116279069767,4,1,1,50,1,0
9183,495.867768595041,4,1,1,60,1,0
9678,506.329113924051,4,1,1,60,1,0
10690,487.80487804878,4,1,1,60,1,0
11177,482.897384305835,4,1,1,60,1,0
13591,500,4,1,1,60,1,0
14091,487.80487804878,4,1,1,60,1,0
15066,485.82995951417,4,1,1,60,1,0
16037,468.75,4,1,1,60,1,0
16505,483.870967741935,4,1,1,60,1,0
16988,489.795918367347,4,1,1,60,1,0
17967,481.927710843374,4,1,1,60,1,0
18930,478.468899521531,4,1,1,60,1,0
22757,474.683544303797,4,1,1,60,1,0
27029,479.041916167665,4,1,1,60,1,0
28466,493.827160493827,4,1,1,60,1,0
28959,478.08764940239,4,1,1,60,1,0
30393,476.190476190476,4,1,1,60,1,0
32297,491.803278688525,4,1,1,60,1,0
32788,485.82995951417,4,1,1,60,1,0
34245,503.14465408805,4,1,1,60,1,0
34748,474.308300395257,4,1,1,60,1,0
36170,482.897384305835,4,1,1,60,1,0
38101,491.803278688525,4,1,1,60,1,0
38592,465.116279069767,4,1,1,60,1,0
39057,487.80487804878,4,1,1,60,1,0
39544,468.75,4,1,1,60,1,0
40012,500,4,1,1,60,1,0
40512,480,4,1,1,60,1,0
41952,481.927710843374,4,1,1,60,1,0
43397,468.75,4,1,1,60,1,0
43865,483.870967741935,4,1,1,60,1,0
45800,487.80487804878,4,1,1,60,1,0
46775,515.021459227468,4,1,1,60,1,0
47290,495.867768595041,4,1,1,60,1,0
47785,521.739130434783,4,1,1,70,1,0
48306,483.870967741935,4,1,1,70,1,0
49273,525.164113785558,4,1,1,70,1,0
49798,517.241379310345,4,1,1,70,1,0
50832,497.92531120332,4,1,1,70,1,0
51827,488.798370672098,4,1,1,80,1,1
51827,-90.9090909090909,4,1,1,80,0,1
53782,500,4,1,1,80,1,1
53782,-90.9090909090909,4,1,1,80,0,1
54282,461.538461538462,4,1,1,80,1,1
54282,-90.9090909090909,4,1,1,80,0,1
54743,504.201680672269,4,1,1,80,1,1
54743,-90.9090909090909,4,1,1,80,0,1
55247,461.538461538462,4,1,1,80,1,1
55247,-90.9090909090909,4,1,1,80,0,1
55708,498.960498960499,4,1,1,80,1,1
55708,-90.9090909090909,4,1,1,80,0,1
56705,517.241379310345,4,1,1,80,1,1
56705,-90.9090909090909,4,1,1,80,0,1
57394,444.444444444444,4,1,1,80,1,1
57394,-90.9090909090909,4,1,1,80,0,1
57690,526.315789473684,4,1,1,80,1,1
57690,-90.9090909090909,4,1,1,80,0,1
58391,422.535211267606,4,1,1,80,1,1
58391,-90.9090909090909,4,1,1,80,0,1
58672,491.803278688525,4,1,1,80,1,1
58672,-90.9090909090909,4,1,1,80,0,1
59163,465.116279069767,4,1,1,80,1,1
59163,-90.9090909090909,4,1,1,80,0,1
59628,517.241379310345,4,1,1,80,1,1
59628,-90.9090909090909,4,1,1,80,0,1
60145,458.015267175573,4,1,1,80,1,1
60145,-90.9090909090909,4,1,1,80,0,1
60603,490.998363338789,4,1,1,80,1,1
60603,-90.9090909090909,4,1,1,80,0,1
61584,510.63829787234,4,1,1,80,1,1
61584,-90.9090909090909,4,1,1,80,0,1
62094,476.190476190476,4,1,1,80,1,1
62094,-90.9090909090909,4,1,1,80,0,1
62570,506.329113924051,4,1,1,80,1,1
62570,-90.9090909090909,4,1,1,80,0,1
63076,451.127819548872,4,1,1,80,1,1
63076,-90.9090909090909,4,1,1,80,0,1
63527,510.63829787234,4,1,1,80,1,1
63527,-90.9090909090909,4,1,1,80,0,1
64037,476.190476190476,4,1,1,80,1,1
64037,-90.9090909090909,4,1,1,80,0,1
64513,512.820512820513,4,1,1,80,1,1
64513,-90.9090909090909,4,1,1,80,0,1
65196,472.44094488189,4,1,1,80,1,1
65196,-90.9090909090909,4,1,1,80,0,1
65510,512.820512820513,4,1,1,80,1,1
65510,-90.9090909090909,4,1,1,80,0,1
66193,431.654676258993,4,1,1,80,1,1
66193,-90.9090909090909,4,1,1,80,0,1
66480,517.241379310345,4,1,1,80,1,1
66480,-90.9090909090909,4,1,1,80,0,1
66997,489.795918367347,4,1,1,80,1,1
66997,-90.9090909090909,4,1,1,80,0,1
67486,487.80487804878,4,1,1,80,1,1
67973,512.820512820513,4,1,1,80,1,1
68998,466.926070038911,4,1,1,80,1,1
69464,495.867768595041,4,1,1,80,1,1
69959,517.241379310345,4,1,1,80,1,1
71510,528.63436123348,4,1,1,50,1,0
72567,538.116591928251,4,1,1,50,1,0
73284,465.116279069767,4,1,1,50,1,0
73594,495.867768595041,4,1,1,50,1,0
74585,503.14465408805,4,1,1,50,1,0
75591,518.358531317495,4,1,1,50,1,0
76627,524.017467248908,4,1,1,50,1,0
77325,468.75,4,1,1,50,1,0
77637,519.480519480519,4,1,1,50,1,0
78675,498.960498960499,4,1,1,50,1,0
79672,504.201680672269,4,1,1,60,1,0
80680,491.803278688525,4,1,1,60,1,0
81663,495.867768595041,4,1,1,60,1,0
82654,489.795918367347,4,1,1,60,1,0
83633,486.815415821501,4,1,1,60,1,0
85580,488.798370672098,4,1,1,60,1,0
87535,495.867768595041,4,1,1,60,1,0
88526,484.652665589661,4,1,1,60,1,0
89495,481.927710843374,4,1,1,60,1,0
91422,487.80487804878,4,1,1,60,1,0
92397,492.813141683778,4,1,1,60,1,0
93382,491.803278688525,4,1,1,60,1,0
94365,480.769230769231,4,1,1,60,1,0
95326,490.79754601227,4,1,1,60,1,0
96307,483.870967741935,4,1,1,60,1,0
97274,481.927710843374,4,1,1,60,1,0
99201,488.798370672098,4,1,1,60,1,0
100178,483.870967741935,4,1,1,60,1,0
101145,480,4,1,1,60,1,0
102825,512.820512820513,4,1,1,60,1,0
103081,489.795918367347,4,1,1,60,1,0
105040,481.927710843374,4,1,1,60,1,0
106967,486.815415821501,4,1,1,60,1,0
107940,483.870967741935,4,1,1,60,1,0
108907,483.870967741935,4,1,1,60,1,0
110358,461.538461538462,4,1,1,60,1,0
110819,485.82995951417,4,1,1,60,1,0
111790,474.308300395257,4,1,1,60,1,0
112738,478.08764940239,4,1,1,60,1,0
114650,487.80487804878,4,1,1,60,1,0
115137,476.190476190476,4,1,1,60,1,0
116565,485.82995951417,4,1,1,60,1,0
117536,503.355704697987,4,1,1,60,1,0
118039,478.08764940239,4,1,1,60,1,0
118517,506.329113924051,4,1,1,70,1,0
119023,476.190476190476,4,1,1,70,1,0
119499,504.201680672269,4,1,1,70,1,0
120003,511.727078891258,4,1,1,70,1,0
120514,491.803278688525,4,1,1,70,1,0
121005,505.263157894737,4,1,1,70,1,0
122520,500,4,1,1,80,1,1
122520,-90.9090909090909,4,1,1,80,0,1
123520,485.82995951417,4,1,1,80,1,1
123520,-90.9090909090909,4,1,1,80,0,1
124491,508.474576271186,4,1,1,80,1,1
124491,-90.9090909090909,4,1,1,80,0,1
124999,468.75,4,1,1,80,1,1
124999,-90.9090909090909,4,1,1,80,0,1
125467,504.201680672269,4,1,1,80,1,1
125467,-90.9090909090909,4,1,1,80,0,1
125971,476.190476190476,4,1,1,80,1,1
125971,-90.9090909090909,4,1,1,80,0,1
126447,508.474576271186,4,1,1,80,1,1
126447,-90.9090909090909,4,1,1,80,0,1
126955,481.927710843374,4,1,1,80,1,1
126955,-90.9090909090909,4,1,1,80,0,1
127436,512.820512820513,4,1,1,80,1,1
127436,-90.9090909090909,4,1,1,80,0,1
128119,458.015267175573,4,1,1,80,1,1
128119,-90.9090909090909,4,1,1,80,0,1
128424,526.315789473684,4,1,1,80,1,1
128424,-90.9090909090909,4,1,1,80,0,1
129125,447.761194029851,4,1,1,80,1,1
129125,-90.9090909090909,4,1,1,80,0,1
129423,519.480519480519,4,1,1,80,1,1
129423,-90.9090909090909,4,1,1,80,0,1
129942,465.116279069767,4,1,1,80,1,1
129942,-90.9090909090909,4,1,1,80,0,1
130407,510.63829787234,4,1,1,80,1,1
130407,-90.9090909090909,4,1,1,80,0,1
130917,470.588235294118,4,1,1,80,1,1
130917,-90.9090909090909,4,1,1,80,0,1
131387,512.820512820513,4,1,1,80,1,1
131387,-90.9090909090909,4,1,1,80,0,1
131899,461.538461538462,4,1,1,80,1,1
131899,-90.9090909090909,4,1,1,80,0,1
132360,515.021459227468,4,1,1,80,1,1
132360,-90.9090909090909,4,1,1,80,0,1
132875,458.015267175573,4,1,1,80,1,1
132875,-90.9090909090909,4,1,1,80,0,1
133333,515.021459227468,4,1,1,80,1,1
133333,-90.9090909090909,4,1,1,80,0,1
133848,465.116279069767,4,1,1,80,1,1
133848,-90.9090909090909,4,1,1,80,0,1
134313,489.795918367347,4,1,1,80,1,1
134313,-90.9090909090909,4,1,1,80,0,1
135292,511.291009799744,4,1,1,80,1,1
135292,-90.9090909090909,4,1,1,80,0,1
136996,422.535211267606,4,1,1,80,1,1
136996,-90.9090909090909,4,1,1,80,0,1
137277,508.474576271186,4,1,1,80,1,1
137277,-90.9090909090909,4,1,1,80,0,1
137785,472.44094488189,4,1,1,80,1,1
137785,-90.9090909090909,4,1,1,80,0,1
138257,510.63829787234,4,1,1,80,1,1
138257,-90.9090909090909,4,1,1,80,0,1
138767,476.190476190476,4,1,1,80,1,1
138767,-90.9090909090909,4,1,1,80,0,1
139243,481.927710843374,4,1,1,80,1,1
139243,-90.9090909090909,4,1,1,80,0,1
140206,512.820512820513,4,1,1,80,1,1
140206,-90.9090909090909,4,1,1,80,0,1
140718,476.190476190476,4,1,1,80,1,1
140718,-90.9090909090909,4,1,1,80,0,1
141194,502.092050209205,4,1,1,80,1,1
141194,-90.9090909090909,4,1,1,80,0,1
141696,472.44094488189,4,1,1,80,1,1
141696,-90.9090909090909,4,1,1,80,0,1
142168,485.82995951417,4,1,1,80,1,1
142168,-90.9090909090909,4,1,1,80,0,1
143139,517.241379310345,4,1,1,80,1,1
143139,-90.9090909090909,4,1,1,80,0,1
143828,480,4,1,1,80,1,1
143828,-90.9090909090909,4,1,1,80,0,1
144148,511.727078891258,4,1,1,80,1,1
144148,-90.9090909090909,4,1,1,80,0,1
144830,461.538461538462,4,1,1,80,1,1
144830,-90.9090909090909,4,1,1,80,0,1
145137,495.867768595041,4,1,1,80,1,1
145137,-90.9090909090909,4,1,1,80,0,1
145632,463.320463320463,4,1,1,80,1,1
145632,-90.9090909090909,4,1,1,80,0,1
146095,489.795918367347,4,1,1,80,1,1
146095,-90.9090909090909,4,1,1,80,0,1
147074,481.927710843374,4,1,1,80,1,1
147074,-90.9090909090909,4,1,1,80,0,1
148037,507.399577167019,4,1,1,80,1,1
148037,-90.9090909090909,4,1,1,80,0,1
148544,465.116279069767,4,1,1,80,1,1
148544,-90.9090909090909,4,1,1,80,0,1
149009,504.201680672269,4,1,1,80,1,1
149009,-90.9090909090909,4,1,1,80,0,1
149513,476.190476190476,4,1,1,80,1,1
149513,-90.9090909090909,4,1,1,80,0,1
149989,495.867768595041,4,1,1,80,1,1
149989,-90.9090909090909,4,1,1,80,0,1
150980,504.201680672269,4,1,1,80,1,1
150980,-90.9090909090909,4,1,1,80,0,1
151652,447.761194029851,4,1,1,80,1,1
151652,-90.9090909090909,4,1,1,80,0,1
151950,545.454545454546,4,1,1,80,1,1
151950,-90.9090909090909,4,1,1,80,0,1
152677,363.636363636364,4,1,1,80,1,1
152677,-90.9090909090909,4,1,1,80,0,1
152919,519.480519480519,4,1,1,80,1,1
152919,-90.9090909090909,4,1,1,80,0,1
153438,500,4,1,1,80,1,1
153438,-90.9090909090909,4,1,1,80,0,1
153938,526.315789473684,4,1,1,80,1,1
154464,481.927710843374,4,1,1,80,1,1
155427,508.474576271186,4,1,1,80,1,1
155935,504.201680672269,4,1,1,80,1,1
156439,521.739130434783,4,1,1,80,1,1
156960,513.918629550321,4,1,1,80,1,1
157987,533.333333333333,4,1,1,50,1,0
159053,555.555555555556,4,1,1,50,1,0
159793,491.803278688525,4,1,1,50,1,0
160120,491.803278688525,4,1,1,50,1,0
161103,515.021459227468,4,1,1,50,1,0
162133,517.241379310345,4,1,1,50,1,0
163167,547.945205479452,4,1,1,50,1,0
163897,480,4,1,1,50,1,0
164217,506.329113924051,4,1,1,50,1,0
165229,486.420753952169,4,1,1,50,1,0
166201,490.79754601227,4,1,1,60,1,0
168164,485.82995951417,4,1,1,60,1,0
171078,483.870967741935,4,1,1,60,1,0
172045,480,4,1,1,60,1,0
173965,483.870967741935,4,1,1,60,1,0
175900,485.82995951417,4,1,1,60,1,0
179786,491.803278688525,4,1,1,60,1,0
180769,481.927710843374,4,1,1,60,1,0
181732,486.815415821501,4,1,1,60,1,0
185626,489.795918367347,4,1,1,60,1,0
187585,484.652665589661,4,1,1,60,1,0
189038,493.827160493827,4,1,1,60,1,0
189531,494.845360824742,4,1,1,60,1,0
191015,480,4,1,1,60,1,0
191495,504.201680672269,4,1,1,60,1,0
191999,472.44094488189,4,1,1,60,1,0
192471,483.870967741935,4,1,1,60,1,0
193438,481.927710843374,4,1,1,60,1,0
195365,476.190476190476,4,1,1,60,1,0
197269,493.827160493827,4,1,1,60,1,0
197762,481.927710843374,4,1,1,60,1,0
199207,476.190476190476,4,1,1,60,1,0
200159,489.795918367347,4,1,1,60,1,0
201138,479.041916167665,4,1,1,60,1,0
203054,483.870967741935,4,1,1,60,1,0
204989,515.021459227468,4,1,1,70,1,0
205504,487.80487804878,4,1,1,70,1,0
205991,495.867768595041,4,1,1,70,1,0
206982,516.129032258065,4,1,1,70,1,0
207498,483.870967741935,4,1,1,70,1,0
207981,494.845360824742,4,1,1,70,1,0
208970,489.795918367347,4,1,1,80,1,1
208970,-90.9090909090909,4,1,1,80,0,1
209949,506.329113924051,4,1,1,80,1,1
209949,-90.9090909090909,4,1,1,80,0,1
210455,468.75,4,1,1,80,1,1
210455,-90.9090909090909,4,1,1,80,0,1
210923,510.63829787234,4,1,1,80,1,1
210923,-90.9090909090909,4,1,1,80,0,1
211433,474.308300395257,4,1,1,80,1,1
211433,-90.9090909090909,4,1,1,80,0,1
211907,503.14465408805,4,1,1,80,1,1
211907,-90.9090909090909,4,1,1,80,0,1
212410,458.015267175573,4,1,1,80,1,1
212410,-90.9090909090909,4,1,1,80,0,1
212868,489.795918367347,4,1,1,80,1,1
212868,-90.9090909090909,4,1,1,80,0,1
213847,500,4,1,1,80,1,1
213847,-90.9090909090909,4,1,1,80,0,1
214513,425.531914893617,4,1,1,80,1,1
214513,-90.9090909090909,4,1,1,80,0,1
214796,521.739130434783,4,1,1,80,1,1
214796,-90.9090909090909,4,1,1,80,0,1
215491,476.190476190476,4,1,1,80,1,1
215491,-90.9090909090909,4,1,1,80,0,1
215808,528.63436123348,4,1,1,80,1,1
215808,-90.9090909090909,4,1,1,80,0,1
216336,454.545454545455,4,1,1,80,1,1
216336,-90.9090909090909,4,1,1,80,0,1
216790,511.727078891258,4,1,1,80,1,1
216790,-90.9090909090909,4,1,1,80,0,1
217301,463.320463320463,4,1,1,80,1,1
217301,-90.9090909090909,4,1,1,80,0,1
217764,481.927710843374,4,1,1,80,1,1
217764,-90.9090909090909,4,1,1,80,0,1
218727,504.201680672269,4,1,1,80,1,1
218727,-90.9090909090909,4,1,1,80,0,1
219231,472.44094488189,4,1,1,80,1,1
219231,-90.9090909090909,4,1,1,80,0,1
219703,497.92531120332,4,1,1,80,1,1
219703,-90.9090909090909,4,1,1,80,0,1
220200,476.190476190476,4,1,1,80,1,1
220200,-90.9090909090909,4,1,1,80,0,1
220676,493.827160493827,4,1,1,80,1,1
220676,-90.9090909090909,4,1,1,80,0,1
221663,508.474576271186,4,1,1,80,1,1
221663,-90.9090909090909,4,1,1,80,0,1
222340,459.770114942529,4,1,1,80,1,1
222340,-90.9090909090909,4,1,1,80,0,1
222646,515.021459227468,4,1,1,80,1,1
222646,-90.9090909090909,4,1,1,80,0,1
223332,419.58041958042,4,1,1,80,1,1
223332,-90.9090909090909,4,1,1,80,0,1
223611,515.021459227468,4,1,1,80,1,1
223611,-90.9090909090909,4,1,1,80,0,1
224126,487.80487804878,4,1,1,80,1,1
224126,-90.9090909090909,4,1,1,80,0,1
224613,522.193211488251,4,1,1,50,1,0
228790,600,4,1,1,50,1,0
229690,717.703349282297,4,1,1,50,1,0
229869,750,4,1,1,50,1,0

[Colours]
Combo1 : 207,207,207
Combo2 : 128,0,0
Combo3 : 70,70,70

[HitObjects]
423,0,9183,6,0,P|444:59|449:167,1,160,0|0,3:2|3:2,0:0:0:0:
462,315,10184,2,0,P|403:336|295:341,1,160,0|0,3:2|3:2,0:0:0:0:
141,356,11177,2,0,P|120:297|115:189,1,160,0|0,3:2|3:2,0:0:0:0:
234,95,12142,1,0,3:2:0:0:
462,315,13108,6,0,P|403:336|295:341,1,160,0|0,3:2|3:2,0:0:0:0:
141,356,14091,2,0,P|120:297|115:189,1,160,0|0,3:2|3:2,0:0:0:0:
91,46,15066,2,0,P|150:25|258:20,1,160,0|0,3:2|3:2,0:0:0:0:
356,126,16037,1,0,3:2:0:0:
388,207,16271,1,2,0:2:0:0:
388,207,16505,2,0,P|448:220|476:232,1,80,2|2,3:2|0:2,0:0:0:0:
499,300,16988,6,0,P|446:341|340:319,1,160,2|2,3:2|3:2,0:0:0:0:
295,184,17967,2,0,P|217:172|153:217,1,160,0|0,3:2|3:2,0:0:0:0:
36,327,18930,2,0,P|16:230|-9:149,1,160,0|0,3:2|3:2,0:0:0:0:
12,95,19647,1,2,0:2:0:0:
12,95,19886,2,0,P|50:63|77:30,1,80,2|2,3:2|0:2,0:0:0:0:
144,11,20365,2,0,P|176:49|209:76,1,80,2|2,3:2|0:2,0:0:0:0:
206,147,20843,6,0,P|184:223|168:302,1,160,2|2,3:2|3:2,0:0:0:0:
229,362,21561,1,2,0:2:0:0:
229,362,21800,2,0,B|318:340|280:309|384:291,1,160,2|0,3:2|3:2,0:0:0:0:
483,179,22757,2,0,B|394:157|432:126|328:108,1,160,0|0,3:2|3:2,0:0:0:0:
219,5,23706,1,0,3:2:0:0:
167,66,23943,1,2,0:2:0:0:
167,66,24181,2,0,P|126:47|77:54,1,80,2|2,3:2|0:2,0:0:0:0:
44,113,24655,6,0,P|64:175|84:276,1,160,2|2,3:2|3:2,0:0:0:0:
196,381,25605,2,0,P|258:361|359:341,1,160,0|0,3:2|3:2,0:0:0:0:
464,229,26554,2,0,P|444:167|424:66,1,160,0|0,3:2|3:2,0:0:0:0:
306,181,27508,2,0,P|260:191|224:209,1,80,2|2,3:2|0:2,0:0:0:0:
172,260,27987,1,2,3:2:0:0:
41,194,28466,6,0,P|6:136|34:39,1,160,2|2,3:2|3:2,0:0:0:0:
91,5,29198,1,2,0:2:0:0:
91,5,29437,2,0,P|162:30|249:40,1,160,2|0,3:2|3:2,0:0:0:0:
313,186,30393,2,0,P|233:194|158:221,2,160,0|0|0,3:2|3:2|3:2,0:0:0:0:
469,221,31821,2,0,P|480:182|486:143,1,80,2|2,3:2|0:2,0:0:0:0:
465,69,32297,6,0,P|425:63|387:51,1,80,2|2,3:2|0:2,0:0:0:0:
325,102,32788,1,10,0:2:0:0:
325,102,33030,1,2,0:2:0:0:
251,61,33273,2,0,P|199:23|104:33,1,160,2|8,3:2|0:2,0:0:0:0:
6,151,34245,2,0,P|24:202|33:251,1,80,0|2,3:2|0:2,0:0:0:0:
105,263,34748,1,8,0:2:0:0:
105,263,34985,1,2,0:2:0:0:
157,204,35222,2,0,P|218:237|249:328,1,160,2|8,3:2|0:2,0:0:0:0:
93,353,36170,6,0,P|70:261|41:202,1,160,0|8,3:2|0:2,0:0:0:0:
92,51,37135,2,0,P|184:28|243:-1,1,160,0|8,3:2|0:2,0:0:0:0:
394,50,38101,2,0,P|417:142|446:201,1,160,0|8,3:2|0:2,0:0:0:0:
384,348,39057,1,0,3:2:0:0:
246,72,40012,6,0,P|207:63|163:70,1,80,2|2,3:2|0:2,0:0:0:0:
104,116,40512,1,10,0:2:0:0:
232,225,40992,2,0,P|267:278|265:382,2,160,2|8|0,3:2|0:2|3:2,0:0:0:0:
284,163,42192,1,2,0:2:0:0:
284,163,42433,2,0,P|323:154|367:161,1,80,8|2,0:2|0:2,0:0:0:0:
430,202,42915,2,0,P|465:149|463:45,1,160,2|8,3:2|0:2,0:0:0:0:
311,2,43865,6,0,B|242:42|242:42|155:24,1,160,0|8,3:2|0:2,0:0:0:0:
18,82,44832,2,0,B|58:151|58:151|40:238,1,160,0|8,3:2|0:2,0:0:0:0:
99,370,45800,2,0,B|168:330|168:330|255:348,1,160,0|8,3:2|0:2,0:0:0:0:
395,288,46775,1,0,3:2:0:0:
270,188,47290,1,10,0:2:0:0:
400,124,47785,6,0,P|460:156|473:181,1,80,6|2,3:1|0:2,0:0:0:0:
396,211,48306,2,0,P|398:279|382:303,1,80,2|2,3:2|0:2,0:0:0:0:
319,248,48789,2,0,P|245:306|156:276,1,160,2|0,3:2|3:2,0:0:0:0:
103,173,49798,6,0,P|42:205|29:230,1,80,6|0,3:1|0:2,0:0:0:0:
107,260,50315,2,0,P|104:328|120:352,1,80,2|0,3:2|0:2,0:0:0:0:
184,297,50832,2,0,P|257:355|346:325,1,160,2|2,3:2|3:2,0:0:0:0:
256,198,51827,6,0,P|248:77|253:-4,1,176.000005371094,6|12,3:1|0:1,0:0:0:0:
338,17,52560,1,2,0:1:0:0:
342,105,52804,2,0,P|403:117|478:139,1,132.00000402832,6|2,3:1|0:0,0:0:0:0:
496,174,53293,2,0,P|502:225|504:283,1,88.000002685547,12|2,0:1|0:1,0:0:0:0:
434,313,53782,2,0,B|338:296|378:253|277:238,1,176.000005371094,6|12,3:1|0:1,0:0:0:0:
228,85,54743,1,6,3:1:0:0:
74,196,55247,1,12,0:1:0:0:
6,44,55708,6,0,P|50:11|165:19,1,176.000005371094,6|12,3:1|0:1,0:0:0:0:
228,85,56456,1,2,0:1:0:0:
280,155,56705,6,0,P|284:235|274:281,2,117.333336914063,6|2|10,3:1|3:1|0:1,0:0:0:0:
391,117,57690,2,0,P|387:37|396:-11,2,117.333336914063,6|2|2,3:1|0:0|0:0,0:0:0:0:
496,163,58672,2,0,P|508:256|512:377,1,176.000005371094,6|14,3:1|0:1,0:0:0:0:
359,381,59628,6,0,P|291:338|184:360,1,176.000005371094,6|12,3:1|0:1,0:0:0:0:
115,324,60374,1,2,0:1:0:0:
160,254,60603,2,0,P|173:174|171:114,1,132.00000402832,6|2,3:1|0:1,0:0:0:0:
137,95,61093,2,0,P|121:51|116:-11,1,88.000002685547,12|2,0:0|0:1,0:0:0:0:
201,32,61584,2,0,P|277:16|352:72,1,176.000005371094,6|12,3:1|0:1,0:0:0:0:
238,206,62570,1,6,3:1:0:0:
410,286,63076,1,12,0:1:0:0:
273,367,63527,6,0,P|206:347|86:341,1,176.000005371094,6|12,3:1|0:1,0:0:0:0:
99,251,64275,1,2,0:1:0:0:
95,167,64513,6,0,P|45:135|21:74,2,117.333336914063,6|2|10,3:1|3:1|0:1,0:0:0:0:
191,118,65510,2,0,P|193:58|245:4,2,117.333336914063,6|2|2,3:1|0:1|0:1,0:0:0:0:
259,188,66480,2,0,B|302:195|344:160|326:159|380:121|438:152,1,176.000005371094,6|14,3:1|0:1,0:0:0:0:
505,283,67486,6,0,P|456:295|420:331,1,80,6|0,3:1|0:1,0:1:0:0:
379,374,67973,1,2,3:1:0:0:
379,374,68229,1,0,0:1:0:0:
319,311,68485,2,0,P|267:302|145:304,1,160,2|2,3:1|3:1,0:1:0:0:
33,223,69464,6,0,P|82:201|106:168,1,80,6|0,3:1|0:1,0:1:0:0:
134,108,69959,1,2,3:1:0:0:
134,108,70217,1,0,0:1:0:0:
207,146,70476,2,0,B|300:150|246:196|362:202,1,160,2|2,3:1|3:1,0:1:0:0:
473,102,71510,5,4,3:1:0:0:
184,359,79672,6,0,B|297:332|297:332|335:352,1,160,0|0,3:2|3:2,0:0:0:0:
490,312,80680,2,0,B|463:198|463:198|483:160,1,160,0|0,3:2|3:2,0:0:0:0:
449,0,81663,2,0,B|336:27|336:27|298:7,1,160,0|0,3:2|3:2,0:0:0:0:
220,146,82654,1,0,3:2:0:0:
490,312,83633,6,0,B|463:199|463:199|483:161,1,160,0|0,3:2|3:2,0:0:0:0:
449,0,84606,2,0,B|335:27|335:27|297:7,1,160,0|0,3:2|3:2,0:0:0:0:
141,46,85580,2,0,B|168:159|168:159|148:197,1,160,0|0,3:2|3:2,0:0:0:0:
291,268,86557,1,0,3:2:0:0:
268,349,86801,1,2,0:2:0:0:
268,349,87046,2,0,P|215:367|173:378,1,80,2|2,3:2|0:2,0:0:0:0:
153,304,87535,6,0,P|76:277|-2:268,1,160,2|2,3:2|3:2,0:0:0:0:
40,113,88526,2,0,P|119:103|194:77,1,160,0|0,3:2|3:2,0:0:0:0:
265,221,89495,2,0,P|344:230|419:256,1,160,0|0,3:2|3:2,0:0:0:0:
511,134,90458,2,0,P|498:89|492:53,1,80,2|2,3:2|0:2,0:0:0:0:
420,21,90940,2,0,P|375:34|339:40,1,80,2|2,3:2|0:2,0:0:0:0:
316,115,91422,6,0,P|352:179|336:269,1,160,2|2,3:2|3:2,0:0:0:0:
264,275,92153,1,2,0:2:0:0:
264,275,92397,2,0,P|228:211|244:121,1,160,2|2,3:2|3:2,0:0:0:0:
148,7,93382,2,0,B|28:36|28:36|-6:98,1,160,0|0,3:2|3:2,0:0:0:0:
103,202,94365,1,0,3:2:0:0:
42,255,94605,2,0,P|28:292|20:331,2,80,2|2|2,0:2|3:2|0:2,0:0:0:0:
103,202,95326,6,0,B|191:220|156:179|271:204,1,160,2|2,3:2|3:2,0:0:0:0:
243,361,96307,2,0,B|331:343|296:384|401:361,1,160,0|0,3:2|3:2,0:0:0:0:
418,201,97274,2,0,B|313:178|348:219|260:201,1,160,0|0,3:2|3:2,0:0:0:0:
110,259,98237,2,0,P|86:217|86:150,1,80,2|2,3:2|0:2,0:0:0:0:
123,115,98719,1,2,3:2:0:0:
123,115,98960,1,2,0:2:0:0:
204,114,99201,6,0,B|270:104|270:104|286:114|286:114|386:99,1,160,2|2,3:2|3:2,0:0:0:0:
426,155,99934,1,2,0:2:0:0:
426,155,100178,2,0,P|484:98|478:15,1,160,2|0,3:2|3:2,0:0:0:0:
323,2,101145,2,0,B|249:13|249:13|233:3|233:3|167:13,2,160,2|0|0,3:2|3:2|3:2,0:0:0:0:
369,73,102345,1,2,0:2:0:0:
369,73,102585,2,0,P|341:135|336:167,1,80,2|2,3:2|0:2,0:0:0:0:
269,185,103081,6,0,P|201:159|99:188,1,160,2|10,3:2|0:2,0:0:0:0:
67,239,103815,1,2,0:2:0:0:
67,239,104060,2,0,P|135:265|237:236,1,160,2|8,3:2|0:2,0:0:0:0:
309,116,105040,2,0,P|383:89|460:106,1,160,0|10,3:2|0:2,0:0:0:0:
511,170,105762,1,2,0:2:0:0:
511,170,106003,2,0,P|436:196|359:179,1,160,2|10,3:2|0:2,0:0:0:0:
208,232,106967,6,0,P|227:174|237:66,1,160,0|8,3:2|0:2,0:0:0:0:
398,107,107940,2,0,P|379:165|369:273,1,160,0|8,3:2|0:2,0:0:0:0:
218,318,108907,2,0,P|160:299|52:289,1,160,0|8,3:2|0:2,0:0:0:0:
92,135,109874,2,0,P|150:154|258:164,1,160,0|8,3:2|0:2,0:0:0:0:
304,108,110588,1,2,0:2:0:0:
379,134,110819,6,0,P|392:187|396:237,1,80,2|2,3:2|0:2,0:0:0:0:
322,247,111304,2,0,P|309:300|305:350,1,80,10|2,0:2|0:2,0:0:0:0:
373,368,111790,2,0,P|474:339|510:271,2,160,2|8|2,3:2|0:2|3:2,0:0:0:0:
306,325,112977,1,2,0:2:0:0:
306,325,113216,2,0,P|268:336|214:341,1,80,10|0,0:2|0:2,0:0:0:0:
165,290,113694,2,0,P|192:183|193:125,1,160,2|8,3:2|0:2,0:0:0:0:
97,11,114650,6,0,P|11:56|-4:143,1,160,0|8,3:2|0:2,0:0:0:0:
30,266,115613,2,0,P|75:352|162:367,1,160,0|8,3:2|0:2,0:0:0:0:
285,333,116565,2,0,P|371:288|386:201,1,160,0|8,3:2|0:2,0:0:0:0:
289,115,117536,1,0,3:2:0:0:
147,189,118039,1,10,0:2:0:0:
120,31,118517,6,0,P|69:14|38:13,1,80,6|0,3:1|0:2,0:0:0:0:
27,91,119023,2,0,P|78:108|109:109,1,80,2|2,3:2|0:2,0:0:0:0:
179,83,119499,2,0,P|227:114|251:226,1,160,2|0,3:2|3:2,0:0:0:0:
415,201,120514,6,0,P|466:184|497:183,1,80,6|0,3:1|0:2,0:0:0:0:
508,261,121005,2,0,P|457:278|426:279,1,80,2|0,3:2|0:2,0:0:0:0:
356,253,121510,2,0,P|308:284|284:396,1,160,2|0,3:2|3:2,0:0:0:0:
196,231,122520,6,0,P|195:137|181:34,1,176.000005371094,6|12,3:1|0:1,0:0:0:0:
111,7,123270,1,2,0:1:0:0:
35,52,123520,2,0,P|3:113|37:178,1,132.00000402832,6|2,3:1|0:1,0:0:0:0:
57,198,124005,2,0,P|74:245|55:307,1,88.000002685547,12|2,0:1|0:1,0:0:0:0:
17,353,124491,2,0,P|108:374|194:303,1,176.000005371094,6|12,3:1|0:1,0:0:0:0:
239,169,125467,1,6,3:1:0:0:
410,131,125971,1,12,0:1:0:0:
500,284,126447,6,0,P|426:301|329:347,1,176.000005371094,6|12,3:1|0:1,0:0:0:0:
267,286,127195,1,2,0:1:0:0:
307,212,127436,6,0,P|354:171|369:110,2,117.333336914063,6|2|10,3:1|3:1|0:1,0:0:0:0:
193,179,128424,2,0,P|146:220|131:281,2,117.333336914063,6|2|2,3:1|0:0|0:0,0:0:0:0:
257,81,129423,2,0,B|255:0|255:0|120:2,1,176.000005371094,6|12,3:1|0:1,0:0:0:0:
9,90,130407,6,0,B|25:182|58:141|67:254,1,176.000005371094,6|12,3:1|0:1,0:0:0:0:
17,325,131152,1,2,0:1:0:0:
88,376,131387,2,0,P|193:358|253:345,1,132.00000402832,6|2,3:1|0:1,0:0:0:0:
245,318,131899,2,0,P|309:330|352:350,1,88.000002685547,12|2,0:1|0:1,0:0:0:0:
409,364,132360,2,0,B|445:322|445:322|419:197,1,176.000005371094,6|12,3:1|0:1,0:0:0:0:
394,52,133333,1,6,3:1:0:0:
202,13,133848,1,12,0:1:0:0:
111,155,134313,6,0,P|103:254|137:323,1,176.000005371094,6|12,3:1|0:1,0:0:0:0:
213,362,135047,1,2,0:1:0:0:
259,293,135292,6,0,P|341:283|385:290,2,117.333336914063,6|2|10,3:1|3:1|3:1,0:0:0:0:
184,201,136314,2,0,B|229:173|229:173|247:39,1,176.000005371094,6|12,3:1|0:1,0:0:0:0:
95,27,137277,2,0,B|50:55|50:55|32:189,1,176.000005371094,6|12,3:1|0:1,0:0:0:0:
123,311,138257,6,0,P|202:283|295:271,1,176.000005371094,6|12,3:1|0:1,0:0:0:0:
359,213,139005,1,2,0:1:0:0:
286,158,139243,2,0,P|292:92|312:29,1,132.00000402832,6|2,3:1|0:1,0:0:0:0:
352,11,139724,2,0,P|395:10|438:19,1,88.000002685547,12|2,0:0|0:1,0:0:0:0:
497,77,140206,2,0,B|482:143|482:143|490:156|490:156|461:264,1,176.000005371094,6|12,3:1|0:1,0:0:0:0:
300,305,141194,1,6,3:1:0:0:
344,126,141696,1,12,0:1:0:0:
186,48,142168,6,0,P|127:46|4:92,1,176.000005371094,6|12,3:1|0:1,0:0:0:0:
34,169,142896,1,2,0:1:0:0:
98,220,143139,6,0,B|73:285|73:285|88:343,2,117.333336914063,6|2|10,3:1|3:1|0:1,0:0:0:0:
199,159,144148,2,0,B|174:94|174:94|189:36,2,117.333336914063,6|2|2,3:1|0:0|0:1,0:0:0:0:
284,231,145137,2,0,P|341:243|477:225,1,176.000005371094,6|12,3:1|0:1,0:0:0:0:
506,62,146095,6,0,B|464:36|464:36|319:64,1,176.000005371094,6|12,3:1|0:1,0:0:0:0:
277,121,146829,1,2,0:1:0:0:
235,43,147074,2,0,P|178:16|82:16,1,132.00000402832,6|2,3:1|0:1,0:0:0:0:
83,46,147555,2,0,P|17:76|-13:93,1,88.000002685547,12|2,0:0|0:1,0:0:0:0:
31,167,148037,2,0,P|64:217|56:345,1,176.000005371094,6|12,3:1|0:1,0:0:0:0:
237,300,149009,1,6,3:1:0:0:
204,126,149513,1,12,0:1:0:0:
340,15,149989,6,0,P|422:38|512:52,1,176.000005371094,6|12,3:1|0:1,0:0:0:0:
468,129,150732,1,0,0:0:0:0:
429,208,150980,6,0,P|411:278|406:359,2,117.333336914063,6|2|10,3:1|3:1|0:1,0:0:0:0:
376,136,151950,2,0,P|306:155|223:197,2,117.333336914063,6|2|2,3:1|0:1|0:1,0:0:0:0:
441,73,152919,2,0,P|383:35|274:-3,1,176.000005371094,6|12,3:1|0:1,0:0:0:0:
132,15,153938,6,0,P|118:56|95:95,1,80,6|0,3:1|0:1,0:1:0:0:
57,161,154464,1,2,3:1:0:0:
57,161,154704,1,0,0:1:0:0:
124,212,154945,2,0,P|190:229|258:167,1,160,2|2,3:1|3:1,0:1:0:0:
405,113,155935,6,0,P|421:165|435:189,1,80,6|0,3:1|0:1,0:1:0:0:
509,230,156439,1,2,3:1:0:0:
509,230,156699,1,0,0:1:0:0:
463,297,156960,2,0,B|385:322|385:322|316:270,1,160,2|0,3:1|3:1,0:1:0:0:
256,126,157987,5,4,3:1:0:0:
123,2,166201,6,0,P|191:24|305:35,1,160,0|0,3:2|3:2,0:0:0:0:
434,69,167182,2,0,P|412:137|401:251,1,160,0|0,3:2|3:2,0:0:0:0:
374,382,168164,2,0,P|306:360|192:349,1,160,0|0,3:2|3:2,0:0:0:0:
154,202,169135,1,0,3:2:0:0:
446,59,170107,6,0,P|424:127|413:241,1,160,0|0,3:2|3:2,0:0:0:0:
376,370,171078,2,0,P|308:348|194:337,1,160,0|0,3:2|3:2,0:0:0:0:
62,308,172045,2,0,P|84:240|95:126,1,160,0|0,3:2|3:2,0:0:0:0:
233,71,173005,1,0,3:2:0:0:
186,6,173245,1,2,0:2:0:0:
186,6,173485,2,0,P|127:16|81:28,1,80,2|2,3:2|0:2,0:0:0:0:
29,41,173965,6,0,B|45:125|78:90|92:200,1,160,2|2,3:2|3:2,0:0:0:0:
112,345,174932,2,0,B|196:329|161:296|271:282,1,160,0|0,3:2|3:2,0:0:0:0:
419,261,175900,2,0,B|403:177|370:212|356:102,1,160,0|0,3:2|3:2,0:0:0:0:
481,13,176871,2,0,P|513:83|466:169,1,160,2|2,3:2|3:2,0:0:0:0:
407,182,177600,1,2,0:2:0:0:
407,182,177843,6,0,P|358:160|313:154,1,80,2|2,3:2|0:2,0:0:0:0:
252,157,178329,2,0,P|213:166|177:183,1,80,2|2,3:2|0:2,0:0:0:0:
108,223,178814,2,0,P|91:144|86:65,1,160,2|0,3:2|3:2,0:0:0:0:
230,0,179786,2,0,P|246:78|251:157,1,160,0|0,3:2|3:2,0:0:0:0:
164,292,180769,1,0,3:2:0:0:
232,343,181009,1,2,0:2:0:0:
232,343,181250,2,0,P|285:358|331:362,1,80,2|2,3:2|0:2,0:0:0:0:
367,305,181732,6,0,P|407:263|513:254,1,160,2|2,3:2|3:2,0:0:0:0:
508,91,182705,2,0,P|433:65|392:-2,1,160,0|0,3:2|3:2,0:0:0:0:
251,76,183679,2,0,P|266:152|229:222,1,160,0|0,3:2|3:2,0:0:0:0:
309,361,184652,2,0,P|366:343|407:342,1,80,2|2,3:2|0:2,0:0:0:0:
462,363,185139,1,2,3:2:0:0:
504,208,185626,6,0,P|485:130|472:51,1,160,2|2,3:2|3:2,0:0:0:0:
397,21,186360,1,2,0:2:0:0:
397,21,186605,2,0,P|384:99|365:177,1,160,2|0,3:2|3:2,0:0:0:0:
237,274,187585,2,0,P|182:298|78:275,2,160,2|0|0,3:2|3:2|3:2,0:0:0:0:
364,177,189038,2,0,P|348:129|345:91,1,80,2|2,3:2|0:2,0:0:0:0:
300,33,189531,6,0,P|252:8|198:7,1,80,2|2,3:2|0:2,0:0:0:0:
178,69,190025,2,0,P|99:87|8:128,1,160,10|2,0:2|3:2,0:0:0:0:
5,198,190768,1,2,0:2:0:0:
5,198,191015,1,10,0:2:0:0:
147,270,191495,2,0,P|185:261|220:241,1,80,2|2,3:2|0:2,0:0:0:0:
276,184,191999,2,0,P|314:192|349:212,1,80,10|2,0:2|0:2,0:0:0:0:
429,218,192471,2,0,P|415:295|395:385,1,160,2|8,3:2|0:2,0:0:0:0:
241,338,193438,6,0,B|163:326|163:326|88:370,1,160,0|8,3:2|0:2,0:0:0:0:
48,212,194401,2,0,B|60:134|60:134|16:59,1,160,0|8,3:2|0:2,0:0:0:0:
175,28,195365,2,0,B|253:40|253:40|328:-4,1,160,0|8,3:2|0:2,0:0:0:0:
366,146,196317,1,0,3:2:0:0:
206,158,196793,2,0,P|189:210|182:257,1,80,10|2,0:2|0:2,0:0:0:0:
224,304,197269,6,0,B|271:314|312:292|298:271|331:258|394:277,1,160,2|10,3:2|0:2,0:0:0:0:
450,311,198002,1,2,0:2:0:0:
450,311,198243,2,0,P|501:265|475:177,1,160,2|8,3:2|0:2,0:0:0:0:
388,50,199207,1,0,3:2:0:0:
346,118,199445,1,2,0:2:0:0:
346,118,199683,2,0,P|289:129|253:135,1,80,10|2,0:2|0:2,0:0:0:0:
206,80,200159,2,0,P|160:33|71:38,1,160,2|8,3:2|0:2,0:0:0:0:
8,191,201138,6,0,B|35:207|35:207|58:359,1,160,0|8,3:2|0:2,0:0:0:0:
209,371,202096,2,0,B|225:344|225:344|377:321,1,160,0|8,3:2|0:2,0:0:0:0:
388,179,203054,2,0,B|361:163|361:163|338:11,1,160,0|8,3:2|0:2,0:0:0:0:
185,1,204021,1,0,3:2:0:0:
68,110,204505,1,10,0:2:0:0:
94,264,204989,6,0,P|133:253|210:242,1,80,6|0,3:1|0:2,0:0:0:0:
225,186,205504,2,0,P|292:200|330:214,1,80,2|2,3:2|0:2,0:0:0:0:
318,282,205991,2,0,P|395:260|473:246,1,160,2|0,3:2|3:2,0:0:0:0:
506,89,206982,6,0,P|467:78|390:67,1,80,6|0,3:1|0:2,0:0:0:0:
375,11,207498,2,0,P|308:25|270:39,1,80,2|2,3:2|0:2,0:0:0:0:
282,107,207981,2,0,P|204:85|126:71,1,160,0|0,3:2|3:2,0:0:0:0:
19,197,208970,6,0,P|59:252|180:248,1,176.000005371094,6|12,3:1|0:1,0:0:0:0:
239,221,209704,1,2,0:1:0:0:
270,303,209949,2,0,P|335:327|409:331,1,132.00000402832,6|2,3:1|0:1,0:0:0:0:
432,304,210455,2,0,P|461:254|457:208,1,88.000002685547,12|2,0:1|0:1,0:0:0:0:
404,165,210923,2,0,P|374:103|403:-19,1,176.000005371094,6|12,3:1|0:1,0:0:0:0:
214,8,211907,1,6,3:1:0:0:
231,183,212410,1,12,0:1:0:0:
78,255,212868,6,0,P|27:194|42:79,1,176.000005371094,6|12,3:1|0:1,0:0:0:0:
80,29,213602,1,2,0:1:0:0:
161,62,213847,6,0,P|220:40|314:13,2,117.333336914063,6|2|10,3:1|3:1|0:1,0:0:0:0:
175,165,214796,2,0,P|190:242|195:363,1,176.000005371094,6|12,3:1|0:1,0:0:0:0:
358,320,215808,2,0,P|343:243|338:122,1,176.000005371094,6|14,3:1|3:1,0:0:0:0:
457,36,216790,6,0,P|498:87|511:201,1,176.000005371094,6|12,3:1|0:1,0:0:0:0:
455,260,217532,1,2,0:1:0:0:
383,215,217764,2,0,P|338:182|235:192,1,132.00000402832,6|2,3:1|0:1,0:0:0:0:
238,214,218245,2,0,P|184:245|145:245,1,88.000002685547,12|2,0:1|0:1,0:0:0:0:
112,172,218727,2,0,P|124:101|148:-8,1,176.000005371094,6|12,3:1|0:1,0:0:0:0:
293,96,219703,1,6,3:1:0:0:
449,14,220200,1,12,0:1:0:0:
502,181,220676,6,0,P|486:267|467:353,1,176.000005371094,6|12,3:1|0:1,0:0:0:0:
381,334,221416,1,2,0:1:0:0:
332,261,221663,6,0,P|342:191|357:136,2,117.333336914063,6|2|10,3:1|3:1|0:1,0:0:0:0:
229,241,222646,2,0,P|215:320|200:381,2,117.333336914063,6|2|2,3:1|0:1|0:1,0:0:0:0:
246,147,223611,2,0,B|196:131|157:168|172:169|141:222|65:201,1,176.000005371094,6|14,3:1|3:1,0:0:0:0:
26,69,224613,5,6,3:1:0:0:
256,192,224874,12,4,228790,3:1:0:0:
