osu file format v14

[General]
AudioFilename: audio.mp3
AudioLeadIn: 0
PreviewTime: -1
Countdown: 1
SampleSet: Normal
StackLeniency: 0.7
Mode: 0
LetterboxInBreaks: 0
WidescreenStoryboard: 0

[Editor]
DistanceSpacing: 1
BeatDivisor: 4
GridSize: 32
TimelineZoom: 1

[Metadata]
Title:Seven Nation Army (Glitch Mob Remix)
TitleUnicode:Seven Nation Army (Glitch Mob Remix)
Artist:The White Stripes
ArtistUnicode:The White Stripes
Creator:OnePunchOP
Version:Hard
Source:
Tags:
BeatmapID:1245522
BeatmapSetID:588290

[Difficulty]
HPDrainRate:3
CircleSize:5
OverallDifficulty:6
ApproachRate:8
SliderMultiplier:1.10000000596046
SliderTickRate:1

[Events]
//Background and Video events
0,0,"rendition1.img.jpg",0,0
Video,0,"Seven Nation Army (Glitch Mob Remix) - Lyric Video.mp4"
//Break Periods
2,48295,54069
//Storyboard Layer 0 (Background)
//Storyboard Layer 1 (Fail)
//Storyboard Layer 2 (Pass)
//Storyboard Layer 3 (Foreground)
//Storyboard Sound Samples

[TimingPoints]
0,476.190476190476,4,1,0,100,1,0

[Colours]
Combo1 : 255,192,0
Combo2 : 128,255,255
Combo3 : 128,0,64
Combo4 : 0,0,255

[HitObjects]
288,128,0,5,0,0:0:0:0:
256,192,833,1,0,0:0:0:0:
288,128,1071,1,0,0:0:0:0:
224,128,1428,6,0,B|128:96|128:96|128:96,1,82.5000004470348
96,128,2023,2,0,P|64:192|224:224,2,165.000000894069
256,96,4047,1,0,0:0:0:0:
352,128,4761,1,0,0:0:0:0:
224,128,4999,1,0,0:0:0:0:
160,96,5357,1,0,0:0:0:0:
224,64,5833,1,0,0:0:0:0:
352,64,6071,1,0,0:0:0:0:
96,32,7142,5,0,0:0:0:0:
224,96,8214,1,0,0:0:0:0:
288,192,8928,1,0,0:0:0:0:
256,64,9166,1,0,0:0:0:0:
160,96,9523,1,0,0:0:0:0:
320,128,9880,5,0,0:0:0:0:
128,224,10119,1,0,0:0:0:0:
256,96,11190,1,0,0:0:0:0:
320,160,12142,5,0,0:0:0:0:
256,160,12380,2,0,P|160:64|192:96,1,165.000000894069
384,160,13452,1,0,0:0:0:0:
160,96,13809,1,0,0:0:0:0:
384,64,14047,1,0,0:0:0:0:
224,128,14285,2,0,P|224:224|384:160,1,220.000001192092
256,192,16071,5,0,0:0:0:0:
352,96,16904,1,0,0:0:0:0:
256,128,17142,1,0,0:0:0:0:
192,32,17499,1,0,0:0:0:0:
192,64,17857,1,0,0:0:0:0:
160,128,18095,2,0,P|128:224|224:256,1,220.000001192092
192,128,20119,5,0,0:0:0:0:
256,96,20833,1,0,0:0:0:0:
320,32,21071,1,0,0:0:0:0:
416,96,21428,1,0,0:0:0:0:
64,160,21785,1,0,0:0:0:0:
192,160,22023,1,0,0:0:0:0:
160,64,23095,1,0,0:0:0:0:
192,128,24047,5,0,0:0:0:0:
256,160,24761,1,0,0:0:0:0:
352,192,25119,1,0,0:0:0:0:
224,96,25396,1,0,0:0:0:0:
256,64,25833,1,0,0:0:0:0:
256,96,26071,5,0,0:0:0:0:
192,96,26904,1,0,0:0:0:0:
160,128,27142,1,0,0:0:0:0:
256,96,27619,1,0,0:0:0:0:
192,64,28095,1,0,0:0:0:0:
384,128,28571,5,0,0:0:0:0:
192,96,29047,1,0,0:0:0:0:
256,256,29404,5,0,0:0:0:0:
352,160,29761,1,0,0:0:0:0:
384,160,29801,5,0,0:0:0:0:
416,160,29880,1,0,0:0:0:0:
448,160,29960,1,0,0:0:0:0:
480,160,30039,1,0,0:0:0:0:
160,160,31190,1,0,0:0:0:0:
128,32,32142,1,0,0:0:0:0:
160,160,32857,1,0,0:0:0:0:
192,32,33095,1,0,0:0:0:0:
288,224,33333,5,0,0:0:0:0:
256,128,33452,1,0,0:0:0:0:
352,32,33809,1,0,0:0:0:0:
160,160,34047,1,0,0:0:0:0:
224,64,34523,1,0,0:0:0:0:
320,96,35119,1,0,0:0:0:0:
96,96,35595,1,0,0:0:0:0:
256,128,36150,5,0,0:0:0:0:
288,160,36190,2,0,P|352:256|352:256,1,146.666667461395
352,256,36746,5,0,0:0:0:0:
320,192,37142,1,0,0:0:0:0:
384,160,37182,1,0,0:0:0:0:
416,224,37857,1,0,0:0:0:0:
224,0,39166,1,0,0:0:0:0:
160,64,39444,1,0,0:0:0:0:
288,160,39603,1,0,0:0:0:0:
384,160,39999,1,0,0:0:0:0:
384,256,40158,1,0,0:0:0:0:
288,64,40317,1,0,0:0:0:0:
256,32,40555,1,0,0:0:0:0:
256,128,41071,5,0,0:0:0:0:
160,96,41547,1,0,0:0:0:0:
320,64,41785,1,0,0:0:0:0:
256,64,42142,2,0,B|288:192|192:256|192:256,1,247.500001341103
160,288,43253,1,0,0:0:0:0:
288,96,44166,5,0,0:0:0:0:
224,96,44642,2,0,B|192:96|192:160|192:160,1,110.000000596046
256,192,45119,1,0,0:0:0:0:
320,160,45476,1,0,0:0:0:0:
288,128,45833,1,0,0:0:0:0:
160,96,46071,1,0,0:0:0:0:
256,192,47023,12,0,48095,0:0:0:0:
256,128,55119,6,0,P|288:160|288:160,1,27.5000001490115
320,160,55595,1,0,0:0:0:0:
256,128,56190,6,0,B|224:64|128:96|160:64,1,110.000000596046
288,128,56904,1,0,0:0:0:0:
384,192,57142,1,0,0:0:0:0:
416,192,57499,1,0,0:0:0:0:
128,128,57857,1,0,0:0:0:0:
416,64,58095,1,0,0:0:0:0:
288,192,59047,1,0,0:0:0:0:
224,128,59285,6,0,P|160:160|160:160,1,55.000000298023
288,96,59761,1,0,0:0:0:0:
320,192,60238,5,0,0:0:0:0:
128,128,60952,1,0,0:0:0:0:
160,224,61190,1,0,0:0:0:0:
352,192,61547,1,0,0:0:0:0:
416,192,61904,1,0,0:0:0:0:
256,160,62142,6,0,B|256:64|96:128|96:128,1,330.000001788138
160,192,64166,2,0,L|192:192,16,27.5000001490115
224,256,66190,2,0,P|288:320|416:288,1,220.000001192092
288,224,67619,1,0,0:0:0:0:
224,192,68095,2,0,L|320:128,1,110.000000596046
224,128,69047,1,0,0:0:0:0:
288,128,69523,5,0,0:0:0:0:
128,64,69880,1,0,0:0:0:0:
192,128,70119,2,0,L|224:128,4,27.5000001490115
256,160,70714,1,0,0:0:0:0:
224,192,70952,2,0,L|192:192,5,27.5000001490115
160,160,71547,1,0,0:0:0:0:
288,128,72142,1,0,0:0:0:0:
192,128,72857,5,0,0:0:0:0:
192,160,73214,1,0,0:0:0:0:
320,128,73452,1,0,0:0:0:0:
416,192,73809,1,0,0:0:0:0:
160,160,74047,2,0,L|192:96,1,55.000000298023
224,128,74404,2,0,P|224:192|224:160,1,82.5000004470345
192,96,74999,1,0,0:0:0:0:
320,192,75595,1,0,0:0:0:0:
256,192,75833,5,0,0:0:0:0:
320,256,76190,1,0,0:0:0:0:
192,160,76785,1,0,0:0:0:0:
288,128,77142,1,0,0:0:0:0:
192,64,77499,5,0,0:0:0:0:
320,64,77857,1,0,0:0:0:0:
224,160,78214,2,0,P|192:192|192:192,4,27.5000001490115
192,224,78809,1,0,0:0:0:0:
224,224,78928,2,0,L|256:192,7,27.5000001490115
224,160,79880,1,0,0:0:0:0:
288,160,80119,1,0,0:0:0:0:
128,192,80714,1,0,0:0:0:0:
320,256,80952,1,0,0:0:0:0:
224,224,81190,1,0,0:0:0:0:
192,288,81547,1,0,0:0:0:0:
160,352,81904,1,0,0:0:0:0:
224,192,82142,6,0,L|192:160,1,27.5000001490115
263,168,82380,2,0,L|189:92,1,82.5000004470345
222,77,82857,1,0,0:0:0:0:
