osu file format v14

[General]
AudioFilename: audio.mp3
AudioLeadIn: 0
PreviewTime: -1
Countdown: 1
SampleSet: Soft
StackLeniency: 0.7
Mode: 0
LetterboxInBreaks: 0
WidescreenStoryboard: 1

[Editor]
DistanceSpacing: 1
BeatDivisor: 12
GridSize: 32
TimelineZoom: 1

[Metadata]
Title:Seven Nation Army (Glitch Mob Remix)
TitleUnicode:Seven Nation Army (Glitch Mob Remix)
Artist:The White Stripes
ArtistUnicode:The White Stripes
Creator:OnePunchOP
Version:God Save The Queen
Source:
Tags:
BeatmapID:1258574
BeatmapSetID:588290

[Difficulty]
HPDrainRate:7
CircleSize:4
OverallDifficulty:6
ApproachRate:9.5
SliderMultiplier:1.10000000596046
SliderTickRate:1

[Events]
//Background and Video events
0,0,"rendition1.img.jpg",0,0
Video,0,"Seven Nation Army (Glitch Mob Remix) - Lyric Video.mp4"
//Break Periods
//Storyboard Layer 0 (Background)
//Storyboard Layer 1 (Fail)
//Storyboard Layer 2 (Pass)
//Storyboard Layer 3 (Foreground)
//Storyboard Sound Samples

[TimingPoints]
0,476.190476190476,4,2,0,100,1,0

[Colours]
Combo1 : 255,192,0
Combo2 : 128,255,255
Combo3 : 128,0,64
Combo4 : 0,0,255

[HitObjects]
224,128,198,6,0,L|384:64,1,165.000000894069
416,192,1190,1,0,0:0:0:0:
420,202,1230,1,0,0:0:0:0:
424,213,1269,1,0,0:0:0:0:
416,320,1547,1,0,0:0:0:0:
398,315,1587,1,0,0:0:0:0:
256,256,1944,1,0,0:0:0:0:
416,160,2261,2,0,P|448:160|416:32,1,238.333334624766
480,32,4166,1,0,0:0:0:0:
471,40,4206,1,0,0:0:0:0:
448,64,4246,2,0,L|384:128,1,82.5000004470345
352,160,4880,5,0,0:0:0:0:
288,224,5198,1,0,0:0:0:0:
224,128,5515,1,0,0:0:0:0:
235,128,5555,1,0,0:0:0:0:
244,128,5595,1,0,0:0:0:0:
352,128,5873,1,0,0:0:0:0:
416,128,6071,2,0,L|320:256,1,155.833334177732
256,320,6904,1,0,0:0:0:0:
247,323,6944,1,0,0:0:0:0:
241,328,6984,1,0,0:0:0:0:
160,320,7142,2,0,L|160:160,1,155.833334177732
224,64,8095,5,0,0:0:0:0:
233,73,8134,1,0,0:0:0:0:
241,81,8174,2,0,L|320:160,1,110.000000596046
384,224,8888,1,0,0:0:0:0:
448,160,9087,1,0,0:0:0:0:
320,160,9523,1,0,0:0:0:0:
306,160,9563,1,0,0:0:0:0:
288,160,9603,2,0,L|231:160,1,55.000000298023
211,159,9880,2,0,P|119:158|156:270,1,247.500001341104
170,277,10992,6,0,P|213:299|226:171,1,247.500001341104
186,217,12103,1,0,0:0:0:0:
224,160,12857,1,0,0:0:0:0:
352,160,13134,1,0,0:0:0:0:
365,161,13174,1,0,0:0:0:0:
379,163,13214,1,0,0:0:0:0:
416,256,13492,5,0,0:0:0:0:
352,288,13809,1,0,0:0:0:0:
224,224,14166,1,0,0:0:0:0:
232,230,14246,1,0,0:0:0:0:
238,235,14325,1,0,0:0:0:0:
244,240,14404,1,0,0:0:0:0:
248,246,14484,1,0,0:0:0:0:
253,250,14563,1,0,0:0:0:0:
256,252,14642,1,0,0:0:0:0:
260,258,14722,1,0,0:0:0:0:
261,265,14801,1,0,0:0:0:0:
242,212,15079,2,0,L|270:202,6,27.5000001490115
256,96,16190,1,0,0:0:0:0:
352,96,16666,1,0,0:0:0:0:
365,97,16706,1,0,0:0:0:0:
378,100,16746,1,0,0:0:0:0:
416,192,17103,1,0,0:0:0:0:
352,256,17499,5,0,0:0:0:0:
329,254,17539,1,0,0:0:0:0:
308,250,17579,1,0,0:0:0:0:
256,160,17857,1,0,0:0:0:0:
224,64,18055,1,0,0:0:0:0:
384,64,18333,1,0,0:0:0:0:
384,192,18611,1,0,0:0:0:0:
224,192,18849,1,0,0:0:0:0:
384,192,19166,2,0,L|320:192,3,64.1666670143602
300,157,20198,1,0,0:0:0:0:
292,145,20238,1,0,0:0:0:0:
285,135,20277,1,0,0:0:0:0:
416,160,20476,2,0,L|352:96,1,82.5000004470345
384,96,20952,1,0,0:0:0:0:
448,96,21150,1,0,0:0:0:0:
447,110,21190,1,0,0:0:0:0:
444,124,21230,1,0,0:0:0:0:
416,224,21507,5,0,0:0:0:0:
352,192,21825,1,0,0:0:0:0:
288,160,22063,2,0,L|160:96,1,137.500000745057
128,64,22857,1,0,0:0:0:0:
135,51,22896,1,0,0:0:0:0:
143,38,22936,1,0,0:0:0:0:
192,64,23134,2,0,L|301:149,1,137.500000745057
160,64,24166,1,0,0:0:0:0:
165,72,24206,1,0,0:0:0:0:
168,79,24246,1,0,0:0:0:0:
173,88,24285,1,0,0:0:0:0:
178,95,24325,1,0,0:0:0:0:
183,106,24365,1,0,0:0:0:0:
320,192,24880,1,0,0:0:0:0:
384,128,25158,1,0,0:0:0:0:
256,128,25476,1,0,0:0:0:0:
320,32,25873,5,0,0:0:0:0:
321,45,25912,1,0,0:0:0:0:
321,57,25952,1,0,0:0:0:0:
320,192,26190,1,0,0:0:0:0:
64,192,26309,1,0,0:0:0:0:
192,288,26428,1,0,0:0:0:0:
320,192,26547,1,0,0:0:0:0:
64,192,26666,1,0,0:0:0:0:
192,288,26785,1,0,0:0:0:0:
320,192,27142,1,0,0:0:0:0:
480,192,27261,1,0,0:0:0:0:
384,288,27380,1,0,0:0:0:0:
320,192,27499,1,0,0:0:0:0:
480,192,27619,1,0,0:0:0:0:
384,288,27738,1,0,0:0:0:0:
192,128,28134,5,0,0:0:0:0:
177,127,28174,1,0,0:0:0:0:
163,129,28214,1,0,0:0:0:0:
146,130,28253,2,0,L|65:83,1,91.6666671633717
128,96,28888,1,0,0:0:0:0:
288,96,29166,1,0,0:0:0:0:
288,108,29206,5,0,0:0:0:0:
288,123,29246,1,0,0:0:0:0:
288,192,29523,1,0,0:0:0:0:
384,192,29880,1,0,0:0:0:0:
224,192,30158,1,0,0:0:0:0:
64,192,30277,1,0,0:0:0:0:
141,286,30396,1,0,0:0:0:0:
224,192,30515,1,0,0:0:0:0:
64,192,30634,1,0,0:0:0:0:
141,286,30753,1,0,0:0:0:0:
256,192,31071,2,0,L|224:192,7,27.5000001490115
256,128,32103,1,0,0:0:0:0:
352,128,32380,1,0,0:0:0:0:
448,128,32619,6,0,L|448:256,1,128.33333402872
416,224,33134,1,0,0:0:0:0:
288,224,33571,5,0,0:0:0:0:
267,224,33611,1,0,0:0:0:0:
248,225,33650,1,0,0:0:0:0:
192,224,33928,1,0,0:0:0:0:
192,160,34166,1,0,0:0:0:0:
192,144,34246,1,0,0:0:0:0:
191,130,34325,1,0,0:0:0:0:
191,116,34404,1,0,0:0:0:0:
190,104,34484,1,0,0:0:0:0:
128,128,34761,1,0,0:0:0:0:
192,96,34920,1,0,0:0:0:0:
256,96,35119,2,0,L|320:96,1,64.1666670143602
384,96,35555,1,0,0:0:0:0:
416,96,35674,2,0,L|448:96,1,27.5000001490115
224,160,36111,5,0,0:0:0:0:
288,160,36269,1,0,0:0:0:0:
300,158,36309,1,0,0:0:0:0:
314,158,36349,1,0,0:0:0:0:
384,160,36666,2,0,L|320:160,1,64.1666670143602
320,256,37142,1,0,0:0:0:0:
224,256,37380,1,0,0:0:0:0:
206,256,37460,1,0,0:0:0:0:
191,257,37539,1,0,0:0:0:0:
96,256,37817,5,0,0:0:0:0:
78,250,37896,1,0,0:0:0:0:
67,240,37976,1,0,0:0:0:0:
60,228,38055,1,0,0:0:0:0:
56,213,38134,1,0,0:0:0:0:
59,198,38214,1,0,0:0:0:0:
160,96,39325,1,0,0:0:0:0:
224,128,39563,2,0,B|224:149|224:160|224:192,1,64.1666670143602
256,192,40039,2,0,L|320:192,1,64.1666670143602
384,192,40515,5,0,0:0:0:0:
396,192,40555,1,0,0:0:0:0:
411,192,40595,1,0,0:0:0:0:
512,224,41190,1,0,0:0:0:0:
512,320,41547,1,0,0:0:0:0:
500,330,41587,1,0,0:0:0:0:
488,340,41626,1,0,0:0:0:0:
416,384,41904,1,0,0:0:0:0:
352,256,42142,1,0,0:0:0:0:
350,242,42222,1,0,0:0:0:0:
347,228,42301,1,0,0:0:0:0:
343,215,42380,1,0,0:0:0:0:
338,203,42460,1,0,0:0:0:0:
334,195,42539,1,0,0:0:0:0:
320,64,43095,6,0,L|285:119,1,64.1666670143602
248,164,43571,2,0,L|285:109,1,64.1666670143602
320,32,44047,2,0,B|275:96|276:94,1,73.3333337306973
128,128,44563,1,0,0:0:0:0:
224,192,44761,1,0,0:0:0:0:
222,180,44801,1,0,0:0:0:0:
222,169,44841,1,0,0:0:0:0:
288,160,45158,2,0,L|320:160,1,27.5000001490115
352,160,45436,1,0,0:0:0:0:
361,163,45476,1,0,0:0:0:0:
373,169,45515,1,0,0:0:0:0:
352,224,45912,1,0,0:0:0:0:
320,96,47142,5,0,0:0:0:0:
320,140,47261,1,0,0:0:0:0:
320,176,47380,1,0,0:0:0:0:
321,222,47499,1,0,0:0:0:0:
320,256,47619,1,0,0:0:0:0:
288,288,47857,1,0,0:0:0:0:
224,256,48134,6,0,L|160:224,1,64.1666670143602
192,192,48571,1,0,0:0:0:0:
204,176,48650,1,0,0:0:0:0:
217,167,48730,1,0,0:0:0:0:
230,157,48809,1,0,0:0:0:0:
248,147,48888,1,0,0:0:0:0:
256,192,49047,2,0,L|256:256,1,64.1666670143602
256,64,49523,2,0,L|345:63,1,82.5000004470345
352,96,50079,2,0,L|352:160,1,64.1666670143602
288,192,50515,5,0,0:0:0:0:
224,192,50714,1,0,0:0:0:0:
160,192,50873,1,0,0:0:0:0:
96,192,51071,1,0,0:0:0:0:
256,96,51269,1,0,0:0:0:0:
224,96,51507,2,0,L|160:96,1,64.1666670143602
160,128,51904,1,0,0:0:0:0:
166,145,51984,1,0,0:0:0:0:
175,166,52063,1,0,0:0:0:0:
190,185,52142,1,0,0:0:0:0:
208,189,52222,1,0,0:0:0:0:
223,182,52301,1,0,0:0:0:0:
238,172,52380,1,0,0:0:0:0:
320,128,52857,1,0,0:0:0:0:
192,128,53174,5,0,0:0:0:0:
180,128,53214,1,0,0:0:0:0:
168,129,53253,1,0,0:0:0:0:
96,192,53452,1,0,0:0:0:0:
160,256,53769,1,0,0:0:0:0:
224,224,54007,2,0,L|288:192,1,64.1666670143602
308,203,54404,1,0,0:0:0:0:
321,213,54484,1,0,0:0:0:0:
335,228,54563,1,0,0:0:0:0:
344,241,54642,1,0,0:0:0:0:
256,96,55119,5,0,0:0:0:0:
256,104,55158,1,0,0:0:0:0:
257,110,55198,1,0,0:0:0:0:
320,128,55674,1,0,0:0:0:0:
319,117,55714,1,0,0:0:0:0:
319,104,55753,1,0,0:0:0:0:
96,64,56190,1,0,0:0:0:0:
96,128,56309,1,0,0:0:0:0:
160,128,56428,2,0,L|169:95,1,27.5000001490115
224,96,57103,2,0,L|224:128,1,27.5000001490115
256,128,57460,2,0,L|256:96,1,27.5000001490115
320,96,57857,5,0,0:0:0:0:
384,96,57976,1,0,0:0:0:0:
384,160,58214,1,0,0:0:0:0:
320,160,58412,1,0,0:0:0:0:
256,192,58650,1,0,0:0:0:0:
192,160,59047,6,0,L|192:96,1,64.1666670143602
256,96,59484,1,0,0:0:0:0:
320,96,59642,2,0,L|320:160,2,64.1666670143602
256,96,60912,1,0,0:0:0:0:
264,97,60952,1,0,0:0:0:0:
276,97,60992,1,0,0:0:0:0:
352,96,61150,1,0,0:0:0:0:
320,192,61507,1,0,0:0:0:0:
224,192,61865,2,0,L|192:128,1,64.1666670143602
256,128,62341,1,0,0:0:0:0:
266,129,62380,1,0,0:0:0:0:
274,128,62420,1,0,0:0:0:0:
320,128,62777,2,0,L|288:192,1,64.1666670143602
192,192,63412,6,0,L|175:164,1,27.5000001490115
160,128,63690,6,0,L|224:128,1,64.1666670143602
256,128,64087,2,0,L|256:64,1,64.1666670143602
320,64,64603,2,0,L|320:128,1,64.1666670143602
352,128,65039,2,0,L|416:128,1,64.1666670143602
448,128,65436,2,0,L|448:64,1,64.1666670143602
416,64,65793,2,0,L|352:64,1,64.1666670143602
256,64,66388,5,0,0:0:0:0:
192,128,66666,1,0,0:0:0:0:
320,128,66944,1,0,0:0:0:0:
256,192,67182,1,0,0:0:0:0:
320,256,67380,1,0,0:0:0:0:
197,258,67619,1,0,0:0:0:0:
256,320,67738,1,0,0:0:0:0:
320,192,68134,1,0,0:0:0:0:
335,191,68174,1,0,0:0:0:0:
353,189,68214,1,0,0:0:0:0:
416,192,68452,2,0,L|416:256,1,64.1666670143602
192,96,68849,5,0,0:0:0:0:
256,96,68968,1,0,0:0:0:0:
268,96,69047,1,0,0:0:0:0:
285,94,69126,1,0,0:0:0:0:
299,94,69206,1,0,0:0:0:0:
313,93,69285,1,0,0:0:0:0:
324,94,69365,1,0,0:0:0:0:
384,128,69444,2,0,L|384:192,1,64.1666670143602
384,256,69880,1,0,0:0:0:0:
288,256,70079,1,0,0:0:0:0:
262,258,70158,1,0,0:0:0:0:
238,259,70277,1,0,0:0:0:0:
216,259,70396,1,0,0:0:0:0:
186,256,70515,1,0,0:0:0:0:
165,248,70634,1,0,0:0:0:0:
149,233,70753,1,0,0:0:0:0:
128,192,70873,2,0,L|160:160,1,45.8333335816858
192,128,71190,1,0,0:0:0:0:
224,160,71349,5,0,0:0:0:0:
235,174,71468,1,0,0:0:0:0:
244,189,71587,1,0,0:0:0:0:
250,207,71706,1,0,0:0:0:0:
255,222,71825,1,0,0:0:0:0:
256,239,71944,1,0,0:0:0:0:
320,256,72142,2,0,L|384:256,1,64.1666670143602
416,128,72857,5,0,0:0:0:0:
402,128,72896,1,0,0:0:0:0:
388,128,72936,1,0,0:0:0:0:
320,128,73095,1,0,0:0:0:0:
256,128,73452,2,0,L|256:192,1,64.1666670143602
192,192,73928,1,0,0:0:0:0:
128,192,74166,1,0,0:0:0:0:
116,180,74246,1,0,0:0:0:0:
106,165,74325,1,0,0:0:0:0:
98,150,74404,1,0,0:0:0:0:
92,136,74484,1,0,0:0:0:0:
88,121,74563,1,0,0:0:0:0:
89,104,74642,1,0,0:0:0:0:
94,90,74722,1,0,0:0:0:0:
107,75,74801,1,0,0:0:0:0:
161,63,74960,5,0,0:0:0:0:
171,63,74999,1,0,0:0:0:0:
182,62,75039,1,0,0:0:0:0:
256,64,75198,5,0,0:0:0:0:
267,69,75277,1,0,0:0:0:0:
278,75,75357,1,0,0:0:0:0:
289,85,75436,1,0,0:0:0:0:
299,94,75515,1,0,0:0:0:0:
306,112,75595,1,0,0:0:0:0:
306,123,75674,1,0,0:0:0:0:
306,140,75753,1,0,0:0:0:0:
304,156,75833,1,0,0:0:0:0:
288,192,75992,6,0,L|192:192,1,91.6666671633717
128,192,76587,1,0,0:0:0:0:
115,193,76626,1,0,0:0:0:0:
101,194,76666,1,0,0:0:0:0:
128,128,76825,2,0,L|224:128,1,91.6666671633717
288,128,77420,1,0,0:0:0:0:
352,160,77658,2,0,L|384:224,1,64.1666670143602
384,288,78134,1,0,0:0:0:0:
372,298,78214,1,0,0:0:0:0:
358,307,78293,1,0,0:0:0:0:
339,313,78373,1,0,0:0:0:0:
325,316,78452,1,0,0:0:0:0:
308,319,78531,1,0,0:0:0:0:
292,319,78611,1,0,0:0:0:0:
274,318,78690,1,0,0:0:0:0:
259,316,78769,1,0,0:0:0:0:
224,288,79087,5,0,0:0:0:0:
224,256,79166,1,0,0:0:0:0:
269,259,79365,1,0,0:0:0:0:
284,255,79444,1,0,0:0:0:0:
300,252,79523,1,0,0:0:0:0:
315,250,79603,1,0,0:0:0:0:
331,249,79682,1,0,0:0:0:0:
349,254,79761,1,0,0:0:0:0:
365,261,79841,1,0,0:0:0:0:
256,96,79999,5,0,0:0:0:0:
239,99,80079,1,0,0:0:0:0:
223,100,80158,1,0,0:0:0:0:
209,104,80238,1,0,0:0:0:0:
197,112,80317,1,0,0:0:0:0:
190,124,80396,1,0,0:0:0:0:
182,139,80476,1,0,0:0:0:0:
178,151,80555,1,0,0:0:0:0:
172,166,80634,1,0,0:0:0:0:
160,256,80873,1,0,0:0:0:0:
256,256,81111,1,0,0:0:0:0:
270,256,81190,1,0,0:0:0:0:
291,256,81269,1,0,0:0:0:0:
312,255,81349,1,0,0:0:0:0:
352,128,81865,5,0,0:0:0:0:
285,95,82142,1,0,0:0:0:0:
256,96,82222,5,0,0:0:0:0:
220,96,82301,1,0,0:0:0:0:
187,97,82380,1,0,0:0:0:0:
164,98,82460,1,0,0:0:0:0:
135,118,82619,1,0,0:0:0:0:
117,148,82738,1,0,0:0:0:0:
110,190,82896,1,0,0:0:0:0:
128,256,83174,1,0,0:0:0:0:
224,96,84206,1,0,0:0:0:0:
320,96,84325,1,0,0:0:0:0:
224,160,84444,1,0,0:0:0:0:
320,160,84563,1,0,0:0:0:0:
224,224,84682,1,0,0:0:0:0:
320,224,84801,1,0,0:0:0:0:
224,288,84920,1,0,0:0:0:0:
320,288,85039,1,0,0:0:0:0:
224,96,85238,5,0,0:0:0:0:
320,96,85357,1,0,0:0:0:0:
224,160,85476,1,0,0:0:0:0:
320,160,85595,1,0,0:0:0:0:
224,224,85714,1,0,0:0:0:0:
320,224,85833,1,0,0:0:0:0:
256,192,86190,2,0,L|288:192,12,27.5000001490115
384,96,88134,5,0,0:0:0:0:
384,119,88214,1,0,0:0:0:0:
384,137,88293,1,0,0:0:0:0:
384,160,88373,1,0,0:0:0:0:
386,180,88452,1,0,0:0:0:0:
386,198,88531,1,0,0:0:0:0:
386,211,88611,1,0,0:0:0:0:
388,233,88690,1,0,0:0:0:0:
388,250,88769,1,0,0:0:0:0:
288,64,89047,1,0,0:0:0:0:
261,65,89087,1,0,0:0:0:0:
242,66,89126,1,0,0:0:0:0:
160,64,89523,1,0,0:0:0:0:
64,128,89801,1,0,0:0:0:0:
128,192,90119,5,0,0:0:0:0:
145,194,90238,1,0,0:0:0:0:
166,195,90357,1,0,0:0:0:0:
189,195,90476,1,0,0:0:0:0:
211,194,90595,1,0,0:0:0:0:
256,192,90714,2,0,L|256:256,1,64.1666670143602
224,288,91190,1,0,0:0:0:0:
209,290,91309,1,0,0:0:0:0:
190,288,91428,1,0,0:0:0:0:
172,287,91547,1,0,0:0:0:0:
154,287,91666,1,0,0:0:0:0:
96,256,92142,6,0,P|96:128|96:128,1,128.33333402872
82,73,92857,1,0,0:0:0:0:
128,64,93055,2,0,L|192:64,1,64.1666670143602
256,64,93492,2,0,L|256:128,1,64.1666670143602
256,192,93928,2,0,L|192:192,1,64.1666670143602
139,174,94285,1,0,0:0:0:0:
128,160,94365,1,0,0:0:0:0:
119,138,94444,1,0,0:0:0:0:
108,114,94523,1,0,0:0:0:0:
100,95,94603,1,0,0:0:0:0:
117,74,94682,1,0,0:0:0:0:
134,58,94761,1,0,0:0:0:0:
152,43,94841,1,0,0:0:0:0:
212,40,95198,1,0,0:0:0:0:
224,51,95277,1,0,0:0:0:0:
234,66,95357,1,0,0:0:0:0:
243,78,95436,1,0,0:0:0:0:
254,97,95515,1,0,0:0:0:0:
263,112,95595,1,0,0:0:0:0:
251,131,95674,1,0,0:0:0:0:
234,148,95753,1,0,0:0:0:0:
223,164,95833,1,0,0:0:0:0:
209,179,95952,1,0,0:0:0:0:
128,192,96190,5,0,0:0:0:0:
127,175,96230,1,0,0:0:0:0:
126,160,96269,1,0,0:0:0:0:
224,96,96666,2,0,P|160:96|160:96,1,91.6666671633717
64,96,97063,1,0,0:0:0:0:
160,96,97341,1,0,0:0:0:0:
96,192,97619,1,0,0:0:0:0:
119,194,97698,1,0,0:0:0:0:
139,195,97777,1,0,0:0:0:0:
160,196,97857,1,0,0:0:0:0:
172,197,97936,1,0,0:0:0:0:
256,192,98174,1,0,0:0:0:0:
352,192,98412,1,0,0:0:0:0:
256,256,98650,1,0,0:0:0:0:
352,256,98928,1,0,0:0:0:0:
256,320,99206,1,0,0:0:0:0:
320,128,100119,1,0,0:0:0:0:
323,137,100158,1,0,0:0:0:0:
328,146,100198,1,0,0:0:0:0:
352,192,100714,6,0,L|256:192,1,91.6666671633717
224,160,101230,1,0,0:0:0:0:
224,128,101309,1,0,0:0:0:0:
224,96,101388,1,0,0:0:0:0:
224,64,101706,2,0,B|320:64|320:64|256:128,1,183.333334326743
224,96,102619,2,0,L|192:128,1,73.3333337306973
128,160,103095,2,0,L|192:224,1,82.5000004470345
224,256,103650,2,0,L|288:192,1,82.5000004470345
320,160,104206,2,0,L|288:128,1,45.8333335816858
320,64,104603,1,0,0:0:0:0:
384,32,104761,1,0,0:0:0:0:
384,160,105158,6,0,L|288:192,1,100.833333879709
256,160,105873,1,0,0:0:0:0:
255,149,105912,1,0,0:0:0:0:
256,137,105952,1,0,0:0:0:0:
256,64,106150,2,0,L|384:64,1,128.33333402872
96,64,107142,2,0,L|96:128,1,64.1666670143602
96,160,107539,2,0,L|192:160,1,91.6666671633717
224,160,108095,2,0,L|256:160,1,27.5000001490115
352,160,108531,1,0,0:0:0:0:
364,161,108571,1,0,0:0:0:0:
378,163,108611,1,0,0:0:0:0:
416,160,108809,2,0,L|416:96,1,64.1666670143602
416,32,109325,1,0,0:0:0:0:
352,32,109484,6,0,L|256:32,1,91.6666671633717
192,32,109999,1,0,0:0:0:0:
192,47,110039,1,0,0:0:0:0:
193,64,110079,1,0,0:0:0:0:
192,64,111349,2,0,L|224:128,1,64.1666670143602
256,160,111666,2,0,L|320:64,1,110.000000596046
352,64,112301,1,0,0:0:0:0:
416,64,112579,1,0,0:0:0:0:
480,64,112738,2,0,L|480:128,1,64.1666670143602
480,224,113492,1,0,0:0:0:0:
384,224,113809,1,0,0:0:0:0:
128,224,114166,1,0,0:0:0:0:
128,224,114484,1,0,0:0:0:0:
224,224,114801,1,0,0:0:0:0:
128,224,115119,2,0,L|128:160,1,64.1666670143602
128,128,115436,2,0,L|192:128,1,64.1666670143602
384,64,116111,2,0,L|384:160,1,91.6666671633717
384,192,116547,2,0,L|320:192,1,64.1666670143602
160,64,117142,5,0,0:0:0:0:
168,64,117182,1,0,0:0:0:0:
176,64,117222,1,0,0:0:0:0:
256,64,117460,1,0,0:0:0:0:
352,64,117777,1,0,0:0:0:0:
353,74,117817,1,0,0:0:0:0:
355,87,117857,1,0,0:0:0:0:
256,192,118571,1,0,0:0:0:0:
192,192,119047,2,0,L|128:96,1,110.000000596046
288,192,119801,1,0,0:0:0:0:
384,128,120039,1,0,0:0:0:0:
386,114,120079,1,0,0:0:0:0:
388,102,120119,1,0,0:0:0:0:
352,64,120476,6,0,L|192:64,1,155.833334177732
128,64,121388,1,0,0:0:0:0:
132,75,121428,1,0,0:0:0:0:
137,88,121468,1,0,0:0:0:0:
160,192,121785,2,0,L|256:192,1,91.6666671633717
352,192,122301,1,0,0:0:0:0:
416,192,122499,2,0,L|480:192,1,64.1666670143602
480,256,122976,1,0,0:0:0:0:
416,256,123095,2,0,L|352:256,1,64.1666670143602
320,256,123492,1,0,0:0:0:0:
256,224,123730,1,0,0:0:0:0:
250,214,123769,1,0,0:0:0:0:
241,205,123809,1,0,0:0:0:0:
160,96,124087,5,0,0:0:0:0:
224,192,124761,2,0,L|288:128,1,82.5000004470345
288,96,125198,1,0,0:0:0:0:
256,96,125317,2,0,L|160:96,1,91.6666671633717
128,128,125793,2,0,L|192:192,1,82.5000004470345
352,64,127142,1,0,0:0:0:0:
337,65,127182,1,0,0:0:0:0:
321,66,127222,1,0,0:0:0:0:
96,64,127619,1,0,0:0:0:0:
95,78,127658,1,0,0:0:0:0:
96,92,127698,1,0,0:0:0:0:
96,128,128134,1,0,0:0:0:0:
96,192,128373,1,0,0:0:0:0:
96,256,128531,2,0,L|160:256,1,64.1666670143602
192,256,128928,2,0,L|192:160,1,91.6666671633717
192,96,129444,5,0,0:0:0:0:
178,96,129484,1,0,0:0:0:0:
163,98,129523,1,0,0:0:0:0:
64,96,129920,1,0,0:0:0:0:
63,109,129960,1,0,0:0:0:0:
64,128,129999,1,0,0:0:0:0:
63,143,130039,1,0,0:0:0:0:
65,159,130079,1,0,0:0:0:0:
96,256,130357,1,0,0:0:0:0:
160,256,130753,1,0,0:0:0:0:
165,256,130793,1,0,0:0:0:0:
173,256,130833,1,0,0:0:0:0:
192,256,130952,2,0,L|192:160,1,91.6666671633717
192,96,131468,1,0,0:0:0:0:
256,96,131666,2,0,L|352:96,1,91.6666671633717
384,96,132142,2,0,L|384:192,1,91.6666671633717
320,192,132698,5,0,0:0:0:0:
224,192,132896,1,0,0:0:0:0:
128,192,133214,1,0,0:0:0:0:
110,192,133253,1,0,0:0:0:0:
97,193,133293,1,0,0:0:0:0:
32,192,133531,1,0,0:0:0:0:
64,160,133809,2,0,L|64:96,1,64.1666670143602
128,64,135079,1,0,0:0:0:0:
256,64,136190,2,0,L|288:64,7,27.5000001490115
352,96,137301,1,0,0:0:0:0:
288,128,137619,2,0,L|256:128,5,27.5000001490115
192,128,138531,2,0,L|96:128,1,91.6666671633717
64,256,139166,5,0,0:0:0:0:
160,256,139365,1,0,0:0:0:0:
256,256,139523,6,0,L|256:160,1,91.6666671633717
256,96,140158,5,0,0:0:0:0:
267,88,140238,1,0,0:0:0:0:
278,82,140317,1,0,0:0:0:0:
288,74,140396,1,0,0:0:0:0:
294,65,140476,1,0,0:0:0:0:
299,54,140555,1,0,0:0:0:0:
302,44,140634,1,0,0:0:0:0:
256,0,140674,2,0,P|224:0|224:64,1,110.000000596046
160,128,141428,2,0,L|256:128,1,91.6666671633717
320,128,142023,5,0,0:0:0:0:
333,132,142103,1,0,0:0:0:0:
344,141,142182,1,0,0:0:0:0:
355,155,142261,1,0,0:0:0:0:
362,167,142341,1,0,0:0:0:0:
366,180,142420,1,0,0:0:0:0:
366,193,142499,1,0,0:0:0:0:
365,205,142579,1,0,0:0:0:0:
360,218,142658,1,0,0:0:0:0:
355,226,142738,1,0,0:0:0:0:
345,235,142817,1,0,0:0:0:0:
256,192,142857,2,0,L|192:192,1,64.1666670143602
192,160,143333,5,0,0:0:0:0:
192,142,143412,1,0,0:0:0:0:
191,124,143492,1,0,0:0:0:0:
190,107,143571,1,0,0:0:0:0:
191,92,143650,1,0,0:0:0:0:
190,80,143730,1,0,0:0:0:0:
195,68,143809,1,0,0:0:0:0:
204,57,143888,1,0,0:0:0:0:
320,64,144047,1,0,0:0:0:0:
320,64,144087,1,0,0:0:0:0:
320,64,144126,1,0,0:0:0:0:
320,64,144166,1,0,0:0:0:0:
320,64,144206,1,0,0:0:0:0:
64,64,144761,5,0,0:0:0:0:
103,90,144960,2,0,L|136:103,1,27.5000001490115
192,128,145476,1,0,0:0:0:0:
256,128,145753,2,0,L|352:128,1,91.6666671633717
384,128,146309,2,0,L|384:192,1,64.1666670143602
320,192,146746,1,0,0:0:0:0:
192,192,147063,1,0,0:0:0:0:
176,192,147142,1,0,0:0:0:0:
161,193,147222,1,0,0:0:0:0:
146,193,147301,1,0,0:0:0:0:
133,193,147380,1,0,0:0:0:0:
121,192,147460,1,0,0:0:0:0:
109,193,147539,1,0,0:0:0:0:
97,193,147619,1,0,0:0:0:0:
275,126,148174,5,0,0:0:0:0:
256,128,148253,5,0,0:0:0:0:
237,127,148333,1,0,0:0:0:0:
218,129,148412,1,0,0:0:0:0:
200,131,148492,1,0,0:0:0:0:
185,132,148571,1,0,0:0:0:0:
175,135,148650,1,0,0:0:0:0:
162,140,148730,1,0,0:0:0:0:
149,148,148809,1,0,0:0:0:0:
128,192,148968,2,0,L|160:256,1,64.1666670143602
224,256,149484,2,0,L|256:224,1,45.8333335816858
256,192,149841,2,0,B|224:160|224:160|128:224,1,155.833334177732
96,224,150634,1,0,0:0:0:0:
81,213,150674,1,0,0:0:0:0:
79,201,150714,1,0,0:0:0:0:
84,185,150753,1,0,0:0:0:0:
93,173,150793,1,0,0:0:0:0:
96,128,150912,6,0,L|96:96,1,27.5000001490115
160,128,151269,1,0,0:0:0:0:
190,129,151349,1,0,0:0:0:0:
220,129,151428,1,0,0:0:0:0:
252,129,151507,1,0,0:0:0:0:
281,131,151587,1,0,0:0:0:0:
309,131,151666,1,0,0:0:0:0:
336,129,151746,1,0,0:0:0:0:
346,101,151825,1,0,0:0:0:0:
345,79,151904,1,0,0:0:0:0:
332,63,151984,1,0,0:0:0:0:
268,129,152182,1,0,0:0:0:0:
278,128,152261,1,0,0:0:0:0:
293,129,152341,1,0,0:0:0:0:
310,130,152420,1,0,0:0:0:0:
326,130,152499,1,0,0:0:0:0:
341,130,152579,1,0,0:0:0:0:
352,127,152658,1,0,0:0:0:0:
363,119,152738,1,0,0:0:0:0:
372,110,152817,1,0,0:0:0:0:
379,101,152896,1,0,0:0:0:0:
384,93,152976,1,0,0:0:0:0:
386,81,153055,1,0,0:0:0:0:
352,32,153214,6,0,L|288:32,1,64.1666670143602
224,32,153611,2,0,L|224:96,1,64.1666670143602
224,128,153968,2,0,L|288:128,1,64.1666670143602
288,64,154444,1,0,0:0:0:0:
299,62,154484,1,0,0:0:0:0:
312,62,154523,1,0,0:0:0:0:
320,128,154603,2,0,L|320:192,1,64.1666670143602
320,224,154999,2,0,L|256:224,1,64.1666670143602
256,192,156031,5,0,0:0:0:0:
288,192,156111,1,0,0:0:0:0:
288,160,156190,1,0,0:0:0:0:
256,160,156269,1,0,0:0:0:0:
224,160,156349,1,0,0:0:0:0:
224,192,156428,1,0,0:0:0:0:
256,192,156507,1,0,0:0:0:0:
288,192,156587,1,0,0:0:0:0:
288,160,156666,1,0,0:0:0:0:
288,160,156944,2,0,L|320:160,1,27.5000001490115
352,96,157222,1,0,0:0:0:0:
326,97,157341,1,0,0:0:0:0:
303,98,157460,1,0,0:0:0:0:
282,98,157579,1,0,0:0:0:0:
261,100,157698,1,0,0:0:0:0:
244,100,157857,1,0,0:0:0:0:
225,102,157976,1,0,0:0:0:0:
192,160,158095,5,0,0:0:0:0:
193,172,158134,1,0,0:0:0:0:
191,187,158174,1,0,0:0:0:0:
194,198,158214,1,0,0:0:0:0:
191,213,158253,1,0,0:0:0:0:
191,219,158293,1,0,0:0:0:0:
256,192,158571,2,0,L|352:192,1,91.6666671633717
384,96,159087,5,0,0:0:0:0:
363,98,159166,1,0,0:0:0:0:
344,98,159246,1,0,0:0:0:0:
326,99,159325,1,0,0:0:0:0:
309,100,159404,1,0,0:0:0:0:
289,103,159484,1,0,0:0:0:0:
270,108,159563,1,0,0:0:0:0:
160,192,160039,2,0,L|256:192,1,91.6666671633717
288,192,160634,1,0,0:0:0:0:
320,192,160793,2,0,L|384:192,1,64.1666670143602
384,288,161428,2,0,L|288:288,1,91.6666671633717
224,192,162103,5,0,0:0:0:0:
211,194,162182,1,0,0:0:0:0:
200,199,162261,1,0,0:0:0:0:
192,210,162341,1,0,0:0:0:0:
191,223,162420,1,0,0:0:0:0:
201,233,162499,1,0,0:0:0:0:
256,192,162539,2,0,L|320:192,1,64.1666670143602
352,192,162896,2,0,L|352:256,1,64.1666670143602
288,288,163293,6,0,P|263:288|256:288,1,27.5000001490115
224,288,163690,2,0,L|160:288,1,64.1666670143602
192,128,164166,1,0,0:0:0:0:
192,96,164246,1,0,0:0:0:0:
192,64,164325,1,0,0:0:0:0:
224,64,164404,1,0,0:0:0:0:
256,64,164484,1,0,0:0:0:0:
288,64,164563,1,0,0:0:0:0:
288,128,164642,1,0,0:0:0:0:
288,160,164722,1,0,0:0:0:0:
256,160,164801,1,0,0:0:0:0:
224,192,164999,2,0,L|256:192,1,27.5000001490115
288,192,165357,2,0,L|352:192,1,64.1666670143602
416,192,165912,1,0,0:0:0:0:
402,193,165992,1,0,0:0:0:0:
390,195,166071,1,0,0:0:0:0:
373,196,166150,1,0,0:0:0:0:
359,198,166230,1,0,0:0:0:0:
343,200,166309,1,0,0:0:0:0:
327,202,166388,1,0,0:0:0:0:
320,195,166468,1,0,0:0:0:0:
316,185,166547,5,0,0:0:0:0:
313,173,166626,1,0,0:0:0:0:
312,161,166706,1,0,0:0:0:0:
309,146,166785,1,0,0:0:0:0:
192,96,167142,2,0,L|180:96,21,9.16666671633717
256,96,168134,1,0,0:0:0:0:
257,109,168174,1,0,0:0:0:0:
258,124,168214,1,0,0:0:0:0:
258,135,168253,1,0,0:0:0:0:
258,145,168293,1,0,0:0:0:0:
258,154,168333,1,0,0:0:0:0:
258,163,168373,1,0,0:0:0:0:
256,256,168928,1,0,0:0:0:0:
256,320,169126,2,0,L|192:320,2,64.1666670143602
320,320,169841,2,0,B|320:256|320:256|288:320,2,128.33333402872
384,320,171111,5,0,0:0:0:0:
383,301,171190,1,0,0:0:0:0:
382,282,171269,1,0,0:0:0:0:
383,265,171349,1,0,0:0:0:0:
381,250,171428,1,0,0:0:0:0:
160,96,172182,1,0,0:0:0:0:
178,97,172301,1,0,0:0:0:0:
198,97,172420,1,0,0:0:0:0:
223,95,172539,1,0,0:0:0:0:
240,96,172658,1,0,0:0:0:0:
259,97,172777,1,0,0:0:0:0:
280,102,172896,1,0,0:0:0:0:
288,96,173253,2,0,L|352:96,1,64.1666670143602
352,160,173650,2,0,L|288:160,1,64.1666670143602
224,160,174047,2,0,B|224:96|224:96|256:192,2,165.000000894069
256,192,176190,12,0,179960,0:0:0:0:
128,64,180238,5,0,0:0:0:0:
384,64,180714,1,0,0:0:0:0:
160,160,181190,1,0,0:0:0:0:
384,160,181666,1,0,0:0:0:0:
160,224,182142,1,0,0:0:0:0:
384,224,182619,1,0,0:0:0:0:
192,288,183095,1,0,0:0:0:0:
384,288,183571,1,0,0:0:0:0:
352,64,184047,1,0,0:0:0:0:
352,128,184246,2,0,L|352:224,1,91.6666671633717
288,224,184682,2,0,L|256:224,1,27.5000001490115
224,224,185079,2,0,L|224:128,1,91.6666671633717
192,128,185674,2,0,B|128:128|128:128|128:192,2,128.33333402872
256,128,187142,1,0,0:0:0:0:
288,128,187261,1,0,0:0:0:0:
320,128,187380,1,0,0:0:0:0:
352,128,187499,1,0,0:0:0:0:
384,128,187619,1,0,0:0:0:0:
416,128,187738,1,0,0:0:0:0:
448,128,187857,1,0,0:0:0:0:
480,128,187976,1,0,0:0:0:0:
320,128,188214,2,0,B|320:224|320:224|320:288,2,155.833334177732
256,128,189642,2,0,L|160:128,1,91.6666671633717
160,192,190158,2,0,L|160:288,1,91.6666671633717
160,352,190674,2,0,L|256:352,1,91.6666671633717
192,160,191349,6,0,L|288:160,1,91.6666671633717
320,160,191904,6,0,L|320:32,1,128.33333402872
352,32,192499,2,0,L|416:32,1,64.1666670143602
416,96,193134,2,0,L|416:160,1,64.1666670143602
416,224,193452,2,0,L|320:224,1,91.6666671633717
288,224,193928,2,0,L|288:96,1,128.33333402872
256,64,194722,2,0,L|160:64,1,91.6666671633717
96,64,195476,2,0,B|64:64|64:64|64:192,2,155.833334177732
128,64,196904,1,0,0:0:0:0:
192,64,197103,1,0,0:0:0:0:
320,64,197380,1,0,0:0:0:0:
320,128,197817,2,0,L|256:128,1,64.1666670143602
288,160,199285,2,0,L|288:96,1,64.1666670143602
256,64,199722,1,0,0:0:0:0:
288,64,199880,2,0,L|352:64,1,64.1666670143602
416,96,200357,2,0,L|416:160,1,64.1666670143602
256,128,200952,6,0,P|192:128|192:128,4,64.1666670143602
160,128,202142,1,0,0:0:0:0:
128,128,202222,2,0,L|128:288,1,155.833334177732
160,288,203095,2,0,L|224:288,1,64.1666670143602
288,288,203412,2,0,L|288:224,1,64.1666670143602
256,192,203809,2,0,L|192:160,1,64.1666670143602
192,128,204444,2,0,L|192:64,1,64.1666670143602
224,64,205039,2,0,L|288:96,1,64.1666670143602
320,96,205555,1,0,0:0:0:0:
320,128,205793,2,0,L|256:160,1,64.1666670143602
256,192,206666,2,0,B|256:96|256:96|256:128,2,128.33333402872
256,96,208095,5,0,0:0:0:0:
224,96,208134,1,0,0:0:0:0:
192,96,208174,1,0,0:0:0:0:
320,96,208571,1,0,0:0:0:0:
352,96,208611,1,0,0:0:0:0:
384,96,208650,1,0,0:0:0:0:
224,128,209047,1,0,0:0:0:0:
192,128,209087,1,0,0:0:0:0:
160,128,209126,1,0,0:0:0:0:
288,128,209523,1,0,0:0:0:0:
320,128,209563,1,0,0:0:0:0:
352,128,209603,1,0,0:0:0:0:
224,192,210119,2,0,L|224:128,1,64.1666670143602
288,128,210634,2,0,L|288:192,1,64.1666670143602
288,256,211031,1,0,0:0:0:0:
224,224,211468,2,0,L|192:192,1,45.8333335816858
160,160,211904,2,0,L|224:160,1,64.1666670143602
416,160,213095,2,0,L|416:64,1,91.6666671633717
288,64,213809,1,0,0:0:0:0:
160,64,214087,5,0,0:0:0:0:
161,94,214206,1,0,0:0:0:0:
162,125,214325,1,0,0:0:0:0:
160,159,214444,1,0,0:0:0:0:
162,192,214563,1,0,0:0:0:0:
64,192,214841,2,0,L|64:160,1,27.5000001490115
96,128,214960,2,0,L|160:128,1,64.1666670143602
192,128,215357,2,0,L|192:224,1,91.6666671633717
288,128,216071,1,0,0:0:0:0:
352,128,216309,2,0,L|416:128,1,64.1666670143602
480,128,216865,1,0,0:0:0:0:
480,192,217182,2,0,L|416:192,1,64.1666670143602
352,192,217619,1,0,0:0:0:0:
288,192,217817,2,0,L|288:128,1,64.1666670143602
320,64,218373,2,0,L|256:64,1,64.1666670143602
192,64,218809,1,0,0:0:0:0:
128,64,219047,2,0,L|128:160,1,91.6666671633717
192,160,219563,2,0,L|256:160,1,64.1666670143602
288,224,219999,2,0,L|160:224,1,128.33333402872
224,160,220912,5,0,0:0:0:0:
288,160,221031,2,0,L|352:160,1,64.1666670143602
416,160,221428,2,0,L|416:224,1,64.1666670143602
384,256,221865,2,0,L|320:256,1,64.1666670143602
256,192,222380,1,0,0:0:0:0:
249,186,222420,1,0,0:0:0:0:
243,179,222460,1,0,0:0:0:0:
192,128,222698,2,0,L|288:96,1,100.833333879709
320,96,223214,2,0,L|352:128,1,45.8333335816858
96,160,223611,6,0,L|160:160,1,64.1666670143602
224,160,224166,1,0,0:0:0:0:
288,160,224285,2,0,L|352:160,1,64.1666670143602
416,160,224761,2,0,L|416:224,1,64.1666670143602
352,224,225396,2,0,L|320:192,1,45.8333335816858
256,192,225873,2,0,L|224:256,1,64.1666670143602
128,160,226626,1,0,0:0:0:0:
128,96,226746,2,0,L|224:64,1,100.833333879709
384,96,227619,1,0,0:0:0:0:
128,160,227857,1,0,0:0:0:0:
256,160,228134,1,0,0:0:0:0:
288,160,228214,1,0,0:0:0:0:
320,160,228293,1,0,0:0:0:0:
352,160,228373,1,0,0:0:0:0:
384,160,228452,1,0,0:0:0:0:
416,128,228531,1,0,0:0:0:0:
448,96,228611,1,0,0:0:0:0:
416,64,228690,1,0,0:0:0:0:
384,64,228769,1,0,0:0:0:0:
352,64,228849,1,0,0:0:0:0:
320,64,228928,1,0,0:0:0:0:
288,64,229007,1,0,0:0:0:0:
352,160,229206,1,0,0:0:0:0:
160,160,229523,1,0,0:0:0:0:
256,256,229801,1,0,0:0:0:0:
256,96,230158,5,0,0:0:0:0:
256,128,230238,1,0,0:0:0:0:
256,160,230317,1,0,0:0:0:0:
256,192,230396,1,0,0:0:0:0:
256,192,230714,2,0,L|256:96,1,91.6666671633717
256,32,231626,1,0,0:0:0:0:
160,96,232063,5,0,0:0:0:0:
128,96,232103,1,0,0:0:0:0:
96,96,232142,1,0,0:0:0:0:
64,96,232182,1,0,0:0:0:0:
32,96,232222,1,0,0:0:0:0:
32,64,232261,1,0,0:0:0:0:
32,32,232301,1,0,0:0:0:0:
64,32,232341,1,0,0:0:0:0:
96,32,232380,1,0,0:0:0:0:
128,32,232420,1,0,0:0:0:0:
160,32,232460,1,0,0:0:0:0:
160,64,232499,1,0,0:0:0:0:
160,96,232539,1,0,0:0:0:0:
192,96,232579,1,0,0:0:0:0:
224,96,232619,1,0,0:0:0:0:
256,96,232658,1,0,0:0:0:0:
224,96,233214,2,0,L|224:160,1,64.1666670143602
288,160,233650,2,0,L|352:160,1,64.1666670143602
416,160,234007,1,0,0:0:0:0:
416,224,234206,1,0,0:0:0:0:
384,224,234246,1,0,0:0:0:0:
352,224,234285,1,0,0:0:0:0:
320,224,234325,1,0,0:0:0:0:
320,192,234365,1,0,0:0:0:0:
320,160,234404,1,0,0:0:0:0:
320,128,234444,1,0,0:0:0:0:
288,128,234484,1,0,0:0:0:0:
288,224,234801,2,0,L|288:128,1,91.6666671633717
288,96,235317,2,0,L|384:96,1,91.6666671633717
160,96,235912,1,0,0:0:0:0:
256,160,236190,5,0,0:0:0:0:
257,174,236269,1,0,0:0:0:0:
258,186,236349,1,0,0:0:0:0:
260,199,236428,1,0,0:0:0:0:
261,210,236507,1,0,0:0:0:0:
261,220,236587,1,0,0:0:0:0:
256,288,236746,1,0,0:0:0:0:
192,352,236904,2,0,L|320:352,1,128.33333402872
320,288,237539,1,0,0:0:0:0:
320,224,237619,2,0,L|192:224,1,128.33333402872
256,128,238333,1,0,0:0:0:0:
256,192,238571,2,0,L|256:64,1,128.33333402872
160,64,239246,1,0,0:0:0:0:
256,64,239404,1,0,0:0:0:0:
288,64,239484,1,0,0:0:0:0:
320,64,239563,1,0,0:0:0:0:
352,64,239642,1,0,0:0:0:0:
384,64,239722,1,0,0:0:0:0:
384,96,239801,1,0,0:0:0:0:
384,128,239880,1,0,0:0:0:0:
384,160,239960,1,0,0:0:0:0:
352,160,240039,1,0,0:0:0:0:
320,160,240119,1,0,0:0:0:0:
288,160,240198,1,0,0:0:0:0:
192,128,240317,2,0,L|320:128,1,128.33333402872
256,192,241071,2,0,L|256:64,1,128.33333402872
192,128,241904,6,0,L|320:128,1,128.33333402872
256,192,242658,2,0,L|256:64,1,128.33333402872
192,128,243412,1,0,0:0:0:0:
209,130,243492,1,0,0:0:0:0:
226,135,243571,1,0,0:0:0:0:
242,139,243650,1,0,0:0:0:0:
261,134,243730,1,0,0:0:0:0:
271,124,243809,1,0,0:0:0:0:
281,114,243888,1,0,0:0:0:0:
256,64,243968,2,0,L|256:32,1,27.5000001490115
480,32,244285,1,0,0:0:0:0:
480,64,244365,1,0,0:0:0:0:
480,96,244444,1,0,0:0:0:0:
480,128,244523,1,0,0:0:0:0:
480,160,244603,1,0,0:0:0:0:
448,160,244682,1,0,0:0:0:0:
416,160,244761,1,0,0:0:0:0:
384,160,244841,1,0,0:0:0:0:
352,160,244920,1,0,0:0:0:0:
352,192,244999,1,0,0:0:0:0:
352,224,245079,1,0,0:0:0:0:
352,256,245158,1,0,0:0:0:0:
352,288,245238,1,0,0:0:0:0:
320,288,245317,1,0,0:0:0:0:
288,288,245396,1,0,0:0:0:0:
256,288,245476,1,0,0:0:0:0:
224,288,245555,1,0,0:0:0:0:
224,256,245634,1,0,0:0:0:0:
224,224,245714,1,0,0:0:0:0:
224,192,245793,1,0,0:0:0:0:
224,160,245873,1,0,0:0:0:0:
224,128,245952,1,0,0:0:0:0:
192,128,246031,1,0,0:0:0:0:
160,128,246111,1,0,0:0:0:0:
128,128,246190,1,0,0:0:0:0:
96,128,246269,1,0,0:0:0:0:
64,128,246349,1,0,0:0:0:0:
256,192,246468,12,0,253809,0:0:0:0:
