osu file format v14

[General]
AudioFilename: audio.mp3
AudioLeadIn: 0
PreviewTime: -1
Countdown: 1
SampleSet: Soft
StackLeniency: 0.7
Mode: 0
LetterboxInBreaks: 0
WidescreenStoryboard: 1

[Editor]
DistanceSpacing: 1
BeatDivisor: 12
GridSize: 32
TimelineZoom: 1

[Metadata]
Title:Seven Nation Army (Glitch Mob Remix)
TitleUnicode:Seven Nation Army (Glitch Mob Remix)
Artist:The White Stripes
ArtistUnicode:The White Stripes
Creator:OnePunchOP
Version:All the Nations
Source:
Tags:
BeatmapID:1249209
BeatmapSetID:588290

[Difficulty]
HPDrainRate:7
CircleSize:5
OverallDifficulty:6
ApproachRate:9
SliderMultiplier:1.10000000596046
SliderTickRate:1

[Events]
//Background and Video events
0,0,"rendition1.img.jpg",0,0
Video,0,"Seven Nation Army (Glitch Mob Remix) - Lyric Video.mp4"
//Break Periods
//Storyboard Layer 0 (Background)
//Storyboard Layer 1 (Fail)
//Storyboard Layer 2 (Pass)
//Storyboard Layer 3 (Foreground)
//Storyboard Sound Samples

[TimingPoints]
0,476.190476190476,4,2,0,100,1,0

[Colours]
Combo1 : 255,192,0
Combo2 : 128,255,255
Combo3 : 128,0,64
Combo4 : 0,0,255

[HitObjects]
160,64,0,6,0,L|256:160,1,110.000000596046
320,192,793,1,0,0:0:0:0:
322,203,833,1,0,0:0:0:0:
323,210,873,1,0,0:0:0:0:
256,128,1190,1,0,0:0:0:0:
224,128,1428,6,0,B|128:96|128:96|128:96,1,82.5000004470348
160,192,2023,2,0,P|96:224|224:288,1,302.500001639126
256,96,4047,1,0,0:0:0:0:
352,128,4761,1,0,0:0:0:0:
256,96,4999,1,0,0:0:0:0:
244,94,5039,1,0,0:0:0:0:
233,93,5079,1,0,0:0:0:0:
160,96,5436,1,0,0:0:0:0:
224,64,5714,1,0,0:0:0:0:
308,156,6071,2,0,P|367:209|398:180,1,137.500000745057
96,32,7142,5,0,0:0:0:0:
224,96,8214,1,0,0:0:0:0:
288,192,8928,1,0,0:0:0:0:
256,64,9166,1,0,0:0:0:0:
160,96,9523,1,0,0:0:0:0:
320,128,9880,5,0,0:0:0:0:
277,60,10119,2,0,P|225:29|89:69,1,192.50000104308
256,96,11190,1,0,0:0:0:0:
256,128,12142,2,0,L|448:128,1,192.50000104308
448,192,13095,2,0,L|416:224,1,27.5000001490115
384,224,13452,2,0,L|352:192,1,27.5000001490115
352,160,13809,2,0,L|320:160,1,27.5000001490115
288,96,14166,6,0,L|32:96,1,247.500001341103
256,192,16071,5,0,0:0:0:0:
320,160,16547,1,0,0:0:0:0:
324,157,16587,1,0,0:0:0:0:
329,155,16626,1,0,0:0:0:0:
352,96,16904,1,0,0:0:0:0:
256,128,17142,1,0,0:0:0:0:
192,32,17499,1,0,0:0:0:0:
192,96,17857,1,0,0:0:0:0:
160,128,18095,2,0,P|128:224|224:256,1,220.000001192092
322,127,19523,1,0,0:0:0:0:
256,64,20119,1,0,0:0:0:0:
320,128,20634,1,0,0:0:0:0:
352,224,20873,5,0,0:0:0:0:
392,163,21150,1,0,0:0:0:0:
416,96,21428,1,0,0:0:0:0:
64,160,21785,1,0,0:0:0:0:
192,160,22023,1,0,0:0:0:0:
273,112,22658,1,0,0:0:0:0:
160,64,23095,1,0,0:0:0:0:
192,128,24047,5,0,0:0:0:0:
256,96,24880,1,0,0:0:0:0:
96,64,25158,1,0,0:0:0:0:
192,224,25515,1,0,0:0:0:0:
267,44,25833,1,0,0:0:0:0:
320,192,26071,1,0,0:0:0:0:
192,64,26666,1,0,0:0:0:0:
199,75,26706,1,0,0:0:0:0:
203,83,26746,1,0,0:0:0:0:
256,128,27142,5,0,0:0:0:0:
192,64,28095,1,0,0:0:0:0:
384,288,28571,1,0,0:0:0:0:
282,188,28809,1,0,0:0:0:0:
192,96,29047,1,0,0:0:0:0:
256,256,29404,5,0,0:0:0:0:
256,160,29880,1,0,0:0:0:0:
256,152,29920,1,0,0:0:0:0:
256,143,29960,1,0,0:0:0:0:
256,64,30476,1,0,0:0:0:0:
192,64,31428,5,0,0:0:0:0:
320,64,31587,1,0,0:0:0:0:
448,64,31825,1,0,0:0:0:0:
384,224,32142,1,0,0:0:0:0:
320,160,32380,2,0,L|224:96,1,110.000000596046
64,128,33095,1,0,0:0:0:0:
96,192,33333,1,0,0:0:0:0:
128,256,33531,1,0,0:0:0:0:
132,264,33571,1,0,0:0:0:0:
135,273,33611,1,0,0:0:0:0:
352,32,33809,1,0,0:0:0:0:
160,160,34047,1,0,0:0:0:0:
352,96,34880,5,0,0:0:0:0:
384,224,35039,1,0,0:0:0:0:
256,192,35595,1,0,0:0:0:0:
288,160,36190,2,0,P|352:256|352:256,1,146.666667461395
416,224,36904,1,0,0:0:0:0:
394,150,37103,1,0,0:0:0:0:
320,160,37499,1,0,0:0:0:0:
416,224,37857,1,0,0:0:0:0:
416,128,38095,5,0,0:0:0:0:
384,96,38690,2,0,L|288:32,1,110.000000596046
160,64,39444,1,0,0:0:0:0:
160,128,39603,1,0,0:0:0:0:
224,64,39761,1,0,0:0:0:0:
224,128,40039,1,0,0:0:0:0:
384,192,40317,1,0,0:0:0:0:
448,192,40515,1,0,0:0:0:0:
256,128,41071,5,0,0:0:0:0:
160,96,41547,1,0,0:0:0:0:
320,64,41785,1,0,0:0:0:0:
256,128,42142,2,0,L|288:128,8,27.5000001490115
224,128,43174,1,0,0:0:0:0:
128,192,43373,1,0,0:0:0:0:
224,288,43531,1,0,0:0:0:0:
336,57,44087,5,0,0:0:0:0:
224,64,44484,1,0,0:0:0:0:
288,224,44761,1,0,0:0:0:0:
224,96,45119,1,0,0:0:0:0:
320,128,45476,1,0,0:0:0:0:
256,128,46071,1,0,0:0:0:0:
224,96,46190,2,0,P|128:128|128:160,1,137.500000745057
256,192,47023,12,0,47857,0:0:0:0:
480,288,48134,5,0,0:0:0:0:
416,352,48412,1,0,0:0:0:0:
384,256,48650,1,0,0:0:0:0:
352,160,48769,1,0,0:0:0:0:
288,224,49047,1,0,0:0:0:0:
256,128,49523,1,0,0:0:0:0:
352,96,49999,1,0,0:0:0:0:
512,192,50476,1,0,0:0:0:0:
448,288,50674,1,0,0:0:0:0:
352,320,50833,1,0,0:0:0:0:
352,64,51031,1,0,0:0:0:0:
256,192,51428,1,0,0:0:0:0:
192,96,51785,1,0,0:0:0:0:
256,128,52182,6,0,L|256:256,1,128.33333402872
320,256,52936,1,0,0:0:0:0:
320,160,53214,1,0,0:0:0:0:
320,64,53492,1,0,0:0:0:0:
416,64,53809,1,0,0:0:0:0:
416,160,54047,2,0,L|352:160,3,64.1666670143602
256,128,55119,6,0,P|288:160|288:160,1,27.5000001490115
320,160,55595,1,0,0:0:0:0:
256,128,56190,6,0,B|224:64|128:96|160:64,1,110.000000596046
256,256,56790,1,0,0:0:0:0:
352,256,56944,1,0,0:0:0:0:
320,128,57142,1,0,0:0:0:0:
224,192,57499,1,0,0:0:0:0:
288,224,57857,1,0,0:0:0:0:
448,224,58134,1,0,0:0:0:0:
448,32,58412,1,0,0:0:0:0:
352,96,58650,1,0,0:0:0:0:
288,192,58928,1,0,0:0:0:0:
224,128,59285,6,0,P|160:160|160:160,1,55.000000298023
288,96,59761,1,0,0:0:0:0:
384,128,59999,1,0,0:0:0:0:
320,192,60238,5,0,0:0:0:0:
100,50,60833,1,0,0:0:0:0:
128,128,60952,1,0,0:0:0:0:
160,224,61190,1,0,0:0:0:0:
352,192,61547,1,0,0:0:0:0:
416,192,61904,1,0,0:0:0:0:
256,160,62142,6,0,B|256:64|96:128|96:128,1,330.000001788138
160,128,64166,2,0,P|160:192|288:224,1,192.50000104308
142,246,66071,1,0,0:0:0:0:
224,256,66190,2,0,P|288:320|416:288,1,220.000001192092
350,258,67301,5,0,0:0:0:0:
352,160,67460,1,0,0:0:0:0:
192,224,67619,1,0,0:0:0:0:
160,160,67738,1,0,0:0:0:0:
224,160,68095,5,0,0:0:0:0:
231,153,68134,1,0,0:0:0:0:
238,148,68174,1,0,0:0:0:0:
283,108,68730,1,0,0:0:0:0:
224,32,68888,1,0,0:0:0:0:
160,128,69087,1,0,0:0:0:0:
288,128,69523,5,0,0:0:0:0:
128,64,69880,1,0,0:0:0:0:
256,64,70158,1,0,0:0:0:0:
352,160,70476,1,0,0:0:0:0:
224,192,70952,2,0,L|192:192,5,27.5000001490115
160,160,71547,1,0,0:0:0:0:
288,128,72142,1,0,0:0:0:0:
192,128,72857,5,0,0:0:0:0:
192,224,73253,1,0,0:0:0:0:
320,128,73452,1,0,0:0:0:0:
416,192,73809,1,0,0:0:0:0:
160,160,74047,2,0,L|192:96,1,55.000000298023
224,128,74404,2,0,P|224:192|224:160,1,82.5000004470345
192,96,74999,1,0,0:0:0:0:
320,192,75595,1,0,0:0:0:0:
288,288,75714,1,0,0:0:0:0:
192,192,75833,5,0,0:0:0:0:
448,192,76190,1,0,0:0:0:0:
192,160,76785,1,0,0:0:0:0:
288,128,77142,1,0,0:0:0:0:
192,64,77499,5,0,0:0:0:0:
320,64,77857,1,0,0:0:0:0:
192,64,78174,1,0,0:0:0:0:
195,74,78214,1,0,0:0:0:0:
198,84,78253,1,0,0:0:0:0:
224,128,78571,1,0,0:0:0:0:
352,128,79126,1,0,0:0:0:0:
306,236,79523,1,0,0:0:0:0:
224,160,79880,1,0,0:0:0:0:
288,160,80119,1,0,0:0:0:0:
103,169,80674,1,0,0:0:0:0:
320,256,80952,1,0,0:0:0:0:
224,224,81190,1,0,0:0:0:0:
192,288,81547,1,0,0:0:0:0:
160,352,81904,1,0,0:0:0:0:
224,192,82142,6,0,L|192:160,1,27.5000001490115
263,168,82380,2,0,L|189:92,1,82.5000004470345
208,74,82777,1,0,0:0:0:0:
225,41,82857,1,0,0:0:0:0:
264,91,83174,1,0,0:0:0:0:
