osu file format v14

[General]
AudioFilename: audio.mp3
AudioLeadIn: 0
PreviewTime: 42344
Countdown: 1
SampleSet: Soft
StackLeniency: 0.7
Mode: 0
LetterboxInBreaks: 0
WidescreenStoryboard: 1

[Editor]
Bookmarks: 8627,12875,17123,21105,25618,29866,34114,38362
DistanceSpacing: 1
BeatDivisor: 4
GridSize: 16
TimelineZoom: 1

[Metadata]
Title:The Hills
TitleUnicode:The Hills
Artist:The Weeknd
ArtistUnicode:The Weeknd
Creator:Donmeetsapig
Version:Easy
Source:
Tags:Pop Beauty behind the madness 2016 tell your friends can't feel my face
BeatmapID:1362662
BeatmapSetID:432027

[Difficulty]
HPDrainRate:3
CircleSize:3
OverallDifficulty:3
ApproachRate:3
SliderMultiplier:1
SliderTickRate:1

[Events]
//Background and Video events
0,0,"the hills osu new bg.jpg",0,0
//Break Periods
//Storyboard Layer 0 (Background)
//Storyboard Layer 1 (Fail)
//Storyboard Layer 2 (Pass)
//Storyboard Layer 3 (Foreground)
//Storyboard Sound Samples

[TimingPoints]
132,530.973451327434,4,2,0,5,1,0
25618,-100,4,2,0,25,0,0
41547,-100,4,2,0,5,0,0
44733,-100,4,2,0,50,0,1
78716,-100,4,2,0,5,0,0

[Colours]
Combo1 : 176,0,0
Combo2 : 255,4,4

[HitObjects]
80,64,8627,6,0,P|144:96|256:192,1,200
320,240,10220,1,0,0:0:0:0:
368,336,10751,2,0,P|416:288|416:240,2,100
224,336,12875,6,0,P|240:272|288:144,1,200
336,48,14468,1,0,0:0:0:0:
336,48,14999,2,0,P|272:64|208:96,1,100
128,128,17123,6,0,P|160:176|304:240,1,200
384,256,18716,1,0,0:0:0:0:
480,256,19247,2,0,P|464:320|416:352,2,100
480,144,21370,6,0,P|400:128|256:144,1,200
192,176,22963,1,0,0:0:0:0:
96,208,23494,6,0,P|96:144|144:80,1,100
160,48,25618,6,0,P|224:80|272:128,1,100
320,192,26680,2,0,P|256:208|192:208,1,100,8|0,0:1|0:1,0:1:0:0:
96,208,27742,6,0,P|128:144|192:112,1,100
256,96,29866,6,0,P|176:48|144:32,2,100,0|0|8,0:1|0:1|0:1,0:0:0:0:
352,160,31459,1,0,0:0:0:0:
432,240,31990,6,0,P|368:272|336:272,1,100
160,240,34114,6,0,P|176:160|192:128,1,100
240,64,35176,2,0,P|320:80|352:96,1,100,8|0,0:1|0:0,0:0:0:0:
416,144,36238,6,0,P|400:224|384:256,1,100
288,304,38362,6,0,P|336:336|384:400,2,100,0|0|8,0:0|0:0|0:1,0:0:0:0:
192,256,39955,1,0,0:0:0:0:
96,224,40485,6,0,P|128:160|192:112,1,110.000003356934
256,80,41547,1,0,0:0:0:0:
256,192,42609,12,0,44202,0:0:0:0:
288,224,44733,6,0,B|240:208|240:208|192:160,1,100,4|0,0:3|0:0,0:0:0:0:
144,96,45795,2,0,P|208:80|272:96,1,100,8|4,0:3|0:3,0:3:0:0:
352,112,46857,6,0,L|384:64,2,50,0|4|4,0:0|0:3|0:3,0:0:0:0:
288,192,47919,2,0,P|224:224|176:224,1,100
96,192,48981,6,0,B|96:144|96:144|144:112,1,100,4|0,0:3|0:0,0:0:0:0:
224,64,50043,2,0,P|272:96|304:160,1,100,8|4,0:3|0:3,0:3:0:0:
320,224,51105,6,0,L|368:272,2,50,0|4|4,0:0|0:3|0:3,0:0:0:0:
240,160,52167,2,0,P|224:96|256:48,1,100
288,16,53229,6,0,B|304:48|304:48|304:128,1,100,4|0,0:3|0:0,0:0:0:0:
272,208,54291,2,0,P|192:208|160:192,1,100,8|4,0:3|0:3,0:0:0:0:
112,144,55353,6,0,B|144:112|144:112|208:96,1,100,0|4,0:0|0:3,0:0:0:0:
272,80,56415,2,0,P|320:112|352:160,1,100,8|0,0:3|0:0,0:0:0:0:
368,208,57477,6,0,B|320:224|320:224|256:208,1,100,4|0,0:3|0:0,0:0:0:0:
208,176,58539,2,0,P|224:128|272:96,1,100,8|4,0:3|0:3,0:0:0:0:
368,80,59601,6,0,P|400:32|448:16,2,100,0|4|8,0:0|3:0|0:3,0:0:0:0:
352,176,61193,1,0,0:0:0:0:
320,272,61724,6,0,B|272:288|272:288|208:256,1,100,4|0,0:3|0:3,0:3:0:0:
160,208,62786,2,0,P|176:144|208:96,1,100,8|4,0:3|0:3,0:3:0:0:
256,48,63848,6,0,L|304:0,2,50,0|4|4,0:3|0:3|0:3,0:3:0:0:
192,128,64910,2,0,P|160:192|160:240,1,100,8|0,0:3|0:0,0:0:0:0:
176,320,65972,6,0,B|224:304|224:304|256:240,1,100,4|0,0:3|0:0,0:0:0:0:
272,160,67034,2,0,P|256:112|208:80,1,100,8|4,0:3|0:3,0:3:0:0:
128,80,68096,6,0,L|96:32,2,50,0|4|4,0:3|0:3|0:3,0:3:0:0:
176,160,69158,2,0,P|224:192|288:192,1,100,8|0,0:3|0:0,0:0:0:0:
368,192,70220,6,0,B|352:128|352:128|304:96,1,100,4|0,0:3|0:0,0:0:0:0:
224,64,71282,2,0,P|176:128|160:176,1,100,8|4,0:3|0:3,0:3:0:0:
160,240,72344,6,0,B|224:256|224:256|272:224,1,100,0|4,0:0|0:3,0:0:0:0:
336,176,73406,2,0,P|320:128|272:80,1,100,8|0,0:3|0:0,0:0:0:0:
192,64,74468,6,0,B|160:96|160:96|144:160,1,100,4|0,0:3|0:0,0:0:0:0:
128,240,75530,2,0,P|176:272|240:288,1,100,8|4,0:3|0:3,0:3:0:0:
304,304,76592,6,0,P|336:240|352:192,1,100,0|4,0:0|0:3,0:0:0:0:
384,144,77654,1,8,0:0:0:0:
